osu file format v14

[General]
AudioFilename: angel eyes.mp3
AudioLeadIn: 0
PreviewTime: 37130
Countdown: 0
SampleSet: Soft
StackLeniency: 0.7
Mode: 0
LetterboxInBreaks: 1
EpilepsyWarning: 1
WidescreenStoryboard: 1

[Editor]
DistanceSpacing: 1
BeatDivisor: 4
GridSize: 4
TimelineZoom: 0.8

[Metadata]
Title:Angel Eyes
TitleUnicode:Angel Eyes
Artist:Love and Theft
ArtistUnicode:Love and Theft
Creator:Gray Veyron
Version:Normal
Source:
Tags:duo stephen barker liles eric gunderson hot country platinum
BeatmapID:622523
BeatmapSetID:274179

[Difficulty]
HPDrainRate:4
CircleSize:3.5
OverallDifficulty:3
ApproachRate:4
SliderMultiplier:1.2
SliderTickRate:1

[Events]
//Background and Video events
0,0,"BG3.png",0,0
//Break Periods
2,60107,67476
2,126773,136365
//Storyboard Layer 0 (Background)
//Storyboard Layer 1 (Fail)
//Storyboard Layer 2 (Pass)
//Storyboard Layer 3 (Foreground)
//Storyboard Sound Samples

[TimingPoints]
2130,555.555555555556,4,2,0,50,1,0
37685,-100,4,2,0,75,0,1
51018,-100,4,2,0,50,0,0
57963,-100,4,2,0,25,0,0
59907,-100,4,2,0,50,0,0
86574,-100,4,2,0,75,0,1
99907,-100,4,2,0,50,0,0
137685,-100,4,2,2,50,0,0
146574,-100,4,2,0,80,0,1
155370,-100,4,2,0,80,0,0
155463,-100,4,2,0,80,0,1
164259,-100,4,2,0,80,0,0
164352,-100,4,2,0,80,0,1
168796,-100,4,2,0,50,0,0
180185,-100,4,2,0,80,0,1
180324,-100,4,2,0,50,0,0

[Colours]
Combo1 : 181,74,90
Combo2 : 56,146,83
Combo3 : 159,113,116
Combo4 : 175,177,90

[HitObjects]
396,256,19907,5,4,0:0:0:0:
292,316,20463,1,2,3:0:0:0:
288,256,20741,1,0,0:0:0:0:
256,204,21018,2,0,P|192:224|156:264,1,120,0|2,0:0|3:0,0:0:0:0:
72,180,22130,6,0,P|57:245|73:296,2,120,0|2|0,0:0|3:0|0:0,0:0:0:0:
120,144,23518,1,0,0:0:0:0:
164,104,23796,1,2,3:0:0:0:
284,100,24352,5,0,0:0:0:0:
372,180,24907,1,2,3:0:0:0:
404,232,25185,1,0,0:0:0:0:
412,292,25463,2,0,B|388:324|332:328|332:328|300:304,1,120,0|2,0:0|3:0,0:0:0:0:
236,216,26574,6,0,B|212:198|212:198|156:202|132:234,1,120,0|2,0:0|3:0,0:0:0:0:
60,328,27685,1,0,0:0:0:0:
24,280,27963,1,2,3:0:0:0:
16,220,28241,1,2,3:0:0:0:
72,116,28796,6,0,P|128:96|192:112,1,120,0|2,0:0|3:0,0:0:0:0:
236,144,29630,1,0,0:0:0:0:
288,172,29907,2,0,B|344:200|344:200|404:176,1,120,0|2,0:0|3:0,0:0:0:0:
328,276,31018,6,0,B|272:248|272:248|218:269,1,120,0|2,0:0|3:0,0:0:0:0:
104,308,32130,1,0,0:0:0:0:
88,252,32407,1,0,0:0:0:0:
48,208,32685,1,2,3:0:0:0:
24,92,33241,6,0,P|88:92|132:124,1,120,0|2,0:0|3:0,0:0:0:0:
248,100,34352,2,0,P|248:164|216:208,1,120,0|2,0:0|3:0,0:0:0:0:
164,236,35185,1,0,0:0:0:0:
112,264,35463,6,0,L|196:360,1,120,0|2,0:0|3:0,0:0:0:0:
292,288,36574,2,0,P|356:296|408:328,1,120,0|4,0:0|0:0,0:0:0:0:
464,328,37407,1,0,0:0:0:0:
464,328,37685,6,0,P|477:260|455:208,1,120,4|8,0:0|0:0,0:0:0:0:
424,164,38518,1,0,0:0:0:0:
372,136,38796,2,0,B|316:156|316:156|256:140,1,120,0|8,0:0|0:0,0:0:0:0:
200,116,39630,1,0,0:0:0:0:
80,116,40185,6,0,P|84:152|112:184,1,60,0|8,0:0|0:0,0:0:0:0:
140,212,40741,1,0,0:0:0:0:
200,224,41018,2,0,B|227:231|261:211|261:211|307:249,1,120,0|8,0:0|0:0,0:0:0:0:
408,188,42130,6,0,L|316:112,1,120,0|8,0:0|0:0,0:0:0:0:
268,76,42963,1,0,0:0:0:0:
208,84,43241,2,0,B|176:96|160:124|160:124|144:152|120:164,1,120,0|8,0:0|0:0,0:0:0:0:
64,184,44074,1,0,0:0:0:0:
48,304,44630,6,0,B|80:304|80:304|116:288,1,60,0|8,0:0|0:0,0:0:0:0:
160,268,45185,1,0,0:0:0:0:
212,240,45463,2,0,B|268:212|268:212|328:212,1,120,0|12,0:0|0:0,0:0:0:0:
408,128,46574,6,0,P|356:100|292:104,1,120,4|8,0:0|0:0,0:0:0:0:
240,124,47407,1,0,0:0:0:0:
184,144,47685,2,0,P|148:148|108:140,1,60
68,120,48241,2,0,L|36:192,1,60,8|0,0:0|0:0,0:0:0:0:
36,296,49074,5,0,0:0:0:0:
36,296,49352,2,0,B|48:320|84:328|84:328|120:320|140:288,1,120,8|0,0:0|0:0,0:0:0:0:
204,200,50463,1,8,3:0:0:0:
248,240,50741,1,8,3:0:0:0:
304,264,51018,6,0,P|364:272|420:252,1,120,4|8,0:0|3:0,0:0:0:0:
352,152,52130,2,0,P|360:92|340:36,1,120,0|8,0:0|3:0,0:0:0:0:
240,104,53241,6,0,P|180:96|124:116,1,120,0|8,0:0|3:0,0:0:0:0:
192,212,54352,2,0,P|184:272|204:328,1,120,0|8,0:0|3:0,0:0:0:0:
256,352,55185,1,2,3:0:0:0:
316,340,55463,6,0,L|436:300,1,120,0|8,0:0|3:0,0:0:0:0:
344,216,56574,2,0,L|464:176,1,120,0|8,0:0|3:0,0:0:0:0:
368,100,57685,5,2,3:0:0:0:
368,100,57963,2,0,L|254:137,1,120,0|0,0:0|3:0,0:0:0:0:
196,152,58796,2,0,B|164:144|136:160|136:160|104:152|80:168,1,120,0|8,0:0|3:0,0:0:0:0:
36,208,59630,1,0,0:0:0:0:
48,268,59907,1,4,0:0:0:0:
424,144,68796,5,4,0:0:0:0:
308,108,69352,2,0,P|272:120|248:148,1,60,2|0,3:0|0:0,0:0:0:0:
224,184,69907,2,0,P|196:200|168:200,1,60
108,192,70463,2,0,P|78:192|52:208,1,60,2|0,3:0|0:0,0:0:0:0:
16,252,71018,5,0,0:0:0:0:
112,324,71574,1,2,3:0:0:0:
172,316,71852,1,0,0:0:0:0:
232,308,72130,2,0,L|352:288,1,120,0|2,0:0|3:0,0:0:0:0:
396,176,73241,6,0,L|334:188,1,60
276,196,73796,2,0,P|244:192|208:200,1,60,2|0,3:0|0:0,0:0:0:0:
160,216,74352,2,0,P|100:208|56:168,1,120,0|2,0:0|3:0,0:0:0:0:
152,96,75463,6,0,P|212:104|256:140,2,90
96,116,76574,1,0,0:0:0:0:
160,216,77130,1,2,3:0:0:0:
192,264,77407,1,0,0:0:0:0:
248,284,77685,6,0,P|312:264|340:216,1,120,0|2,0:0|3:0,0:0:0:0:
456,204,78796,2,0,P|436:140|388:112,1,120,0|2,0:0|3:0,0:0:0:0:
332,120,79630,1,0,0:0:0:0:
280,148,79907,6,0,L|224:180,1,60
176,204,80463,1,2,3:0:0:0:
96,292,81018,2,0,B|128:300|140:328|140:328|168:312|200:320,1,120,0|2,0:0|3:0,0:0:0:0:
252,348,81852,1,0,0:0:0:0:
296,236,82407,6,0,P|324:248|348:280,2,60,0|2|0,0:0|3:0|0:0,0:0:0:0:
236,228,83241,2,0,P|180:204|152:144,1,120,0|2,0:0|3:0,0:0:0:0:
144,96,84074,1,0,0:0:0:0:
264,108,84630,6,0,P|312:116|352:112,2,90,8|8|8,3:0|3:0|3:0,0:0:0:0:
204,96,85741,1,8,3:0:0:0:
144,96,86018,2,0,L|96:140,1,60,4|0,0:0|0:0,0:0:0:0:
99,136,86574,6,0,B|120:192|120:192|96:252,1,120,4|8,0:0|0:0,0:0:0:0:
76,304,87407,1,0,0:0:0:0:
132,320,87685,2,0,B|164:328|164:328|200:316,1,60
248,300,88241,2,0,B|280:292|280:292|316:304,1,60,8|0,0:0|0:0,0:0:0:0:
420,340,89074,5,0,0:0:0:0:
408,280,89352,2,0,P|408:228|452:172,1,120,8|0,0:0|0:0,0:0:0:0:
420,56,90463,1,8,0:0:0:0:
376,100,90741,1,0,0:0:0:0:
324,128,91018,5,4,0:0:0:0:
204,124,91574,2,0,P|212:184|264:228,1,120,8|0,0:0|0:0,0:0:0:0:
308,252,92407,1,0,0:0:0:0:
364,276,92685,2,0,P|388:292|404:324,1,60,8|0,0:0|0:0,0:0:0:0:
292,360,93518,5,0,0:0:0:0:
236,344,93796,2,0,P|204:312|196:240,1,120,8|0,0:0|0:0,0:0:0:0:
232,192,94630,1,8,3:0:0:0:
176,168,94907,1,4,0:0:0:0:
64,124,95463,6,0,B|52:88|64:60|64:60|96:68|136:68,1,120,4|8,0:0|0:0,0:0:0:0:
176,72,96296,1,0,0:0:0:0:
232,68,96574,2,0,B|253:68|285:60|285:60|297:88|285:124,1,120,0|8,0:0|0:0,0:0:0:0:
264,180,97407,1,0,0:0:0:0:
232,296,97963,5,0,0:0:0:0:
232,296,98241,2,0,B|260:312|296:312|296:312|296:276|328:256,1,120,8|0,0:0|0:0,0:0:0:0:
360,224,99074,1,8,3:0:0:0:
416,204,99352,1,8,3:0:0:0:
476,212,99630,1,8,3:0:0:0:
476,212,99907,6,0,B|464:116|464:116|424:104,1,120,4|8,0:0|3:0,0:0:0:0:
324,80,101018,2,0,B|228:92|228:92|216:132,1,120,0|8,0:0|3:0,0:0:0:0:
208,232,102130,2,0,B|220:328|220:328|260:340,1,120,0|8,0:0|3:0,0:0:0:0:
364,344,103241,2,0,B|460:332|460:332|472:292,1,120,0|8,0:0|3:0,0:0:0:0:
480,252,104074,1,2,3:0:0:0:
476,192,104352,6,0,B|448:176|448:176|408:192|356:192,1,120,0|8,0:0|3:0,0:0:0:0:
244,192,105463,2,0,B|198:192|158:176|158:176|130:192,1,120,0|8,0:0|3:0,0:0:0:0:
84,228,106296,1,0,0:0:0:0:
60,284,106574,5,0,0:0:0:0:
60,284,106852,2,0,P|100:324|160:319,1,120,8|0,3:0|0:0,0:0:0:0:
208,288,107685,2,0,P|266:283|307:324,1,120,8|8,3:0|3:0,0:0:0:0:
348,368,108518,1,8,3:0:0:0:
408,356,108796,5,4,0:0:0:0:
468,252,109352,2,0,P|408:232|352:252,1,120,2|0,3:0|0:0,0:0:0:0:
252,312,110463,1,2,3:0:0:0:
248,192,111018,6,0,P|282:144|339:126,2,120,0|2|0,0:0|3:0|0:0,0:0:0:0:
356,248,112685,1,4,0:0:0:0:
308,288,112963,1,0,0:0:0:0:
252,312,113241,6,0,P|192:320|136:300,1,120,4|2,0:0|3:0,0:0:0:0:
84,272,114074,1,0,0:0:0:0:
112,220,114352,2,0,P|120:160|100:104,1,120,0|2,0:0|3:0,0:0:0:0:
208,52,115463,6,0,P|256:85|284:138,1,120,0|2,0:0|3:0,0:0:0:0:
300,256,116574,1,0,0:0:0:0:
352,284,116852,2,0,P|380:296|412:300,2,60,8|8|8,3:0|3:0|3:0,0:0:0:0:
300,256,117685,6,0,B|260:232|260:232|224:252|188:252,1,120,4|2,0:0|3:0,0:0:0:0:
168,132,118796,2,0,B|208:156|208:156|244:136|280:136,1,120,0|2,0:0|3:0,0:0:0:0:
336,148,119630,1,0,0:0:0:0:
388,180,119907,6,0,P|420:228|420:300,1,120,0|2,0:0|3:0,0:0:0:0:
304,268,121018,2,0,P|256:300|184:300,1,120,0|4,0:0|0:0,0:0:0:0:
140,280,121852,1,0,0:0:0:0:
100,236,122130,6,0,P|84:216|76:184,1,60,4|0,0:0|0:0,0:0:0:0:
124,144,122685,2,0,P|156:96|156:20,1,120,8|0,3:0|0:0,0:0:0:0:
44,56,123796,1,0,0:0:0:0:
12,108,124074,1,8,3:0:0:0:
16,168,124352,6,0,P|32:196|72:216,1,60,8|8,3:0|3:0,0:0:0:0:
112,228,124907,2,0,L|184:232,1,60,8|8,3:0|3:0,0:0:0:0:
232,236,125463,2,0,P|260:244|284:272,2,60,8|8|8,3:0|3:0|3:0,3:0:0:0:
172,232,126296,2,0,L|188:168,1,60,8|4,3:0|0:0,0:0:0:0:
412,160,137685,5,8,0:0:0:0:
388,276,138241,1,8,0:0:0:0:
300,196,138796,1,8,0:0:0:0:
276,312,139352,1,8,0:0:0:0:
184,232,139907,6,0,P|120:244|76:288,2,120,8|8|8,0:0|0:0|0:0,0:0:0:0:
276,312,141574,1,8,0:0:0:0:
300,196,142130,6,0,P|259:137|203:116,1,120,8|8,0:0|0:0,0:0:0:0:
96,116,143241,2,0,P|43:143|8:212,1,120,8|8,0:0|0:0,0:0:0:0:
72,304,144352,5,4,3:0:0:0:
72,304,146574,6,0,P|132:328|188:328,1,120,4|8,2:1|0:0,0:0:0:0:
240,296,147407,1,0,0:0:0:0:
288,264,147685,2,0,B|348:264|348:264|402:288,1,120,0|8,0:0|0:0,0:0:0:0:
456,312,148518,1,0,0:0:0:0:
428,196,149074,5,0,0:0:0:0:
428,196,149352,2,0,B|373:171|373:171|313:171,1,120,8|0,0:0|0:0,0:0:0:0:
192,172,150463,1,8,0:0:0:0:
132,156,150741,1,0,0:0:0:0:
76,136,151018,6,0,P|68:84|120:52,1,120,4|8,0:0|0:0,0:0:0:0:
236,88,152130,2,0,P|244:140|192:172,1,120,0|8,0:0|0:0,0:0:0:0:
132,156,152963,1,0,0:0:0:0:
88,196,153241,6,0,P|76:252|108:316,1,120,8|8,0:3|3:0,0:0:0:0:
200,240,154352,1,8,3:0:0:0:
296,308,154907,1,8,3:0:0:0:
296,308,155185,1,0,0:0:0:0:
296,308,155463,6,0,L|408:264,1,120,4|8,2:1|0:0,0:0:0:0:
420,204,156296,1,0,0:0:0:0:
368,172,156574,2,0,L|256:216,1,120,0|8,0:0|0:0,0:0:0:0:
200,236,157407,1,0,0:0:0:0:
80,236,157963,5,0,0:0:0:0:
80,236,158241,2,0,P|96:172|144:132,1,120,8|0,0:0|0:0,0:0:0:0:
192,116,159074,1,0,0:0:0:0:
252,108,159352,2,0,P|284:100|308:80,1,60,8|0,0:0|0:0,0:0:0:0:
336,32,159907,6,0,L|392:64,1,60,4|0,0:0|0:0,0:0:0:0:
440,92,160463,1,8,0:0:0:0:
472,208,161018,2,0,L|416:176,1,60,0|0,0:0|0:0,0:0:0:0:
368,148,161574,1,8,0:0:0:0:
308,164,161852,1,0,0:0:0:0:
204,224,162407,5,0,0:0:0:0:
204,224,162685,2,0,B|184:228|156:256|156:256|128:228|104:224,1,120,8|0,0:0|0:0,0:0:0:0:
44,220,163518,1,8,3:0:0:0:
16,168,163796,1,8,3:0:0:0:
52,120,164074,1,8,3:0:0:0:
112,116,164352,6,0,P|172:100|228:60,1,120,4|8,2:1|0:0,0:0:0:0:
340,64,165463,1,0,0:0:0:0:
391,96,165741,1,0,0:0:0:0:
447,112,166018,2,0,L|464:184,1,60,8|0,0:0|0:0,0:0:0:0:
484,288,166852,5,0,0:0:0:0:
484,288,167130,2,0,P|424:288|376:248,1,120,8|0,0:0|0:0,0:0:0:0:
336,208,167963,1,8,3:0:0:0:
280,192,168241,1,8,3:0:0:0:
160,192,168796,6,0,B|160:256|160:256|184:308,1,120,4|8,0:0|3:0,0:0:0:0:
304,308,169907,2,0,B|304:244|304:244|280:192,1,120,0|8,0:0|3:0,0:0:0:0:
248,144,170741,1,0,0:0:0:0:
256,84,171018,6,0,P|320:84|364:120,1,120,0|8,0:0|3:0,0:0:0:0:
480,96,172130,2,0,P|480:160|444:204,1,120,0|8,0:0|3:0,0:0:0:0:
392,224,172963,1,2,3:0:0:0:
332,220,173241,6,0,B|292:292|292:292|252:304,1,120,0|8,0:0|3:0,0:0:0:0:
216,192,174352,2,0,B|256:120|256:120|296:108,1,120,0|8,0:0|3:0,0:0:0:0:
352,96,175185,1,0,0:0:0:0:
412,108,175463,6,0,B|448:118|448:118|488:190,2,120,4|8|8,3:0|3:0|3:0,0:0:0:0:
368,220,177130,1,8,3:0:0:0:
324,332,177685,6,0,B|287:321|287:321|247:249,2,120,8|8|8,3:0|3:0|3:0,0:0:0:0:
368,220,179352,1,8,3:0:0:0:
256,192,180185,12,0,184352,0:0:0:0:
256,192,186018,1,8,3:0:0:0:
196,88,186574,2,0,P|172:104|152:132,2,60,0|8|8,0:0|3:0|3:0,0:0:0:0:
256,72,187407,1,8,3:0:0:0:
316,88,187685,1,4,0:0:0:0:
