osu file format v14

[General]
AudioFilename: angel eyes.mp3
AudioLeadIn: 0
PreviewTime: 37130
Countdown: 0
SampleSet: Soft
StackLeniency: 0.7
Mode: 0
LetterboxInBreaks: 1
EpilepsyWarning: 1
WidescreenStoryboard: 1

[Editor]
DistanceSpacing: 1
BeatDivisor: 4
GridSize: 4
TimelineZoom: 0.8

[Metadata]
Title:Angel Eyes
TitleUnicode:Angel Eyes
Artist:Love and Theft
ArtistUnicode:Love and Theft
Creator:Gray Veyron
Version:Easy
Source:
Tags:duo stephen barker liles eric gunderson hot country platinum
BeatmapID:622521
BeatmapSetID:274179

[Difficulty]
HPDrainRate:2
CircleSize:3
OverallDifficulty:2
ApproachRate:3
SliderMultiplier:0.8
SliderTickRate:1

[Events]
//Background and Video events
0,0,"BG3.png",0,0
//Break Periods
2,60107,67356
2,126774,136245
//Storyboard Layer 0 (Background)
//Storyboard Layer 1 (Fail)
//Storyboard Layer 2 (Pass)
//Storyboard Layer 3 (Foreground)
//Storyboard Sound Samples

[TimingPoints]
2130,555.555555555556,4,2,0,50,1,0
37685,-100,4,2,0,75,0,1
51018,-100,4,2,0,50,0,0
57963,-100,4,2,0,25,0,0
59907,-100,4,2,0,50,0,0
86574,-100,4,2,0,75,0,1
99907,-100,4,2,0,50,0,0
137685,-100,4,2,2,50,0,0
146574,-100,4,2,0,80,0,1
155370,-100,4,2,0,80,0,0
155463,-100,4,2,0,80,0,1
164259,-100,4,2,0,80,0,0
164352,-100,4,2,0,80,0,1
168796,-100,4,2,0,50,0,0
180185,-100,4,2,0,80,0,1
180324,-100,4,2,0,50,0,0

[Colours]
Combo1 : 181,74,90
Combo2 : 56,146,83
Combo3 : 159,113,116
Combo4 : 175,177,90

[HitObjects]
404,108,19907,6,0,P|404:164|332:232,1,160,4|0,0:0|0:0,0:0:0:0:
256,208,21574,1,2,3:0:0:0:
180,232,22130,2,0,P|117:185|108:108,1,160,0|0,0:0|0:0,0:0:0:0:
164,52,23796,1,2,3:0:0:0:
244,48,24352,6,0,P|292:52|328:72,1,80,0|2,0:0|3:0,0:0:0:0:
344,144,25463,2,0,L|412:204,1,80,0|2,0:0|3:0,0:0:0:0:
464,252,26574,2,0,P|452:312|364:344,1,160
308,288,28241,1,2,3:0:0:0:
232,264,28796,6,0,L|156:292,1,80,0|2,0:0|3:0,0:0:0:0:
100,236,29907,2,0,B|60:248|60:248|16:248,1,80,0|2,0:0|3:0,0:0:0:0:
36,168,31018,2,0,B|120:148|120:148|160:160|196:140,1,160
152,72,32685,1,2,3:0:0:0:
232,64,33241,6,0,L|320:60,1,80,0|2,0:0|3:0,0:0:0:0:
392,60,34352,2,0,P|432:68|472:88,1,80,0|2,0:0|3:0,0:0:0:0:
464,164,35463,2,0,P|460:203|447:241,2,80,0|2|0,0:0|3:0|0:0,0:0:0:0:
388,140,37130,1,4,0:0:0:0:
308,156,37685,6,0,B|280:232|280:232|212:296,1,160,4|0,0:0|0:0,0:0:0:0:
148,320,39352,1,8,0:0:0:0:
100,256,39907,2,0,P|71:221|28:204,2,80,0|8|0,0:0|0:0|0:0,0:0:0:0:
148,320,41574,1,8,0:0:0:0:
220,288,42130,6,0,B|260:276|300:296|300:296|340:312|384:292,1,160
440,248,43796,1,8,0:0:0:0:
424,168,44352,2,0,P|420:128|432:84,2,80,0|8|0,0:0|0:0|0:0,0:0:0:0:
440,248,46018,2,0,L|348:240,1,80,4|4,0:0|0:0,0:0:0:0:
296,196,47130,6,0,P|264:220|148:196,1,160,8|8,0:0|0:0,0:0:0:0:
96,148,48796,1,0,0:0:0:0:
172,120,49352,2,0,P|208:104|240:72,2,80,8|0|8,0:0|0:0|3:0,0:0:0:0:
96,148,51018,6,0,P|88:260|196:336,1,240,4|8,0:0|3:0,0:0:0:0:
256,312,53241,2,0,P|276:228|248:164,1,160,0|0,0:0|0:0,0:0:0:0:
176,124,54907,1,8,3:0:0:0:
244,84,55463,6,0,B|308:48|408:64|408:64|432:136,1,240,0|8,0:0|3:0,0:0:0:0:
448,212,57685,1,2,3:0:0:0:
240,328,59352,1,8,3:0:0:0:
208,256,59907,1,4,0:0:0:0:
412,108,68796,6,0,B|340:144|340:144|320:180|276:192,1,160,4|0,0:0|0:0,0:0:0:0:
200,172,70463,1,2,3:0:0:0:
124,196,71018,2,0,P|112:240|120:288,1,80,0|2,0:0|3:0,0:0:0:0:
176,324,72130,2,0,P|221:320|263:296,1,80,0|2,0:0|3:0,0:0:0:0:
288,232,73241,6,0,L|456:192,1,160
484,124,74907,1,2,3:0:0:0:
424,72,75463,2,0,B|376:80|376:80|320:100|320:100|268:108,1,160
188,100,77130,1,2,3:0:0:0:
112,120,77685,6,0,P|112:160|96:208,1,80,0|2,0:0|3:0,0:0:0:0:
176,224,78796,2,0,P|189:261|191:312,1,80,0|2,0:0|3:0,0:0:0:0:
260,348,79907,2,0,P|300:280|312:192,1,160
272,132,81574,1,2,3:0:0:0:
344,96,82130,6,0,P|384:84|432:88,2,80,0|2|0,0:0|3:0|0:0,0:0:0:0:
272,132,83796,1,2,3:0:0:0:
200,96,84352,2,0,P|160:84|112:88,2,80,8|0|8,3:0|3:0|3:0,0:0:0:0:
208,176,86018,1,4,0:0:0:0:
148,228,86574,6,0,B|148:288|192:324|192:324|252:336,1,160,4|0,0:0|0:0,0:0:0:0:
320,312,88241,1,8,0:0:0:0:
388,272,88796,2,0,B|424:288|424:288|472:296,2,80,0|8|0,0:0|0:0|0:0,0:0:0:0:
320,232,90463,1,8,0:0:0:0:
356,160,91018,6,0,P|280:160|240:232,1,160,4|0,0:0|0:0,0:0:0:0:
268,300,92685,1,8,0:0:0:0:
204,348,93241,2,0,P|164:360|120:356,2,80,0|8|0,0:0|0:0|0:0,0:0:0:0:
176,272,94907,2,0,P|148:244|136:196,1,80,4|4,0:0|0:0,0:0:0:0:
68,160,96018,6,0,P|136:124|204:160,1,160,8|8,0:0|0:0,0:0:0:0:
256,220,97685,1,0,0:0:0:0:
336,228,98241,2,0,L|420:236,2,80,8|0|8,0:0|0:0|3:0,0:0:0:0:
300,156,99907,6,0,B|248:176|244:244|268:272|268:272|232:312|168:300,1,240,4|8,0:0|3:0,0:0:0:0:
112,252,102130,2,0,P|96:192|136:96,1,160
200,64,103796,1,8,3:0:0:0:
272,100,104352,6,0,B|312:112|352:96|352:96|392:80|428:96|428:96|440:176,1,240,0|8,0:0|3:0,0:0:0:0:
440,256,106574,2,0,B|432:296|432:296|392:328,2,80,0|8|0,0:0|3:0|0:0,0:0:0:0:
360,252,108241,1,8,3:0:0:0:
280,260,108796,6,0,P|228:317|136:315,1,160,4|0,0:0|0:0,0:0:0:0:
71,301,110463,1,2,3:0:0:0:
107,229,111018,2,0,P|158:171|250:173,1,160
316,184,112685,2,0,L|352:108,1,80,4|4,0:0|0:0,0:0:0:0:
384,40,113796,5,2,3:0:0:0:
448,88,114352,2,0,P|468:136|468:168,1,80,0|2,0:0|3:0,0:0:0:0:
472,244,115463,2,0,P|472:284|451:319,1,80,0|2,0:0|3:0,0:0:0:0:
392,264,116574,2,0,B|324:308|324:308|244:292,1,160,0|4,0:0|0:0,0:0:0:0:
168,272,118241,5,2,3:0:0:0:
92,300,118796,2,0,P|88:260|112:212,1,80,0|2,0:0|3:0,0:0:0:0:
176,192,119907,2,0,B|148:152|148:152|148:96|180:44,1,160
256,24,121574,1,4,0:0:0:0:
296,96,122130,6,0,P|340:120|376:120,1,80,4|2,0:0|3:0,0:0:0:0:
448,104,123241,2,0,L|460:200,1,80,0|2,0:0|3:0,0:0:0:0:
256,192,124352,12,4,126574,0:0:0:0:
393,94,137685,6,0,P|317:74|241:102,1,160,8|8,0:0|0:0,0:0:0:0:
169,134,139352,1,8,0:0:0:0:
233,182,139907,2,0,P|261:202|317:210,1,80,8|8,0:0|0:0,0:0:0:0:
373,254,141018,2,0,P|413:258|446:282,1,80,8|8,0:0|0:0,0:0:0:0:
385,334,142130,6,0,P|340:344|240:293,1,160,8|8,0:0|0:0,0:0:0:0:
165,282,143796,2,0,L|77:270,1,80,8|4,0:0|3:0,0:0:0:0:
85,271,146574,6,0,P|80:192|116:120,1,160,4|0,2:1|0:0,0:0:0:0:
176,68,148241,1,8,0:0:0:0:
252,96,148796,2,0,B|284:120|284:120|328:124,2,80,0|8|0,0:0|0:0|0:0,0:0:0:0:
176,68,150463,1,8,0:0:0:0:
188,148,151018,6,0,P|212:224|292:264,1,160,4|0,0:0|0:0,0:0:0:0:
360,256,152685,1,8,0:0:0:0:
392,180,153241,2,0,L|412:100,1,80,8|8,3:0|3:0,0:0:0:0:
344,56,154352,2,0,L|277:104,1,80,8|4,3:0|0:0,0:0:0:0:
208,140,155463,6,0,P|136:112|68:160,1,160,4|0,2:1|0:0,0:0:0:0:
144,192,157130,1,8,0:0:0:0:
76,232,157685,2,0,L|8:280,2,80,0|8|0,0:0|0:0|0:0,0:0:0:0:
144,192,159352,2,0,P|172:232|212:252,1,80,8|4,0:0|0:0,0:0:0:0:
252,308,160463,6,0,B|280:268|280:268|336:240|336:240|364:196,1,160,8|8,0:0|0:0,0:0:0:0:
432,160,162130,1,0,0:0:0:0:
380,100,162685,2,0,P|344:80|300:76,1,80,8|0,0:0|0:0,0:0:0:0:
224,92,163796,1,8,3:0:0:0:
180,160,164352,6,0,P|120:212|40:208,1,160,4|0,2:1|0:0,0:0:0:0:
8,136,166018,1,8,0:0:0:0:
88,124,166574,2,0,L|156:64,1,80,0|8,0:0|0:0,0:0:0:0:
228,60,167685,1,0,0:0:0:0:
304,84,168241,1,8,3:0:0:0:
372,128,168796,6,0,B|408:160|412:196|412:196|376:268|376:268|328:264|292:304,1,240,4|8,0:0|3:0,0:0:0:0:
248,352,171018,2,0,B|176:320|176:320|196:280|176:232,1,160
116,192,172685,1,8,3:0:0:0:
48,152,173241,6,0,B|76:100|152:100|180:148|180:148|216:168|264:152,1,240,0|8,0:0|3:0,0:0:0:0:
316,100,175463,2,0,P|380:144|408:236,1,160,8|8,3:0|3:0,0:0:0:0:
384,296,177130,1,8,3:0:0:0:
304,312,177685,6,0,P|230:284|185:219,1,160,8|8,3:0|3:0,0:0:0:0:
176,140,179352,1,2,3:0:0:0:
256,192,180185,12,0,184352,0:0:0:0:
352,192,186018,5,8,3:0:0:0:
295,246,186574,2,0,P|255:254|207:242,1,80,0|8,0:0|3:0,0:0:0:0:
160,192,187685,1,4,0:0:0:0:
