osu file format v5

[General]
AudioFilename: Tenjou wo Kaeru Monotachi.mp3
AudioLeadIn: 0
PreviewTime: -1
Countdown: 1
SampleSet: Normal
EditorBookmarks: 67408,109604,110777,124277,180625,253799,266973,292082,315625,352995

[Metadata]
Title:Tenjou wo Kaeru Monotachi
Artist:Love Planet Five
Creator:eirrol
Version:Insane

[Difficulty]
HPDrainRate:8
CircleSize:6
OverallDifficulty:9
SliderMultiplier:0.999999999999999
SliderTickRate:0.5

[Events]
//Background and Video events
//Break Periods
2,101520,109140
2,160999,179575
2,237173,253591
2,271869,291749
//Storyboard Layer 0 (Background)
//Storyboard Layer 1 (Failing)
//Storyboard Layer 2 (Passing)
//Storyboard Layer 3 (Foreground)
//Storyboard Sound Samples
//Background Colour Transformations
3,100,255,255,255

[TimingPoints]
50191,260.869565217391,4,1,0,100

[Colours]
Combo1 : 252,177,67
Combo2 : 0,255,255
Combo3 : 255,166,255

[HitObjects]
360,144,67930,5,0
248,144,68451,1,0
144,144,68973,1,0
152,248,69756,1,0
208,248,70017,1,0
368,200,70799,5,0
336,312,71321,1,0
272,312,71582,1,0
208,312,71843,1,0
144,296,72104,5,0
88,264,72364,1,0
80,200,72625,1,0
144,200,72886,1,0
208,200,73147,1,0
328,128,73930,5,0
384,128,74190,1,0
440,184,74973,6,0,B|440:264|384:320|192:304,1,300
184,248,76017,2,0,B|200:112|272:80|440:96,1,325
424,48,77060,1,0
424,48,77321,1,0
120,64,78104,5,0
64,64,78364,1,0
184,200,79147,2,0,B|136:256|54:264|8:184,1,200
48,128,79930,1,0
104,128,80190,1,0
160,128,80451,1,0
216,128,80712,1,0
272,128,80973,5,0
272,184,81234,1,0
328,184,81495,1,0
376,264,82017,5,0
320,264,82277,1,0
272,176,83060,1,0
216,176,83321,1,0
216,176,83582,1,4
216,64,84625,5,0
368,64,85147,1,0
368,64,85408,1,0
368,64,85669,1,0
440,168,86451,5,0
440,224,86712,1,0
368,128,87495,6,0,B|368:352,1,200
248,320,88538,1,0
200,296,88799,1,0
160,256,89060,1,0
136,208,89321,1,0
184,176,89582,1,0
232,152,89843,1,0
320,104,90625,5,0
320,160,90886,1,0
264,232,91669,5,0
128,280,92190,1,0
168,328,92451,1,0
216,288,92712,1,0
216,288,92843,1,4
320,264,93495,1,0
376,288,93756,1,0
416,248,94017,1,0
376,120,94799,5,0
328,88,95060,1,0
152,80,95843,5,0
64,120,96364,1,0
64,176,96625,1,0
80,232,96886,1,0
112,272,97147,1,0
152,224,97408,1,0
208,248,97669,1,0
264,248,97930,1,0
320,248,98191,1,0
440,240,98712,5,0
440,184,98973,1,0
440,128,99234,1,0
168,168,99756,5,0
208,128,100017,1,0
248,88,100277,2,4,B|376:80|519:179|428:355,1,400
256,264,110191,5,0
256,216,110451,1,0
256,168,110712,1,0
296,88,111234,5,0
240,64,111495,1,0
128,80,112277,5,0
80,104,112538,1,0
72,208,113321,6,0,B|200:136|280:264|464:168,1,400
480,240,114625,1,0
432,280,114886,1,0
256,184,115930,5,0
256,184,116191,1,0
256,184,116451,1,0
256,184,116712,1,0
256,256,117234,1,0
256,256,117495,2,0,B|152:320|80:264|40:168|64:72|112:24,1,400
256,192,119321,12,4,123756
368,296,124799,5,0
320,328,125060,1,0
264,328,125321,1,0
264,232,125712,1,0
264,136,126104,1,0
176,176,126625,5,0
176,176,126756,1,0
176,176,126886,1,0
208,56,127147,5,0
208,56,127277,1,0
248,56,127408,1,0
248,152,127799,1,0
248,256,128191,1,0
352,288,128712,5,0
352,288,128843,1,0
352,288,128973,1,0
352,216,129234,1,0
352,216,129364,1,0
352,216,129495,6,4,B|180:408|8:208,2,400
312,128,131973,2,0,B|296:53|192:96,1,125
256,136,132364,1,0
200,296,133408,6,0,B|268:329|328:288,2,125
200,296,134451,1,0
152,216,134973,1,0
152,216,135104,1,0
152,88,135495,5,0
208,88,135756,1,0
312,88,136277,1,0
416,128,136799,1,0
416,184,137060,1,0
416,184,137191,1,0
368,272,137582,1,0
304,272,137843,1,0
304,272,137973,6,0,B|248:336|144:336|80:264|40:184|56:88|136:40|312:16|477:68|510:113|408:320,1,874.999999999999
392,320,140451,1,0
336,320,140712,1,4
336,320,140843,1,4
112,104,141495,5,0
160,152,141756,1,0
224,176,142017,2,0,B|316:71|392:184,2,200
312,192,143321,1,0
312,192,143451,1,0
312,192,143582,1,0
296,288,143843,5,0
296,288,143973,1,0
296,288,144104,2,0,B|252:228|202:174|120:256,2,200
200,272,145408,1,0
200,272,145538,1,0
200,272,145669,1,0
160,72,145930,5,0
200,88,146060,1,0
248,72,146191,1,0
320,112,146582,1,0
376,176,146973,2,0,B|392:264|256:336|136:288,1,300
144,248,148017,1,0
144,200,148277,1,0
144,128,148669,1,0
176,88,148930,1,0
176,88,149060,1,0
336,200,150104,5,0
272,200,150364,1,0
176,176,150756,1,0
96,128,151147,1,0
160,64,151669,5,0
160,64,151799,1,0
160,64,151930,1,0
256,48,152191,5,0
256,104,152451,1,0
256,256,152843,1,0
160,256,153234,1,0
96,256,153495,1,0
96,192,153756,1,0
96,192,153886,1,0
128,112,154277,1,0
216,80,154538,1,0
216,80,154669,2,0,B|492:59|408:280,1,350
256,192,156495,12,4,160799
152,144,180625,5,0
264,144,181147,1,0
368,144,181669,1,0
360,248,182451,1,0
304,248,182712,1,0
144,200,183495,5,0
208,312,184017,1,0
256,312,184277,1,0
304,312,184538,1,0
352,288,184799,5,0
392,256,185060,1,0
408,208,185321,1,0
360,208,185582,1,0
312,208,185843,1,0
184,128,186625,5,0
128,128,186886,1,0
72,184,187408,5,0
72,184,187669,2,0,B|72:264|128:320|320:304,1,300
336,248,188712,2,0,B|320:112|248:80|72:88,1,350
88,184,190017,1,0
336,64,190799,5,0
392,64,191060,1,0
328,200,191843,2,0,B|376:256|458:264|504:184,1,200
448,128,192625,1,0
448,128,192756,1,0
352,128,193147,1,0
296,128,193408,1,0
232,128,193669,5,0
232,192,193930,1,0
168,192,194191,1,0
136,264,194712,5,0
184,264,194973,1,0
240,176,195756,1,0
296,176,196017,1,0
296,176,196277,1,4
296,64,197321,5,0
144,64,197843,1,0
144,64,198104,1,0
144,64,198364,1,0
72,168,199147,5,0
72,224,199408,1,0
144,128,200191,6,0,B|144:352,1,200
208,336,200973,1,0
264,320,201234,1,0
312,296,201495,1,0
352,256,201756,1,0
376,208,202017,1,0
328,176,202277,1,0
280,152,202538,1,0
192,104,203321,5,0
192,160,203582,1,0
248,232,204364,5,0
384,280,204886,1,0
344,328,205147,1,0
296,288,205408,1,0
296,288,205538,1,4
192,264,206191,1,0
136,288,206451,1,0
96,248,206712,1,0
136,120,207495,5,0
184,88,207756,1,0
360,80,208538,5,0
448,120,209060,1,0
448,176,209321,1,0
448,176,209451,1,0
400,272,209843,1,0
360,224,210104,1,0
312,248,210364,1,0
256,248,210625,1,0
200,248,210886,1,0
72,240,211408,5,0
72,184,211669,1,0
344,176,212451,5,0
304,136,212712,1,0
256,96,212973,2,4,B|110:82|128:208,1,200
408,256,214017,5,0
320,280,214408,1,0
240,248,214799,1,0
168,232,215060,2,0,B|44:279|46:120|24:112|128:24|392:80|480:120,1,600
432,160,216886,1,0
384,192,217147,1,0
304,168,217538,5,0
232,192,217930,1,0
184,72,218451,5,0
144,120,218712,1,0
184,168,218973,1,0
128,192,219234,2,0,B|4:129|6:288|-16:296|88:384|352:328|440:288,1,600
408,224,221321,5,0
344,152,221712,1,0
264,184,222104,1,0
200,184,222364,1,0
128,128,222886,1,0
104,176,223147,1,0
120,224,223408,5,0
208,176,223930,1,0
256,208,224191,1,0
408,192,224973,5,0
368,152,225234,1,0
272,248,226017,2,0,B|200:344|72:304,1,200
112,64,227060,5,0
168,64,227321,1,0
224,64,227582,1,0
352,64,228104,1,0
352,64,228234,1,0
424,104,228625,1,0
376,136,228886,1,0
328,168,229147,5,0
280,200,229408,1,0
192,136,229930,1,0
136,112,230191,1,0
112,168,230451,1,0
136,216,230712,1,0
192,216,230973,1,0
240,184,231234,1,0
280,216,231495,1,0
328,192,231756,1,4
280,112,232538,5,0
216,112,232799,1,0
152,112,233060,1,0
232,272,233582,1,0
312,200,234104,1,0
352,248,234364,1,0
384,200,234625,1,0
384,144,234886,1,0
384,144,235017,1,0
288,96,235277,5,0
288,96,235408,1,0
288,96,235538,1,0
176,96,235799,5,0
176,96,235930,1,0
176,96,236060,1,0
176,96,236191,1,0
176,96,236321,1,0
176,96,236451,1,0
256,328,236973,5,4
408,288,254191,5,0
352,288,254451,1,0
296,288,254712,5,0
336,184,255104,1,0
240,184,255495,1,0
280,72,256017,1,0
280,72,256148,1,0
280,72,256278,1,0
112,112,256538,5,0
112,112,256669,1,0
112,112,256799,1,0
56,216,257191,1,0
168,216,257582,1,0
112,312,258104,1,0
112,312,258234,1,0
112,312,258364,1,0
280,248,258625,5,0
280,248,258756,1,0
280,248,258886,1,0
232,296,259277,1,0
176,256,259669,1,0
200,168,260191,6,0,B|268:201|328:160,2,125
200,168,260973,1,0
304,96,261364,1,0
216,96,261625,1,0
216,96,261756,1,0
456,320,262277,5,0
336,320,262799,1,0
264,320,263060,1,0
168,320,263451,1,0
72,320,263843,1,0
80,216,264364,5,0
80,216,264495,1,0
80,216,264625,1,0
80,144,264886,1,0
80,144,265147,1,0
184,144,265538,1,0
240,216,265930,5,0
184,280,266191,1,0
96,288,266451,1,0
96,288,266582,1,0
88,184,266973,2,0,B|55:116|96:56,2,125
160,128,268017,5,4
368,88,268538,1,0
400,144,268799,1,0
368,200,269060,1,0
400,256,269321,2,0,B|346:375|150:363|40:296,2,400
344,240,271669,1,4
376,280,292799,6,0,B|354:200|239:196|224:296,1,200
304,312,293843,1,0
208,312,294364,1,0
112,312,294886,1,0
144,144,295930,5,0
200,80,296451,1,0
280,120,296973,1,0
392,152,297756,5,0
384,264,298277,1,0
320,264,298538,1,0
240,216,298930,1,0
160,160,299321,1,0
96,160,299582,5,0
96,64,299973,1,0
192,64,300364,1,0
160,216,300625,6,0,B|277:132|304:344|440:184,1,300
344,176,301669,5,0
288,136,301930,1,0
232,176,302190,1,0
200,296,302712,1,0
304,232,303104,1,0
424,208,303495,1,0
424,152,303756,6,0,B|320:16|79:-2|11:99|0:288|64:360|119:380|327:387|418:366|512:264,1,999.999999999999
480,280,306886,6,0,B|472:240|490:-1|310:-23|152:-16|24:55|-6:161|2:356|199:374|304:120,1,999.999999999999
328,184,310017,5,0
176,160,310799,1,0
176,216,311060,5,0
176,272,311321,1,0
224,240,311582,1,0
280,240,311843,1,0
336,240,312104,1,0
256,192,312364,12,4,314190
408,112,314712,2,0,B|394:40|312:72,1,99.9999999999999
352,128,315234,1,0
272,128,315625,1,0
272,216,316017,2,4,B|272:328,1,99.9999999999999
176,176,316538,5,0
176,176,316669,1,0
176,176,316799,1,0
104,112,317060,6,0,B|118:40|224:88,1,125
240,128,317712,1,0
240,216,318104,2,4,B|240:328,1,99.9999999999999
344,264,318625,5,0
344,264,318756,1,0
344,264,318886,1,0
352,168,319147,1,0
352,168,319277,1,0
352,168,319408,6,4,B|321:58|200:56,1,200
152,56,320190,2,0,B|72:64|26:104|16:184,1,200
64,224,320973,1,0
120,224,321234,1,0
176,224,321495,1,0
312,256,321886,2,0,B|296:331|192:288,1,125
216,296,322343,1,4
312,88,323321,6,4,B|244:55|184:96,2,125
312,88,324364,1,0
360,168,324886,1,0
360,168,325017,1,0
360,296,325408,5,0
304,296,325669,1,0
200,296,326190,1,4
200,296,326321,1,4
96,256,326712,1,0
96,200,326973,1,0
96,200,327104,1,0
152,112,327495,1,0
208,112,327756,1,0
208,112,327886,2,4,B|271:35|352:128,1,150
368,152,328800,5,0
408,192,329061,1,0
424,248,329321,1,0
400,296,329582,1,0
352,320,329843,1,0
296,328,330104,5,0
240,328,330364,1,0
272,280,330625,1,0
272,280,330756,1,0
256,192,331408,12,4,332973
256,192,333495,12,4,335060
256,352,335843,1,0
256,320,335973,1,0
256,280,336104,1,0
280,200,336495,2,4,B|352:120|360:248|456:176,1,175
376,136,337408,1,0
320,136,337669,1,0
264,152,337930,1,0
232,200,338190,2,4,B|176:123|136:259|64:168,1,175
96,136,338908,1,0
96,136,339038,1,0
256,48,340017,6,4,B|256:352,1,300
184,352,341060,1,4
112,200,342104,5,4
112,200,342234,1,4
112,200,342364,1,4
206,196,342756,1,4
261,120,343147,1,4
304,165,343408,1,4
366,167,343669,1,4
366,167,343799,1,4
393,257,344190,1,4
397,319,344451,1,4
397,319,344582,1,4
56,72,345234,5,4
216,56,345495,1,4
192,216,345756,1,4
336,152,346017,1,4
176,128,346277,1,4
296,232,346538,1,4
424,136,346799,1,4
400,296,347060,1,4
256,48,347843,5,4
256,48,348104,5,4
256,192,348625,12,4,352277
