osu file format v5

[General]
AudioFilename: Tenjou wo Kaeru Monotachi.mp3
AudioLeadIn: 0
PreviewTime: -1
Countdown: 1
SampleSet: Normal
EditorBookmarks: 67408,124277,180625,253799,266973,292147,315625

[Metadata]
Title:Tenjou wo Kaeru Monotachi
Artist:Love Planet Five
Creator:eirrol
Version:Hard

[Difficulty]
HPDrainRate:7
CircleSize:5
OverallDifficulty:7
SliderMultiplier:2
SliderTickRate:1

[Events]
//Background and Video events
//Break Periods
2,101520,109140
2,160999,179575
2,237173,253291
2,271869,291749
//Storyboard Layer 0 (Background)
//Storyboard Layer 1 (Failing)
//Storyboard Layer 2 (Passing)
//Storyboard Layer 3 (Foreground)
//Storyboard Sound Samples
//Background Colour Transformations
3,100,255,255,255

[TimingPoints]
50191,521.739130434783,4,1,0,100

[Colours]
Combo1 : 252,177,67
Combo2 : 0,255,255
Combo3 : 255,166,255

[HitObjects]
144,240,67930,5,0
256,240,68451,1,0
368,240,68973,1,0
360,136,69756,1,0
304,136,70017,1,0
144,184,70799,5,0
176,72,71321,1,0
232,72,71582,1,0
288,72,71843,1,0
344,80,72104,5,0
392,104,72364,1,0
408,160,72625,1,0
352,160,72886,1,0
352,216,73147,1,0
184,256,73930,5,0
128,256,74190,1,0
72,200,74973,6,0,B|72:120|128:64|320:80,1,300
352,112,76017,2,0,B|336:248|264:280|96:264,1,300
184,320,77060,1,0
184,320,77321,1,0
248,256,78104,5,0
312,256,78364,1,0
312,80,79147,2,0,B|360:24|442:16|488:96,1,200
480,144,79930,1,0
424,144,80190,1,0
368,144,80451,1,0
312,144,80712,1,0
256,144,80973,5,0
256,200,81234,1,0
200,200,81495,1,0
128,112,82016,5,0
184,112,82277,1,0
240,208,83060,1,0
296,208,83321,1,0
296,208,83582,1,4
296,320,84625,5,0
144,320,85147,1,0
144,320,85408,1,0
144,320,85669,1,0
72,216,86451,5,0
72,160,86712,1,0
144,256,87495,6,0,B|144:16,1,200
264,64,88538,1,0
312,88,88799,1,0
352,128,89060,1,0
368,176,89321,1,0
328,208,89582,1,0
280,232,89843,1,0
192,280,90625,5,0
192,224,90886,1,0
248,152,91669,5,0
384,104,92190,1,0
344,56,92451,1,0
296,96,92712,1,0
296,96,92843,1,4
192,120,93495,1,0
136,96,93756,1,0
96,136,94017,1,0
136,264,94799,5,0
184,296,95060,1,0
360,304,95843,5,0
472,264,96364,1,0
448,208,96625,1,0
424,152,96886,1,0
376,112,97147,1,0
360,168,97408,1,0
312,136,97669,1,0
256,136,97930,1,0
200,136,98190,1,0
72,144,98712,5,0
72,200,98973,1,0
72,256,99234,1,0
344,208,99756,5,0
304,248,100017,1,0
264,288,100277,2,4,B|136:296|72:184|136:64|264:48,1,400
256,120,110190,5,0
256,168,110451,1,0
256,216,110712,1,0
216,296,111234,5,0
272,320,111495,1,0
384,304,112277,5,0
432,280,112538,1,0
440,176,113321,6,0,B|312:248|232:120|48:216,1,400
32,144,114625,1,0
80,104,114886,1,0
256,200,115930,5,0
256,200,116190,1,0
256,200,116451,1,0
256,200,116712,1,0
256,128,117234,1,0
256,128,117495,2,0,B|360:64|432:120|472:216|448:312|400:360,1,400
256,192,119321,12,4,123756
152,80,124799,5,0
200,48,125060,1,0
256,56,125321,1,0
256,144,125712,1,0
256,232,126104,1,0
336,208,126626,5,0
336,208,126756,1,0
336,208,126887,1,0
304,336,127147,5,0
304,336,127277,1,0
272,336,127408,1,0
272,248,127799,1,0
272,160,128191,1,0
160,96,128712,5,0
160,96,128843,1,0
160,96,128973,1,0
160,168,129234,1,0
160,168,129364,1,0
160,168,129495,6,4,B|332:-24|504:176,2,400
200,256,131973,2,0,B|216:331|320:288,1,100
256,248,132364,1,0
312,88,133408,6,0,B|244:55|184:96,2,133.333333333333
312,88,134451,1,0
360,168,134973,1,0
360,168,135104,1,0
360,296,135495,5,0
304,296,135756,1,0
184,296,136277,1,0
80,248,136799,1,0
80,192,137060,1,0
80,192,137190,1,0
144,112,137582,1,0
208,112,137842,1,0
208,112,137973,6,0,B|264:48|368:48|432:120|472:200|456:296|376:344|200:368|35:316|2:271|104:64,1,850
120,56,140451,1,0
176,56,140712,1,4
176,56,140843,1,4
400,280,141495,5,0
360,232,141756,1,0
320,184,142017,2,0,B|204:329|128:184,2,200
264,184,143321,1,0
264,184,143451,1,0
264,184,143582,1,0
216,96,143843,5,0
216,96,143973,1,0
216,96,144104,2,0,B|332:241|408:96,2,200
272,72,145408,1,0
272,72,145539,1,0
352,312,145930,5,0
312,296,146060,1,0
264,312,146190,1,0
192,272,146582,1,0
136,208,146973,2,0,B|120:120|256:48|376:96,1,300
376,144,148017,1,0
376,200,148277,1,0
376,288,148669,1,0
336,328,148930,1,0
336,328,149060,1,0
176,208,150104,5,0
248,184,150364,1,0
368,200,150756,1,0
440,288,151147,1,0
352,320,151669,5,0
352,320,151799,1,0
352,320,151930,1,0
240,320,152190,5,0
240,256,152451,1,0
248,160,152843,1,0
336,120,153234,1,0
400,120,153495,1,0
400,184,153756,1,0
400,184,153887,1,0
400,280,154277,1,0
336,280,154538,1,0
336,280,154669,2,0,B|60:301|144:80,1,350
256,192,156495,12,4,160799
384,240,180625,5,0
256,240,181146,1,0
128,240,181668,1,0
152,136,182451,1,0
216,136,182712,1,0
368,184,183494,5,0
304,72,184016,1,0
248,72,184277,1,0
192,72,184538,1,0
136,96,184799,5,0
96,144,185059,1,0
96,208,185320,1,0
152,176,185581,1,0
216,176,185842,1,0
328,256,186625,5,0
384,256,186885,1,0
440,200,187408,5,0
440,200,187668,2,0,B|440:120|384:64|192:80,1,300
184,136,188712,2,0,B|200:272|272:304|440:288,1,300
280,344,190016,1,0
256,256,190799,5,0
192,256,191059,1,0
176,64,191842,2,0,B|128:8|46:0|0:80,1,200
48,120,192625,1,0
48,120,192756,1,0
144,120,193146,1,0
200,120,193407,1,0
264,120,193668,5,0
264,184,193929,1,0
328,184,194190,1,0
376,120,194711,5,0
312,120,194972,1,0
272,208,195755,1,0
216,208,196016,1,0
216,208,196277,1,4
216,320,197320,5,0
368,320,197842,1,0
368,320,198103,1,0
368,320,198364,1,0
440,216,199146,5,0
440,160,199407,1,0
368,256,200190,6,0,B|368:16,1,200
304,48,200973,1,0
240,64,201233,1,0
184,96,201494,1,0
152,144,201755,1,0
136,200,202016,1,0
168,256,202277,1,0
216,296,202538,1,0
320,280,203320,5,0
320,224,203581,1,0
264,152,204364,5,0
128,104,204885,1,0
168,56,205146,1,0
216,96,205407,1,0
216,96,205538,1,4
320,120,206190,1,0
376,96,206451,1,0
424,136,206712,1,0
376,264,207494,5,0
328,296,207755,1,0
152,304,208538,5,0
64,264,209059,1,0
64,208,209320,1,0
64,208,209451,1,0
104,120,209842,1,0
152,160,210103,1,0
208,128,210364,1,0
272,128,210625,1,0
336,128,210885,1,0
440,144,211407,5,0
440,200,211668,1,0
168,208,212451,5,0
208,248,212712,1,0
256,288,212972,2,4,B|402:302|384:176,1,200
104,128,214017,5,0
192,96,214408,1,0
280,128,214799,1,0
336,160,215060,2,0,B|460:113|458:272|480:280|376:368|112:312|24:272,1,600
80,224,216886,1,0
128,192,217147,1,0
208,216,217538,5,0
280,192,217930,1,0
304,280,218451,5,0
368,264,218712,1,0
336,208,218973,1,0
384,168,219234,2,0,B|508:231|506:72|528:64|424:-24|160:32|72:72,1,600
120,184,221321,5,0
192,248,221712,1,0
264,192,222104,1,0
328,192,222364,1,0
408,288,222886,1,0
408,224,223147,1,0
408,160,223408,5,0
296,224,223930,1,0
256,176,224191,1,0
104,192,224973,5,0
152,232,225234,1,0
280,96,226017,2,0,B|352:0|504:56,1,200
400,320,227060,5,0
336,320,227321,1,0
272,320,227582,1,0
144,320,228104,1,0
144,320,228234,1,0
80,248,228625,1,0
144,248,228886,1,0
200,216,229147,5,0
256,192,229408,1,0
320,248,229930,1,0
376,272,230191,1,0
408,216,230451,1,0
376,160,230712,1,0
312,160,230973,1,0
272,208,231234,1,0
232,160,231495,1,0
176,192,231756,1,4
232,272,232538,5,0
296,272,232799,1,0
360,272,233060,1,0
280,112,233582,1,0
160,72,234104,1,0
160,136,234364,1,0
120,184,234625,1,0
120,248,234886,1,0
120,248,235017,1,0
224,288,235277,5,0
224,288,235408,1,0
224,288,235538,1,0
336,288,235930,5,0
336,288,236191,1,0
336,288,236451,1,0
256,56,236973,5,4
104,96,254191,5,0
168,96,254451,1,0
232,96,254712,5,0
192,184,255104,1,0
288,184,255495,1,0
400,272,256539,5,0
400,272,256669,1,0
400,272,256799,1,0
448,192,257191,1,0
352,192,257582,1,0
232,136,258625,5,0
232,136,258756,1,0
232,136,258886,1,0
288,64,259277,1,0
360,120,259669,1,0
320,240,260191,6,0,B|252:207|192:248,2,133.333333333333
224,304,261364,1,0
288,304,261625,1,0
288,304,261756,1,0
256,184,262277,5,0
208,64,262799,1,0
272,64,263060,1,0
368,64,263451,1,0
464,64,263843,1,0
432,168,264364,5,0
432,168,264495,1,0
432,168,264625,1,0
432,240,264886,1,0
432,240,265147,1,0
328,240,265538,1,0
280,152,265930,5,0
328,112,266191,1,0
392,104,266451,1,0
392,104,266582,1,0
424,200,266973,2,0,B|457:268|416:328,2,133.333333333333
352,256,268017,5,4
144,296,268538,1,0
112,240,268799,1,0
144,184,269060,1,0
152,120,269321,2,0,B|206:1|402:13|512:80,2,400
208,136,271669,1,4
136,104,292799,6,0,B|208:208|304:96,1,200
192,40,293843,1,0
320,40,294364,1,0
448,40,294886,1,0
368,240,295930,5,0
272,320,296451,1,0
160,264,296973,1,0
40,120,297756,5,0
168,120,298277,1,0
232,120,298538,1,0
320,152,298930,1,0
360,232,299321,1,0
424,232,299582,5,0
424,328,299973,1,0
328,328,300364,1,0
296,272,300625,6,0,B|179:356|152:144|16:304,1,300
88,312,301669,5,0
152,312,301930,1,0
216,312,302191,1,0
312,88,302712,1,0
240,152,303104,1,0
152,112,303495,1,0
104,240,303756,6,0,B|208:376|449:394|517:293|528:104|464:32|409:12|201:5|110:26|16:128,1,1000
88,152,306886,6,0,B|192:16|433:-2|501:99|512:288|448:360|393:380|185:387|94:366|0:264,1,1000
184,200,310017,5,0
336,224,310799,1,0
336,168,311060,5,0
336,112,311321,1,0
288,136,311582,1,0
232,136,311843,1,0
176,136,312104,1,0
256,192,312364,12,4,314191
104,272,314712,2,0,B|118:344|224:296,1,100
152,256,315234,1,0
248,256,315625,1,0
248,160,316017,2,4,B|248:16,1,100
336,208,316538,5,0
336,208,316668,1,0
336,208,316799,1,0
408,272,317060,6,0,B|394:344|288:296,1,100
272,240,317712,1,0
264,144,318104,2,4,B|264:8,1,100
168,120,318625,5,0
168,120,318756,1,0
168,120,318886,1,0
160,216,319147,1,0
160,216,319277,1,0
160,216,319408,6,4,B|332:408|504:208,2,400
200,128,321886,2,0,B|216:53|320:96,1,100
256,136,322277,1,4
200,296,323321,6,4,B|268:329|328:288,2,133.333333333333
200,296,324364,1,0
136,184,324886,1,0
136,184,325017,1,0
136,88,325408,5,0
200,88,325669,1,0
328,88,326190,1,4
440,136,326712,1,0
440,200,326973,1,0
440,200,327103,1,0
376,272,327495,1,0
304,272,327755,1,0
304,272,327886,6,4,B|248:336|144:336|80:264|40:184|56:88|136:40|312:16|477:68|510:113|408:320,1,850
368,232,330364,1,0
288,232,330625,1,0
288,232,330756,1,0
256,192,331408,12,0,335060
256,32,335843,1,0
256,64,335973,1,0
256,104,336104,1,0
208,184,336495,2,4,B|139:284|112:106|8:248,2,200
256,240,337930,1,0
280,184,338191,2,4,B|352:264|392:128|504:208,1,225
456,256,338973,1,0
256,336,340017,6,4,B|256:32,1,300
328,32,341060,1,4
400,184,342104,5,4
400,184,342234,1,4
400,184,342364,1,4
304,192,342756,1,4
224,248,343147,1,4
192,192,343408,1,4
144,232,343669,1,4
144,232,343799,1,4
136,136,344191,1,4
192,104,344451,1,4
192,104,344582,1,4
424,264,345234,5,4
320,264,345495,1,4
224,264,345756,1,4
112,264,346017,1,4
112,152,346277,1,4
216,152,346538,1,4
320,152,346799,1,4
416,152,347060,1,4
256,312,347843,5,4
256,312,348104,5,4
256,192,348625,12,4,352277
