osu file format v9

[General]
AudioFilename: Lou Bega - Mambo No.5.mp3
AudioLeadIn: 0
PreviewTime: 49944
Countdown: 0
SampleSet: Soft
StackLeniency: 0.8
Mode: 0
LetterboxInBreaks: 0

[Editor]
DistanceSpacing: 0.8
BeatDivisor: 3
GridSize: 4

[Metadata]
Title:Mambo No.5
Artist:Lou Bega
Creator:Lesjuh
Version:Normal
Source:
Tags:GladiOol Gladi Aleks719

[Difficulty]
HPDrainRate:3
CircleSize:3
OverallDifficulty:3
ApproachRate:5
SliderMultiplier:1.2
SliderTickRate:1

[Events]
//Background and Video events
0,0,"Background.jpg"
//Break Periods
2,144750,154379
//Storyboard Layer 0 (Background)
//Storyboard Layer 1 (Fail)
//Storyboard Layer 2 (Pass)
//Storyboard Layer 3 (Foreground)
Sprite,Foreground,Centre,"bmaleks.png",320,240 R,0,6691,,-0.1433594 F,0,6691,9448,0,1 M,0,6691,15454,438,429,434,424 F,0,9448,220373,1 F,0,220373,221752,1,0
//Storyboard Sound Samples
//Background Colour Transformations
3,100,0,0,0

[TimingPoints]
17720,344.649319317594,4,2,0,35,1,0
27829,-100,4,2,0,45,0,0
28289,-100,4,2,0,55,0,0
28748,-100,4,1,0,40,0,0
49312,-100,4,2,0,40,0,0
50576,-100,4,1,0,40,0,0
50806,-100,4,1,0,40,0,1
72863,-100,4,1,0,40,0,0
94461,-100,4,2,0,40,0,0
94691,-100,4,1,0,40,0,0
110660,-100,4,2,0,40,0,0
111464,-100,4,1,0,40,0,1
133522,-100,4,1,0,40,0,0
163736,-100,4,2,0,40,0,0
174880,-100,4,1,0,40,0,1
185908,-100,4,1,0,40,0,0

[HitObjects]
161,128,17720,1,6
352,128,18409,1,4
256,296,19098,1,0
256,232,19328,1,2
256,136,19673,1,4
128,40,20132,6,0,B|64:40|64:40|16:88,2,120,8|0|8
156,132,21166,1,0
196,288,21740,2,0,B|259:288|259:288|307:240,1,120,0|2
248,164,22430,2,0,B|192:128,1,40,0|2
140,76,22889,5,8
140,76,23234,2,0,B|256:44|256:44|372:76,1,240,2|0
316,228,24498,2,0,B|256:212|256:212|196:228,1,120,0|2
256,304,25187,2,0,B|256:352,1,40,0|2
300,156,25991,6,0,B|304:88|304:88|256:52|208:88|208:88|212:156,1,240,2|0
256,240,27025,1,2
232,324,27370,2,0,B|108:296|136:104|272:100|372:116|388:296|296:312,1,480,2|4
256,240,29093,5,8
256,240,29438,1,0
208,156,29782,1,8
160,72,30127,1,2
320,72,30701,1,2
348,264,31505,5,4
256,240,31850,1,8
164,264,32195,2,0,B|64:264|64:264|32:196|56:144|88:112,2,240,2|0|2
212,348,33918,5,8
308,352,34263,2,0,B|332:228|432:152,1,240,4|4
512,104,35297,1,8
428,60,35641,2,0,B|303:69|215:160,1,240,4|4
40,240,37020,6,0,B|32:184|44:140|76:116,3,120,2|8|2|8
136,60,38399,1,4
232,56,38743,1,8
300,124,39088,1,2
324,216,39433,1,10
256,284,39777,6,0,B|172:308|88:212|156:124,1,240,4|0
228,192,40811,1,8
256,284,41156,2,0,B|340:308|424:212|356:124,1,240
284,192,42190,1,8
244,140,42419,6,2,B|252:84,1,40,2|2
156,76,42879,1,8
112,120,43109,2,2,B|104:184,1,40,2|2
96,256,43568,1,8
164,324,43913,2,0,B|220:288|292:308,2,120,2|8|2
324,220,45291,6,0,B|388:240|456:208,2,120,6|8|2
136,176,46670,1,2
116,80,47015,1,8
200,32,47359,1,2
272,96,47704,1,8
232,184,48049,5,4
380,308,48738,1,0
200,372,49427,1,4
40,268,50117,2,0,B|96:232|112:172,1,120,2|2
128,80,50806,5,6
224,68,51150,1,8
320,56,51495,2,2,B|332:96|324:136,1,80,0|2
412,100,52070,2,2,B|412:192|360:256,1,160,2|8
300,324,52874,6,0,B|248:364|188:360,1,120,0|8
160,268,53563,2,0,B|212:228|272:232,1,120,0|8
368,224,54252,2,2,B|356:183|327:154,1,80,2|2
420,128,54827,2,2,B|376:56|280:36,1,160,2|8
204,72,55631,6,0,B|180:136|112:148,3,120,0|8|0|8
28,180,57010,2,2,B|36:228|88:236,1,80,0|2
176,228,57585,2,2,B|264:200|296:104,1,160,2|8
224,52,58388,5,0
184,140,58732,1,8
276,172,59077,1,0
316,84,59422,1,8
408,116,59767,2,2,B|368:204|368:204,1,80,2|2
332,276,60341,2,2,B|316:308|316:308|264:356|192:320,1,160,2|8
108,292,61145,6,0,B|56:276|56:276|24:252|24:216,1,120,0|8
52,128,61834,1,0
124,192,62179,1,8
148,100,62524,2,2,B|200:108|232:136|232:136|248:168,1,120,2|8
260,224,63098,2,2,B|280:308|368:348,1,160,2|8
416,268,63903,6,0,B|356:244|340:176,3,120,0|8|0|8
312,88,65282,2,2,B|264:96|252:148,1,80,0|2
204,220,65857,2,2,B|176:132|80:100,1,160,2|8
4,112,66660,6,0,B|16:184|88:196,1,120,0|8
68,288,67349,1,0
160,256,67694,1,8
196,344,68039,2,2,B|240:336|256:284,1,80,0|2
348,292,68614,2,2,B|320:204|208:168,1,160,2|8
148,160,69417,5,0
212,88,69762,1,8
240,180,70106,1,0
148,160,70451,1,8
64,116,70796,2,2,B|80:76|132:64,1,80,0|2
220,56,71370,1,4
356,192,72059,6,2,B|396:248,1,40,2|2
316,240,72404,2,2,B|247:246,1,40,2|2
292,180,72749,2,2,B|320:117,1,40,2|6
348,56,73208,6,2,B|444:144|444:144|492:248,1,240,2|0
416,304,74242,2,0,B|368:196,1,120,0|0
284,244,74931,2,0,B|332:360,2,120,2|2|0
252,152,75965,2,2,B|184:176|176:244|196:292|196:292|112:328,1,240,2|0
72,340,76884,1,2
176,176,78378,5,4
88,140,78722,2,2,B|120:60|244:52|276:164,1,240,2|0
248,244,79756,2,0,B|328:260|360:184,1,120,0|0
416,132,80445,2,0,B|476:240,2,120,2|2|0
372,44,81479,2,2,B|308:72|308:144|328:184|328:184|368:256,1,240,2|0
400,304,82399,1,2
288,368,82858,5,6
244,284,83203,1,2
148,280,83548,2,0,B|100:252,3,40,0|0|0|4
72,344,84237,6,2,B|-8:312|-8:196|92:160,1,240,2|0
180,136,85271,1,0
180,136,85615,1,0
272,112,85960,1,2
272,112,86305,2,0,B|332:72|396:112,1,120,2|0
332,188,86994,2,2,B|256:236|180:196|156:120|192:60,1,240,2|0
196,24,87913,1,2
444,196,89407,5,6
376,264,89751,2,2,B|340:248|296:248|256:268,1,120,2|0
176,312,90441,2,0,B|140:328|96:328|56:308,2,120,0|0|0
188,216,91474,1,2
264,156,91819,1,2
364,160,92164,1,6
256,192,92279,12,6,93313
88,256,94576,5,2
152,184,94921,1,4
180,276,95266,1,8
204,368,95610,2,0,B|352:352|352:352,1,120,0|8
420,340,96300,2,0,B|344:228,1,120,0|8
292,168,96989,2,0,B|240:276,1,120,0|8
204,368,97678,5,4
108,372,98023,1,8
152,288,98367,1,0
196,204,98712,2,0,B|248:84,1,120,8|4
340,96,99401,2,0,B|292:208,1,120,8|0
256,296,100091,5,8
256,200,100435,2,0,B|185:192|128:214,1,120,4|8
68,276,101125,2,0,B|96:208|64:145,1,120,0|8
52,64,101814,5,0
52,64,102158,1,8
144,96,102503,2,0,B|214:88|271:110,1,120,0|8
352,144,103193,5,0
352,144,103537,1,8
352,240,103882,2,0,B|344:256|352:272|352:272|344:288|352:304|352:304|344:320|352:336|352:336|344:352|352:368|352:368,1,120,0|8
256,320,104571,5,0
256,320,104915,1,8
256,224,105260,2,0,B|264:208|256:192|256:192|264:176|256:160|256:160|264:144|256:128|256:128|264:112|256:96|256:96,1,120,0|8
176,160,105950,6,0,B|160:224|104:256,1,120,4|0
32,312,106639,1,8
212,248,107328,2,0,B|269:213|330:231,1,120,4|0
424,240,108018,1,8
424,240,108362,5,8
480,160,108707,1,4
408,96,109052,1,8
352,176,109396,1,0
288,104,109741,2,0,B|240:160|272:224,2,120,8|4|8
344,24,110775,1,2
408,96,111120,1,2
444,184,111464,5,6
400,268,111809,1,8
400,268,112153,2,2,B|360:280|320:272,1,80,0|2
356,360,112728,2,2,B|264:360|200:308,1,160,2|8
208,216,113532,6,0,B|156:256|96:252,1,120,0|8
128,160,114221,2,0,B|180:120|240:124,1,120,0|8
304,196,114910,2,2,B|312:244|344:268,1,80,2|2
408,192,115485,2,2,B|398:108|319:49,1,160,2|8
252,116,116289,6,0,B|188:140|176:208,3,120,0|8|0|8
268,240,117668,2,2,B|260:288|208:296,1,80,0|2
120,284,118243,2,2,B|32:256|0:160,1,160,2|8
20,84,119046,6,0,B|68:124|144:144,1,120,0|8
216,168,119735,1,0
208,72,120080,1,8
300,104,120425,2,2,B|348:188|348:188,1,80,2|2
272,244,120999,2,2,B|288:276|288:276|340:324|412:288,1,160,2|8
404,292,121803,6,0,B|460:268|460:268|488:252|488:216,1,120,0|8
460,128,122492,1,0
388,192,122837,1,8
364,100,123182,2,2,B|308:108|308:108|308:108|276:176,1,120,2|8
252,224,123756,2,2,B|232:308|144:348,1,160,2|8
96,268,124561,6,0,B|156:244|172:176,3,120,0|8|0|8
200,88,125940,2,2,B|248:96|260:148,1,80,0|2
308,220,126515,2,2,B|336:132|432:100,1,160,2|8
508,112,127318,6,0,B|496:184|424:196,1,120,0|8
492,268,128007,2,0,B|424:296|364:260,1,120,0|8
316,344,128697,2,2,B|272:336|256:284,1,80,0|2
164,292,129272,2,2,B|192:204|304:168,1,160,2|8
364,160,130075,5,0
300,88,130420,1,8
272,180,130764,1,0
336,252,131109,1,8
424,208,131454,2,2,B|408:168|356:156,1,80,0|2
272,180,132028,1,6
116,292,132717,6,2,B|76:348,1,40,2|2
156,324,133062,2,2,B|179:291,1,40,2|2
244,292,133407,2,2,B|204:348,1,40,2|6
316,324,133866,2,2,B|344:272|344:272|360:240|352:160|280:116,1,240,2|0
184,116,134900,2,0,B|128:240,1,120,0|0
228,244,135589,2,0,B|180:360,2,120,2|2|0
260,152,136623,2,2,B|328:176|336:244|316:292|316:292|400:328,1,240,2|0
440,340,137542,1,2
400,156,139036,5,0
488,120,139380,2,2,B|456:40|332:32|300:144,1,240,2|0
328,224,140414,2,0,B|248:240|216:164,1,120,0|0
160,112,141103,2,0,B|100:220,2,120,2|2|0
204,24,142137,2,2,B|268:52|268:124|248:164|248:164|208:236,1,240,2|0
176,284,143057,1,2
304,264,143517,6,2,B|316:184|416:180,1,120,4|2
404,280,144206,2,0,B|448:332,3,40,0|0|0|4
256,192,155579,6,2,B|364:192|416:340|184:376|76:316|28:112|220:24|288:72|320:100|348:152,1,600,6|4
256,192,158336,5,4
256,192,158451,12,4,159715
384,196,161094,5,6
320,284,162128,1,6
256,192,162472,12,4,163506
372,80,163851,6,0,B|256:140|140:80,1,240,4|2
196,236,165115,2,0,B|256:260|316:236,1,120,2|2
256,328,165804,2,0,B|256:368,1,40,2|2
140,216,166608,6,0,B|255:156|372:216,1,240,4|2
316,64,167872,2,0,B|256:40|196:64,1,120,2|2
256,140,168561,2,0,B|256:180,1,40,2|2
72,240,169365,6,0,B|60:304|104:364,1,120,4|0
184,316,170054,2,0,B|196:252|152:191,1,120,2|0
124,148,170629,2,0,B|100:88|136:28,2,120,2|2|2
124,148,171433,1,2
292,244,172122,6,0,B|228:232|168:276,1,120,4|0
124,348,172811,2,0,B|136:284|92:223,1,120,2|0
44,200,173386,2,0,B|8:136|56:80,2,120,2|2|2
44,200,174190,1,2
124,148,174535,1,2
216,124,174880,5,6
192,216,175225,1,8
220,308,175569,2,2,B|280:284|300:208,1,120,2|8
308,156,176144,2,2,B|388:184|432:260,1,160,2|8
480,336,176947,5,0
384,340,177292,1,8
320,268,177637,2,2,B|280:312|212:320,1,120,2|8
120,324,178326,2,2,B|120:284|152:248,1,80,2|2
240,216,178901,2,2,B|230:132|151:73,1,160,2|8
120,168,179705,6,0,B|56:192|44:260,3,120,0|8|0|8
76,344,181084,2,2,B|120:328|136:296,1,80,0|2
232,272,181659,2,2,B|144:244|112:148,1,160,2|8
112,72,182462,6,0,B|168:108|228:108,1,120,0|8
320,108,183151,1,0
320,108,183496,1,8
320,108,183841,2,2,B|368:192|368:192,1,80,2|2
444,228,184415,2,2,B|432:260|432:260|376:308|304:272,1,160,2|8
224,248,185219,1,6
376,132,185908,6,2,B|288:148|268:100|248:48|144:64,1,240,6|8
216,244,187287,2,2,B|289:193|269:145|247:94|331:31,1,240,6|8
168,156,188666,5,4
168,156,189010,1,8
120,240,189355,1,0
120,240,189700,1,8
112,336,190044,2,0,B|48:328|24:260,2,120,2|8|2
300,288,191423,6,0,B|338:236|409:249,2,120,2|10|2
256,200,192457,1,8
212,116,192801,2,0,B|173:167|102:154,3,120,2|8|2|8
12,128,194180,5,2
40,220,194525,1,10
128,256,194869,2,2,B|243:196|360:256,1,240
444,300,195903,1,8
444,236,196133,6,2,B|444:176,1,40,2|2
400,152,196478,2,2,B|360:112,1,40,2|2
324,80,196822,2,2,B|324:20,1,40,2|6
236,80,197282,6,2,B|236:172|236:172|184:172|140:208|140:276,1,240,2|0
232,264,198316,2,0,B|284:264|324:224|324:188,1,120
328,104,199005,2,0,B|384:108|412:152|420:184,2,120,2|2|0
236,72,200039,2,2,B|188:48|132:52|88:96|88:96|88:184,1,240,2|0
88,240,200958,1,2
336,208,202452,5,2
424,244,202796,2,2,B|392:324|268:332|236:220,1,240,2|0
264,140,203830,2,0,B|184:124|152:200,1,120
96,252,204519,2,0,B|36:144,2,120,2|2|0
140,340,205553,2,2,B|204:312|204:240|184:200|184:200|144:128,1,240,2|0
112,80,206473,1,2
36,184,206932,5,6
8,276,207277,1,0
100,248,207622,2,0,B|152:232,3,40,0|0|0|4
228,204,208311,6,2,B|248:112|340:80|428:120,1,240,2|0
420,212,209345,2,0,B|372:252|388:324,1,120
292,320,210034,2,0,B|307:251|259:211,1,120,2|2
340,160,210723,1,0
340,160,211068,2,2,B|288:84|196:108|184:160|120:160,1,240,2|0
60,160,211987,1,2
468,72,213480,5,6
456,168,213825,2,2,B|428:148|376:144|336:172,1,120,2|0
400,244,214514,2,2,B|360:268|320:268|280:240,1,120,0|0
204,192,215204,1,0
124,136,215548,2,0,B|100:172|100:212|128:260,2,120,2|2|6
256,192,216352,12,6,217385
