osu file format v9

[General]
AudioFilename: Lou Bega - Mambo No.5.mp3
AudioLeadIn: 0
PreviewTime: 49944
Countdown: 0
SampleSet: Soft
StackLeniency: 0.7
Mode: 0
LetterboxInBreaks: 0

[Editor]
Bookmarks: 17720,50806,72863,94921,111464,133522,144550,163851,174880,185908,196937
DistanceSpacing: 1
BeatDivisor: 3
GridSize: 8

[Metadata]
Title:Mambo No.5
Artist:Lou Bega
Creator:Lesjuh
Version:Insane
Source:
Tags:GladiOol Gladi Aleks719

[Difficulty]
HPDrainRate:7
CircleSize:5
OverallDifficulty:7
ApproachRate:7
SliderMultiplier:1.8
SliderTickRate:1

[Events]
//Background and Video events
0,0,"Background.jpg"
//Break Periods
2,144750,154679
//Storyboard Layer 0 (Background)
//Storyboard Layer 1 (Fail)
//Storyboard Layer 2 (Pass)
//Storyboard Layer 3 (Foreground)
//Storyboard Sound Samples
//Background Colour Transformations
3,100,0,0,0

[TimingPoints]
17720,344.649319317594,4,2,0,40,1,0
27270,-100,4,2,0,5,0,0
28519,-100,4,1,0,60,0,0
28879,-100,4,1,0,40,0,0
38189,-100,4,1,0,5,0,0
39684,-100,4,1,0,60,0,0
39892,-100,4,1,0,40,0,0
49312,-100,4,1,0,20,0,0
49887,-100,4,2,0,40,0,0
50806,-100,4,1,0,40,0,1
72863,-100,4,1,0,40,0,0
92279,-100,4,1,0,5,0,0
93313,-100,4,1,0,40,0,0
93542,-100,4,2,0,40,0,0
94806,-100,4,1,0,40,0,0
110545,-100,4,2,0,40,0,0
111378,-100,4,1,0,40,0,0
111464,-100,4,1,0,40,0,1
133522,-100,4,1,0,40,0,0
162242,-100,4,1,0,5,0,0
163621,-100,4,2,0,40,0,0
173271,-100,4,1,0,40,0,0
173501,-100,4,2,0,40,0,0
173616,-100,4,1,0,40,0,0
173846,-100,4,2,0,40,0,0
173961,-100,4,1,0,40,0,0
174190,-200,4,1,0,40,0,0
174305,-200,4,2,0,5,0,0
174880,-100,4,1,0,40,0,1
185908,-100,4,1,0,40,0,0

[HitObjects]
184,48,17720,1,6
336,144,18064,1,8
440,88,18294,1,0
440,88,18409,2,0,B|504:104|520:200|464:248,1,180,0|8
376,296,18983,1,2
376,296,19098,1,0
264,256,19328,1,2
264,256,19443,1,8
232,136,19673,2,0,B|56:80,1,180,0|2
16,128,20132,6,0,B|-8:192|32:248,1,120,8|2
16,304,20477,2,0,B|66:267|130:291,1,120,4|2
184,328,20821,2,0,B|247:351|298:315,1,120,8|2
344,272,21166,1,0
472,144,21511,1,8
408,40,21740,1,2
408,40,21855,1,0
296,88,22085,2,0,B|240:64,1,60,2|8
72,128,22430,2,0,B|128:88|208:112|232:184,1,180,0|2
240,232,22889,2,0,B|248:296|192:336,1,120,8|2
128,352,23234,5,0
24,208,23579,1,8
120,136,23808,1,2
120,136,23923,1,0
216,64,24153,1,2
216,64,24268,2,0,B|272:104|256:176,1,120,8|2
224,224,24612,2,0,B|248:160|336:144|392:200,1,180,4|8
472,120,25187,5,2
472,120,25302,2,0,B|512:168|496:256|432:280,1,180,0|8
344,344,25876,1,2
296,304,25991,1,0
184,264,26221,1,2
160,320,26336,1,8
72,240,26565,1,2
48,184,26680,2,0,B|64:112|152:80|232:160,1,180,0|8
256,192,27370,12,0,28404
256,192,28748,5,4
96,112,29093,1,8
24,280,29438,2,2,B|40:344|120:368|176:328,1,180,2|8
272,272,30012,1,0
320,312,30127,2,2,B|376:272|352:192,1,120,2|2
336,144,30472,1,8
256,48,30701,1,2
480,16,31046,5,0
480,16,31161,2,0,B|456:136,1,120,8|0
480,192,31505,5,6
304,224,31850,1,8
200,368,32195,2,2,B|152:320|72:328|40:392,1,180,2|8
88,272,32769,1,0
88,272,32884,2,2,B|104:200|48:152,1,120
0,128,33229,1,8
112,8,33458,2,2,B|184:16|216:88|184:160,1,180,2|0
168,200,33918,1,8
280,328,34263,6,0,B|336:368|416:352|448:288,1,180,4|8
368,128,34837,1,0
320,88,34952,2,2,B|280:144|296:224|360:256,1,180,6|10
208,96,35641,6,0,B|152:56|72:72|40:136,1,180,4|8
168,352,36216,1,0
112,320,36331,2,2,B|72:264|88:184|152:152,1,180,6|10
208,256,36905,1,0
208,256,37020,2,0,B|280:280|328:224,1,120,4|0
344,176,37365,1,8
304,64,37594,1,0
304,64,37709,2,0,B|184:32,1,120,4|0
128,16,38054,1,8
256,192,38398,12,0,39432
256,192,39777,5,4
328,288,40007,1,0
376,328,40122,2,2,B|432:304|448:224|424:168,1,180,10|2
352,80,40696,1,0
304,40,40811,1,8
152,104,41041,1,0
216,120,41156,1,4
120,216,41385,1,0
72,256,41500,2,2,B|16:232|0:152|24:96,2,180,10|2|10
192,280,42419,5,0
232,328,42534,1,4
320,240,42764,1,0
320,240,42879,2,0,B|368:208|448:224|480:296,1,180,10|0
392,144,43453,1,0
392,144,43568,2,2,B|312:160|272:88,1,120,10|0
264,48,43913,6,0,B|80:16,1,180,4|8
32,120,44487,1,0
80,160,44602,1,4
120,272,44832,1,0
80,320,44947,1,8
176,128,45291,5,6
280,72,45521,1,0
336,104,45636,2,2,B|380:140|364:236|300:252,2,180,10|6|8
216,264,46555,1,0
248,320,46670,2,2,B|296:360|376:352|408:296,1,180,2|8
480,136,47359,1,0
336,24,47704,1,10
272,192,48049,6,0,B|208:216|160:168,2,120,4|0|0
216,88,48738,2,0,B|169:41|105:65,2,120,4|0|0
312,16,49427,2,0,B|328:72|416:104|472:64,1,180
376,176,49944,5,0
304,216,50117,1,2
248,152,50289,1,0
176,192,50462,1,2
120,128,50634,1,0
48,168,50806,6,0,B|16:216|32:296|88:328,1,180,4|8
192,200,51380,1,0
192,200,51495,2,2,B|216:136|168:88,1,120,6|2
112,64,51840,1,8
160,280,52070,6,2,B|360:240,1,180,4|2
240,344,52529,2,2,B|112:368,1,120,10|2
64,320,52874,5,4
48,176,53103,1,0
48,176,53218,1,8
32,32,53448,1,0
32,32,53563,2,0,B|96:-16|192:8|208:104,1,180,4|8
240,224,54137,1,0
240,224,54252,2,2,B|176:248|128:200,1,120,6|2
104,144,54597,1,8
296,184,54827,6,2,B|408:32,1,180,4|2
400,184,55286,2,2,B|312:304,1,120,10|2
288,336,55631,5,4
152,296,55861,1,0
152,296,55976,1,8
16,240,56205,1,0
16,240,56320,2,0,B|-16:184|0:112|56:80,1,180,4|8
192,192,56895,1,0
192,192,57010,2,2,B|238:145|214:81,1,120,6|2
176,32,57354,1,8
120,272,57584,6,2,B|320:312,1,180,4|2
160,360,58043,2,2,B|288:384,1,120,10|2
344,360,58388,5,4
400,224,58618,1,0
400,224,58733,1,8
448,88,58963,1,0
448,88,59077,2,0,B|384:56|312:96|312:176,1,180,4|8
168,136,59652,1,0
168,136,59767,2,2,B|240:136|264:56,1,120,6|2
256,8,60111,1,8
88,136,60341,2,2,B|216:296,1,180,4|2
64,240,60801,2,2,B|168:368,1,120,10|2
184,384,61145,5,4
288,280,61375,1,0
288,280,61490,1,8
432,256,61720,1,0
432,256,61835,2,0,B|472:192|440:96|376:80,1,180,4|8
248,48,62409,1,0
248,48,62524,2,2,B|232:112|272:160,1,120,6|2
328,192,62869,1,8
248,328,63098,5,0
248,328,63213,2,2,B|96:296,1,120,4|2
96,216,63558,2,2,B|240:248,1,120,10|2
280,216,63903,5,4
160,144,64132,1,0
160,144,64247,1,8
96,16,64477,1,0
96,16,64592,2,0,B|32:32|8:120|48:176,1,180,4|8
0,304,65166,1,0
0,304,65281,2,2,B|64:288|112:328,1,120,6|2
144,384,65626,1,8
256,192,65856,5,0
256,192,65970,2,2,B|240:72,1,120,4|2
176,160,66315,2,2,B|192:280,1,120,10|2
248,320,66660,5,4
336,208,66889,1,0
336,208,67004,1,8
424,88,67234,1,0
424,88,67349,2,0,B|480:136|448:216,1,120,4|0
424,264,67694,1,8
296,336,67923,1,0
296,336,68038,2,2,B|176:304,1,120,6|2
112,288,68383,1,8
32,144,68613,6,2,B|48:208|128:232|184:168,1,180,4|2
208,120,69072,2,2,B|232:56|192:0,1,120,10|2
144,32,69417,5,4
280,56,69647,1,0
280,56,69762,1,8
424,72,69991,1,0
424,72,70106,2,0,B|360:88|336:168|376:224,1,180,4|8
472,280,70681,1,0
472,280,70795,2,2,B|400:264|360:320,1,120,6|2
328,368,71140,1,8
248,280,71370,5,0
192,256,71485,1,4
128,152,71715,1,0
184,128,71829,2,0,B|200:64,3,60,8|0|0|2
320,88,72404,2,2,B|368:40,1,60,0|2
432,144,72749,2,2,B|496:136,1,60,0|6
432,304,73208,6,2,B|392:352|296:336|280:264,1,180,14|0
248,160,73782,1,2
80,88,74127,1,2
80,88,74472,5,0
56,144,74587,1,8
8,256,74816,1,0
48,304,74931,2,2,B|112:328|160:280,1,120,6|0
184,224,75276,2,2,B|230:177|294:201,1,120,10|0
336,248,75621,5,4
472,136,75965,2,2,B|528:152|548:244|504:288,1,180,14|0
408,352,76540,1,2
240,304,76884,1,2
240,304,77229,5,0
192,264,77344,1,8
240,152,77574,1,0
192,112,77688,2,0,B|136:72|56:96|40:160,1,180,4|8
104,328,78378,5,4
256,232,78722,2,2,B|440:272,1,180,10|0
504,176,79297,1,2
472,120,79412,1,8
400,24,79641,2,0,B|344:48|320:128|376:192,2,180,2|4|0
400,24,80446,1,6
280,48,80675,1,0
280,48,80790,1,10
160,72,81020,1,0
160,72,81135,1,4
248,256,81480,6,2,B|224:312|144:328|88:288,1,180,10|0
24,192,82054,1,2
112,32,82399,5,0
72,80,82514,2,2,B|56:144|104:192,1,120,6|0
160,208,82858,2,2,B|206:254|190:318,1,120,10|0
152,368,83203,2,2,B|198:321|272:344,1,120,2|0
320,368,83548,2,0,B|368:320,3,60,4|0|0|6
472,112,84237,6,2,B|416:72|336:96|320:160,1,180,10|0
296,272,84811,1,2
296,272,85156,1,2
120,232,85501,5,0
72,192,85615,1,8
96,72,85845,1,0
144,112,85960,2,2,B|200:152|280:128|296:64,1,180,6|10
392,0,86534,1,0
392,0,86649,1,4
472,160,86994,6,2,B|512:216|488:296|424:312,1,180,10|0
312,280,87568,1,2
136,232,87913,6,0,B|79:245|55:325|95:381,2,180,2|0|0
200,256,88717,2,0,B|320:288,1,120,4|0
280,192,89062,2,0,B|395:222,1,120,8|0
448,184,89407,5,6
352,32,89751,2,4,B|296:-8|216:16|200:72,1,180,10|0
96,136,90326,1,2
128,192,90441,1,8
192,288,90670,2,4,B|176:342|96:366|40:326,2,180,2|4|0
216,232,91474,2,0,B|264:192|336:224,1,120,2|0
368,272,91819,1,10
464,120,92164,5,6
256,192,92279,12,6,93313
48,232,94576,5,0
128,72,94921,1,4
280,160,95266,2,0,B|344:184|392:136,1,120,8|0
416,80,95610,2,0,B|472:88|512:160|480:224,1,180,4|8
400,304,96185,1,0
400,304,96300,2,0,B|328:392|76:360|184:49|512:192|314:465|104:320,1,540,4|8
48,296,97563,5,0
24,240,97678,1,4
72,64,98023,1,8
176,128,98253,1,0
152,184,98367,1,0
280,312,98712,2,0,B|352:336|400:272,1,120,8|0
424,232,99057,2,0,B|456:176|440:96|384:64,2,180,4|8|4
304,208,99976,1,0
272,152,100091,1,8
72,96,100435,5,4
136,224,100780,1,8
200,352,101125,2,0,B|248:400|336:376|344:304,1,180,0|8
424,224,101699,1,0
424,224,101814,2,0,B|248:168,1,180,4|8
136,176,102388,1,0
136,176,102503,2,0,B|88:128|112:64,1,120
160,24,102848,2,0,B|225:6|268:59,1,120,8|0
296,112,103193,6,0,B|314:177|252:236|184:208,1,180,4|8
48,176,103767,1,0
8,224,103882,2,0,B|152:368,1,180,0|8
248,304,104456,1,0
248,304,104571,2,0,B|304:272|400:280|456:352,1,180,4|8
504,232,105146,1,0
456,192,105260,2,0,B|400:152|344:176,1,120
288,208,105605,1,8
120,152,105950,5,4
168,40,106179,1,0
208,88,106294,2,0,B|256:136|352:112|360:32,2,180,8|0|8
88,72,107213,1,0
88,72,107328,1,4
24,176,107558,1,0
24,176,107673,2,0,B|-8:224|0:304|48:344,1,180,8|0
144,280,108247,5,0
168,224,108362,1,8
272,280,108592,1,0
312,328,108707,1,4
464,224,109052,1,8
416,48,109396,1,0
240,16,109741,6,0,B|192:64|224:136,1,120,8|0
264,176,110086,2,0,B|304:224|280:312|224:328,1,180,4|8
112,352,110602,5,0
56,288,110775,1,2
80,208,110947,1,0
24,144,111120,1,2
48,64,111292,1,0
192,48,111464,6,0,B|376:24,1,180,4|8
464,104,112039,1,0
440,160,112153,2,2,B|400:208|328:184,1,120,2|2
280,152,112498,1,8
104,128,112728,6,2,B|64:176|80:264|128:296,2,180,4|2|0
104,128,113532,5,6
232,200,113762,1,0
232,200,113877,1,10
272,336,114106,1,0
272,336,114221,2,0,B|328:368|408:352|440:304,1,180,4|8
488,200,114795,1,0
437,167,114911,2,2,B|367:143|327:191,1,120,2|2
304,248,115254,1,8
352,64,115485,6,2,B|320:112|240:128|184:88,2,180,6|2|2
384,8,116289,5,6
432,144,116519,1,0
432,144,116634,1,10
472,280,116864,1,0
472,280,116979,2,0,B|400:232|336:288|352:352,1,180,4|8
240,312,117553,1,0
184,288,117668,2,2,B|64:248,1,120,2|2
32,200,118012,1,8
160,8,118242,6,2,B|208:48|192:136|120:144,1,180,4|2
152,200,118702,2,2,B|272:240,1,120,10|2
328,256,119046,5,4
464,208,119276,1,0
464,208,119391,1,8
512,72,119621,1,0
512,72,119736,2,0,B|464:32|376:48|360:112,1,180,4|8
232,32,120310,1,0
272,80,120425,2,2,B|296:144|256:192,1,120,2|2
200,224,120770,1,8
96,112,120999,6,2,B|40:136|16:208|48:272,1,180,4|2
80,320,121459,2,2,B|200:368,1,120,10|2
248,336,121804,5,4
296,200,122033,1,0
296,200,122148,1,8
336,64,122378,1,0
336,64,122493,2,0,B|384:24|472:48|480:128,1,180,4|8
464,232,123067,1,0
440,288,123182,2,2,B|392:336|320:304,1,120,2|2
288,264,123527,1,8
256,152,123757,5,0
256,152,123871,2,2,B|152:96,1,120,4|2
48,136,124216,2,2,B|152:192,1,120,10|2
184,248,124561,5,4
320,216,124791,1,0
320,216,124905,1,8
456,176,125135,1,0
456,176,125250,2,0,B|512:208|520:312|456:368,1,180,4|8
336,312,125824,1,0
280,288,125939,2,2,B|224:240|256:160,1,120,2|2
288,128,126284,1,8
448,80,126514,5,0
448,80,126629,2,2,B|480:200,1,120,4|2
384,152,126973,2,2,B|352:32,1,120,10|2
304,0,127318,5,4
160,24,127548,1,0
160,24,127663,1,8
16,48,127892,1,0
16,48,128007,2,0,B|64:96|40:160,1,120,4|0
8,208,128352,1,8
128,128,128582,1,0
128,128,128697,2,2,B|192:104|248:152,1,120
272,200,129041,1,8
328,328,129271,6,2,B|392:360|464:320|472:264,1,180,4|2
480,200,129731,2,2,B|475:127|404:91,1,120,10|2
360,88,130075,5,4
288,216,130305,1,0
288,216,130420,1,8
152,256,130650,1,0
152,256,130764,2,0,B|88:240|64:160|104:104,1,180,4|8
192,32,131339,1,0
192,32,131453,2,2,B|264:16|304:72,1,120,6|2
320,128,131798,1,8
400,216,132028,5,4
432,160,132143,1,0
472,320,132373,1,0
416,352,132487,2,0,B|360:336,3,60,8|0|0|2
240,368,133062,2,2,B|224:312,1,60,0|2
120,248,133407,2,2,B|168:200,1,60,0|6
56,24,133866,6,2,B|8:64|24:160|96:176,1,180,14|0
176,96,134441,1,2
352,56,134785,1,2
352,56,135130,5,0
408,80,135245,1,8
440,192,135475,1,0
384,168,135590,2,2,B|344:224|376:296,1,120,6|0
400,336,135934,2,2,B|344:296|280:328,1,120,10|0
232,360,136279,5,4
24,288,136624,2,2,B|80:328|160:296|168:224,1,180,10|0
72,160,137198,1,2
24,120,137313,1,8
72,8,137543,1,2
240,64,137887,5,0
288,24,138002,2,0,B|352:0|408:56,1,120,8|0
424,104,138347,2,0,B|440:168|392:216,1,120,4|0
344,240,138691,2,0,B|296:287|320:351,1,120,8|0
376,320,139036,5,4
232,208,139381,2,2,B|200:152|216:80|272:48,1,180,10|0
384,24,139955,1,2
456,192,140300,1,2
456,192,140644,5,0
424,248,140759,1,8
360,352,140989,1,0
328,296,141104,2,2,B|280:264|200:272|160:320,1,180,6|10
48,280,141678,1,0
48,280,141793,1,4
24,64,142138,6,2,B|40:128|128:144|176:96,1,180,10|0
248,8,142712,1,2
296,48,142827,1,8
408,96,143057,1,2
360,136,143172,6,2,B|344:256,1,120,6|0
272,296,143517,2,2,B|288:176,1,120,10|0
232,120,143861,2,2,B|176:72|104:104,1,120,6|0
56,128,144206,2,2,B|32:72,2,60,6|0|2
88,192,144550,5,4
32,120,155579,6,2,B|119:227|432:216|295:-190|-104:-16|120:328|368:152,1,720,6|6
432,56,157188,1,0
432,56,157302,1,8
456,176,157532,1,0
456,176,157647,1,0
488,352,157992,1,8
256,192,158336,5,4
256,192,158451,12,4,159715
176,56,160060,6,0,B|216:104|296:104|336:56,2,180,8|0|8
128,128,161094,5,6
200,168,162128,1,6
256,192,162472,12,0,163506
56,336,163851,5,4
112,168,164195,2,2,B|144:120|240:112|280:160,2,180,8|0|8
160,280,165115,2,0,B|336:328,1,180,0|0
392,344,165574,1,8
496,280,165804,1,2
496,280,165919,1,0
448,104,166263,1,8
280,32,166608,6,0,B|224:72|240:168|304:192,1,180,0|8
176,320,167297,2,0,B|232:280|216:184|152:160,1,180,0|8
48,128,167872,2,0,B|16:336,2,180,0|0|0
56,72,168676,1,0
168,112,168906,1,2
168,112,169021,1,8
272,48,169250,5,2
272,48,169365,2,0,B|320:16|400:32|432:96,1,180,0|8
392,264,170054,2,0,B|344:296|264:280|232:216,1,180,0|8
136,288,170629,2,0,B|80:72,2,180
152,344,171433,1,0
264,296,171663,1,2
264,296,171778,1,8
304,184,172008,5,2
304,184,172122,2,0,B|488:184,1,180,0|8
208,96,172812,2,0,B|24:96,1,180,0|8
0,240,173386,1,0
48,280,173501,1,0
160,368,173731,1,0
184,312,173846,1,8
240,184,174075,1,0
296,208,174190,2,0,B|320:256|304:320|256:344,1,150,4|0
160,240,174880,6,4,B|125:186|152:104|208:88,1,180,4|8
320,128,175454,1,0
320,128,175569,2,2,B|432:176,1,120
496,208,175914,1,8
416,296,176143,5,0
416,296,176258,2,2,B|347:316|300:259,1,120,4|2
200,336,176603,2,2,B|268:315|315:372,1,120,10|2
309,365,176947,5,4
232,240,177177,1,0
232,240,177292,1,8
352,160,177522,1,0
352,160,177637,2,0,B|400:208|496:176|488:104,1,180,4|8
392,48,178211,1,0
392,48,178326,2,2,B|240:80,1,135
200,88,178671,1,8
56,32,178900,5,0
56,32,179015,2,2,B|76:101|19:148,1,120,4|2
96,248,179360,2,2,B|75:180|132:133,1,120,10|2
125,139,179704,5,4
256,200,179934,1,0
256,200,180049,1,8
296,336,180279,1,0
296,336,180394,2,0,B|360:368|416:312,1,120,4|0
432,264,180739,1,8
400,40,180968,5,0
400,40,181083,2,2,B|424:112|368:160,1,120,6|2
320,176,181428,1,8
144,104,181658,2,2,B|80:96|24:176|80:248,1,180,4|2
112,272,182117,2,2,B|176:296|224:240,1,120,10|2
232,184,182462,5,4
360,120,182692,1,0
360,120,182807,1,8
488,56,183036,1,0
488,56,183151,2,0,B|528:104|512:192|456:216,1,180,4|8
312,192,183725,1,0
312,192,183840,2,2,B|288:256|336:304,1,120,6|2
392,328,184185,1,8
344,64,184415,5,0
344,64,184530,2,0,B|224:32,1,120,4|0
176,88,184874,2,0,B|296:120,1,120,8|0
328,184,185219,2,0,B|344:256|280:296,1,120,4|0
224,312,185564,2,0,B|152:328|112:264,1,120,12|0
88,208,185908,6,2,B|144:32,1,180,6|8
152,336,186598,2,2,B|208:160,1,180,2|8
312,16,187287,6,2,B|376:-16|448:24|456:88,1,180,6|8
416,192,187861,2,2,B|361:363,1,180,2|0
224,248,188551,5,0
176,208,188666,2,2,B|112:176|40:216|32:280,1,180,6|10
96,120,189240,1,0
96,120,189355,2,2,B|160:152|232:112|240:48,1,180,2|10
320,144,189929,1,0
320,144,190044,2,2,B|424:88,1,120,4|2
480,56,190389,1,8
416,200,190619,2,0,B|232:296,1,180,6|0
200,312,191078,2,0,B|152:264|184:192,1,120,8|0
208,144,191423,5,6
32,104,191767,1,10
80,280,192112,2,2,B|136:328|224:304|240:224,1,180,6|8
288,72,192686,5,0
288,72,192801,1,0
400,24,193031,1,2
432,216,193376,2,2,B|376:264|288:240|272:160,1,180,6|0
280,185,193835,1,8
80,32,194180,6,2,B|40:208,1,180,6|10
136,360,194869,2,2,B|176:184,1,180,6|10
200,64,195444,1,0
200,64,195559,2,0,B|256:16|336:56,1,120,4|0
368,72,195903,2,0,B|384:8,2,60,8|0|0
352,136,196248,5,2
440,216,196478,2,2,B|492:186,1,60,0|2
432,336,196822,2,2,B|376:368,1,60,0|6
240,248,197282,6,2,B|200:200|104:216|96:296,1,180,14|0
16,200,197856,1,2
104,40,198201,1,2
104,40,198546,5,0
128,96,198661,1,8
232,160,198890,1,0
192,208,199005,2,2,B|168:272|216:320,1,120,6|0
272,344,199350,2,2,B|392:312,1,120,10|0
448,296,199695,5,4
392,56,200039,2,2,B|448:72|468:164|424:208,1,180,14|0
312,168,200614,1,2
144,112,200958,1,2
144,112,201303,5,0
96,72,201418,1,8
64,192,201648,1,0
112,232,201762,2,0,B|152:280|248:256|256:192,1,180,4|8
280,16,202452,5,4
424,120,202796,2,2,B|384:296,1,180,10|0
280,240,203371,1,2
224,208,203486,1,8
120,152,203715,2,0,B|64:176|40:256|96:320,2,180,2|4|0
120,152,204520,1,6
232,112,204749,1,0
232,112,204864,1,10
344,72,205094,1,0
344,72,205209,1,4
464,264,205554,6,2,B|440:320|360:336|304:296,1,180,10|0
232,208,206128,1,2
80,32,206473,5,0
48,88,206588,2,2,B|32:152|80:200,1,120,6|0
136,224,206932,2,2,B|200:240|246:194,1,120,10|0
280,144,207277,2,2,B|326:97|400:120,1,120,2|0
448,144,207622,2,0,B|496:96,3,60,4|0|0|6
408,328,208311,6,2,B|352:368|272:344|256:280,1,180,10|0
352,216,208885,1,2
352,216,209230,1,2
280,32,209575,5,0
256,88,209689,1,8
208,200,209919,1,0
176,144,210034,2,2,B|121:104|41:128|27:185,1,180,6|10
128,256,210608,1,0
128,256,210723,1,4
280,360,211068,6,2,B|336:346|360:266|320:210,1,180,10|0
248,120,211642,1,2
104,232,211987,6,0,B|47:219|23:139|63:83,2,180,2|0|0
168,216,212791,2,0,B|288:184,1,120,4|0
240,264,213136,2,0,B|125:294,1,120,8|0
64,312,213481,5,6
104,32,213825,2,4,B|160:-8|240:16|256:72,1,180,10|0
208,184,214400,1,2
176,240,214515,1,8
240,344,214744,2,4,B|294:328|318:248|278:192,2,180,2|4|0
184,360,215548,2,0,B|112:376|72:312,1,120,2|0
56,264,215893,1,10
136,104,216238,5,6
256,192,216353,12,6,217387
