osu file format v9

[General]
AudioFilename: Lou Bega - Mambo No.5.mp3
AudioLeadIn: 0
PreviewTime: 49944
Countdown: 0
SampleSet: Soft
StackLeniency: 0.7
Mode: 0
LetterboxInBreaks: 0

[Editor]
Bookmarks: 17720,50806,72863,82514,144550,157475,163851
DistanceSpacing: 1
BeatDivisor: 3
GridSize: 8

[Metadata]
Title:Mambo No.5
Artist:Lou Bega
Creator:Lesjuh
Version:Hard
Source:
Tags:GladiOol Gladi Aleks719

[Difficulty]
HPDrainRate:5
CircleSize:5
OverallDifficulty:5
ApproachRate:7
SliderMultiplier:1.6
SliderTickRate:1

[Events]
//Background and Video events
0,0,"Background.jpg"
//Break Periods
2,144750,157436
//Storyboard Layer 0 (Background)
//Storyboard Layer 1 (Fail)
//Storyboard Layer 2 (Pass)
//Storyboard Layer 3 (Foreground)
Sprite,Foreground,Centre,"bmgladi.png",320,240 M,0,6691,,436,425 R,0,6691,,-0.0819183 F,0,6691,9448,0,1 F,0,9448,220373,1,0.9992746 F,0,220373,221752,0.9992746,0
//Storyboard Sound Samples
//Background Colour Transformations
3,100,0,0,0

[TimingPoints]
17720,344.649319317594,4,2,0,40,1,0
27270,-100,4,2,0,5,0,0
28519,-100,4,1,0,60,0,0
28879,-100,4,1,0,40,0,0
38189,-100,4,1,0,5,0,0
39684,-100,4,1,0,60,0,0
39892,-100,4,1,0,40,0,0
49312,-100,4,1,0,20,0,0
49887,-100,4,2,0,40,0,0
50806,-100,4,1,0,40,0,1
72863,-100,4,1,0,40,0,0
92279,-100,4,1,0,5,0,0
94576,-100,4,1,0,5,0,0
94806,-100,4,1,0,60,0,0
95036,-100,4,1,0,40,0,0
110545,-100,4,2,0,40,0,0
111464,-100,4,1,0,40,0,1
133522,-100,4,1,0,40,0,0
162903,-100,4,2,0,40,0,0
163851,-100,4,2,0,40,0,1
163937,-133.333333333333,4,2,0,40,0,0
173271,-133.333333333333,4,1,0,40,0,0
173932,-100,4,1,0,40,0,0
174305,-100,4,2,0,40,0,0
174880,-100,4,1,0,40,0,1
185908,-100,4,1,0,40,0,0

[HitObjects]
168,312,17720,2,0,B|136:152,1,160,4|8
280,232,18409,2,0,B|276:68,1,160,0|8
368,24,18983,1,2
368,24,19098,2,0,B|392:80|376:136,1,106.666666666667,0|0
472,256,19673,2,0,B|392:200|312:264|336:360,1,213.333333333333,0|8
232,376,20362,5,2
232,376,20477,2,0,B|216:208,1,160,4|8
256,64,21166,1,2
96,32,21511,1,8
40,120,21740,1,2
40,120,21855,2,0,B|16:176|48:240,1,106.666666666667,0|0
144,352,22430,2,0,B|224:408|304:344|280:248,1,213.333333333333,2|8
256,112,23234,5,0
392,32,23579,1,8
440,128,23808,1,2
440,128,23923,2,0,B|392:208|440:304,1,160,0|8
368,368,24498,1,2
368,368,24612,1,4
336,208,24957,1,8
256,272,25187,5,2
256,272,25302,2,0,B|264:72,1,160,0|8
192,32,25876,1,2
192,32,25991,1,0
96,80,26221,1,2
96,80,26336,2,0,B|128:128|112:208,1,106.666666666667,8|2
115,182,26680,2,0,B|64:256|104:352,1,160,0|8
256,192,27370,12,0,28404
256,192,28748,5,4
152,72,29093,1,8
64,136,29323,1,0
64,136,29438,2,2,B|40:184|56:256,1,106.666666666667,2|0
8,272,29782,2,0,B|195:319,1,160,8|6
264,336,30357,2,2,B|312:264|280:160,1,160,2|2
286,182,31161,1,8
184,216,31391,5,0
184,216,31505,2,0,B|168:104,1,106.666666666667,2|0
161,57,31850,1,8
320,16,32195,1,6
384,160,32539,1,8
304,232,32769,1,0
304,232,32884,2,2,B|288:288|304:344,1,106.666666666667,2|0
176,240,33458,2,2,B|8:224,1,160,2|0
16,224,33918,1,8
136,120,34263,6,2,B|120:8,1,106.666666666667,6|0
120,14,34607,1,8
216,144,34952,2,2,B|192:192|216:264,1,106.666666666667,2|0
211,248,35297,1,8
336,344,35641,2,2,B|359:296|340:240,1,106.666666666667,6|0
340,241,35986,1,8
448,248,36216,1,0
448,248,36331,2,2,B|424:120,1,106.666666666667,2|0
428,143,36675,1,8
344,80,36905,5,0
344,80,37020,2,2,B|168:64,1,160,6|8
88,104,37594,1,0
88,104,37709,2,2,B|32:176|72:280,1,160,6|8
256,192,38398,12,0,39432
256,192,39777,5,4
144,312,40122,1,8
72,232,40351,1,0
72,232,40466,2,2,B|48:184|72:120,1,106.666666666667,2|0
40,80,40811,2,2,B|208:56,1,160,10|4
312,176,41500,1,10
296,280,41730,1,0
296,280,41845,2,2,B|392:312|456:224,1,160,0|10
472,136,42419,5,0
472,136,42534,1,4
344,32,42879,1,10
256,96,43109,1,0
256,96,43224,2,0,B|144:88,1,106.666666666667,0|0
96,85,43568,2,0,B|48:149|72:253,1,160,10|4
176,352,44257,1,10
232,264,44487,1,0
232,264,44602,2,2,B|328:224|408:312,1,160,6|8
472,152,45291,5,4
352,48,45636,1,8
256,88,45866,1,0
256,88,45981,2,2,B|240:136|256:208,1,106.666666666667
262,245,46325,1,8
208,336,46555,1,0
208,336,46670,2,2,B|48:312,1,160,2|8
160,192,47359,2,2,B|320:168,1,160
424,144,47934,5,0
424,144,48049,2,0,B|472:216|432:320,1,160,4|8
360,368,48623,1,0
360,368,48738,2,2,B|240:360,1,106.666666666667,6|2
200,355,49083,1,8
104,304,49312,1,0
104,304,49427,2,0,B|56:224|104:128,1,160
176,168,49944,6,0,B|168:88,1,80,0|2
240,48,50289,2,0,B|247:127,1,80,0|2
328,144,50634,2,0,B|304:184|312:232,1,80,0|6
312,328,51036,5,0
312,328,51150,2,2,B|144:312,1,160,10|4
48,296,51725,1,2
48,296,51840,1,0
56,192,52070,2,2,B|112:256|224:224|216:112,1,213.333333333333,2|10
152,56,52759,5,0
152,56,52874,1,4
256,40,53103,1,0
256,40,53218,1,8
360,24,53448,5,0
360,24,53563,2,2,B|424:72|400:184,1,160,6|8
424,328,54252,2,2,B|240:296,1,160,2|8
160,272,54827,1,0
160,272,54942,2,2,B|128:224|152:160,1,106.666666666667,0|2
166,119,55286,1,10
256,56,55516,5,0
256,56,55631,2,2,B|376:64,1,106.666666666667,6|0
416,64,55976,2,0,B|448:104|432:176,1,106.666666666667,10|0
456,216,56320,6,2,B|296:184,1,160,6|8
208,240,56895,1,0
208,240,57010,2,2,B|144:256|96:216,1,106.666666666667
64,192,57354,1,8
112,96,57584,1,2
112,96,57699,2,0,B|296:112,1,160,0|8
376,120,58273,5,0
376,120,58388,1,4
384,224,58618,1,0
384,224,58733,1,8
392,328,58963,5,0
392,328,59077,2,2,B|320:272|232:320,1,160,6|8
96,248,59767,2,2,B|72:200|80:136,1,106.666666666667
32,112,60111,2,0,B|224:88,1,160,8|0
200,200,60686,1,0
200,200,60801,2,0,B|312:184,1,106.666666666667,8|0
360,176,61145,5,4
464,160,61375,1,0
464,160,61490,1,8
472,264,61720,5,0
472,264,61835,2,2,B|368:232|328:328,1,160,6|8
176,352,62524,1,2
80,160,62869,1,0
144,72,63098,2,2,B|224:8|320:72|296:168,1,213.333333333333,2|8
400,96,63788,5,0
400,96,63903,1,4
456,184,64132,1,0
456,184,64247,1,8
400,272,64477,5,0
400,272,64592,2,2,B|240:280,1,160,6|10
144,232,65166,1,0
144,232,65281,2,2,B|120:184|136:128,1,106.666666666667
104,88,65626,2,0,B|200:128|264:32,1,160,8|0
352,80,66200,1,0
352,80,66315,2,0,B|344:216,1,106.666666666667,8|0
296,200,66660,6,2,B|336:240|320:320,1,106.666666666667,6|0
360,336,67004,2,0,B|248:344,1,106.666666666667,10|0
200,344,67349,6,2,B|136:296|160:192,1,160,6|10
88,104,67923,1,0
88,104,68038,2,2,B|192:72,1,106.666666666667,0|2
344,120,68613,2,2,B|264:88|192:152|232:248,1,213.333333333333,2|8
280,328,69302,5,0
280,328,69417,1,4
384,352,69647,1,0
384,352,69762,1,8
464,280,69991,5,0
464,280,70106,2,2,B|512:208|472:112,1,160,6|8
336,48,70795,2,2,B|344:176,1,106.666666666667,2|0
264,296,71370,2,2,B|200:360|104:312|96:240,1,213.333333333333,2|8
72,144,72059,5,0
72,144,72174,2,2,B|184:136,1,106.666666666667,6|0
112,80,72519,2,2,B|224:72,1,106.666666666667,2|0
282,68,72863,5,4
408,168,73208,2,2,B|456:240|408:344,1,160,10|0
312,384,73782,2,0,B|136:368,2,160,2|2|0
208,264,74816,1,0
208,264,74931,2,2,B|32:248,2,160,6|10|4
368,272,75966,6,2,B|416:200|368:96,1,160,10|0
296,48,76540,2,0,B|120:64,2,160,2|2|0
192,168,77574,1,0
192,168,77688,2,0,B|16:184,1,160,4|8
128,312,78378,5,4
128,312,78722,2,2,B|248:360|248:192|368:232,1,266.666666666667,10|2
440,88,79641,2,0,B|360:128|280:56,1,160,2|0
136,16,80331,1,0
136,16,80446,2,2,B|112:176,1,160,6|10
200,304,81135,6,0,B|224:144,1,160,4|10
360,56,81824,1,0
424,144,82054,1,2
424,144,82169,2,0,B|400:192|424:264,1,106.666666666667,8|2
288,344,82743,1,0
232,192,83088,1,0
232,192,83203,1,0
128,240,83433,6,2,B|112:216|120:176,3,53.3333333333333,4|2|0|2
128,136,83892,2,0,B|288:112,1,160,0|14
392,88,84467,1,0
392,88,84581,2,0,B|416:136|408:200,1,106.666666666667,0|2
320,328,85156,1,2
176,264,85501,1,0
176,264,85615,2,0,B|152:216|160:152,1,106.666666666667,8|0
184,112,85960,2,2,B|128:176|24:136,2,160,6|10|0
320,24,86994,6,2,B|392:56|384:184,1,160,14|0
288,216,87568,1,2
288,216,87683,2,0,B|304:344,1,106.666666666667,8|2
144,280,88258,1,0
288,216,88602,1,0
288,216,88717,1,0
136,168,89062,1,8
184,72,89292,5,0
184,72,89407,2,0,B|288:112|352:24,2,160,4|6|0
88,112,90326,1,2
88,112,90441,2,0,B|56:160|64:216,1,106.666666666667,8|2
168,336,91015,1,0
264,208,91360,1,0
264,208,91474,2,2,B|432:224,1,160,6|2
336,88,92164,1,6
256,192,92279,12,0,94576
256,192,94921,5,4
216,344,95266,1,8
88,248,95610,2,2,B|16:200|48:88,1,160,2|8
128,40,96185,1,0
128,40,96300,2,2,B|152:152,1,106.666666666667,4|2
200,144,96644,2,2,B|176:200|192:264,1,106.666666666667,10|0
152,288,96989,2,0,B|312:272,1,160,2|8
432,144,97678,6,0,B|376:72|272:112,1,160,4|8
200,40,98253,1,0
200,40,98367,2,0,B|128:96|168:200,1,160,2|8
96,264,98942,1,0
96,264,99057,2,0,B|152:336|256:296,1,160,4|8
328,368,99632,1,0
328,368,99746,2,0,B|400:312|360:208,1,160,2|10
432,80,100435,6,0,B|264:64,1,160,4|8
120,104,101125,1,2
200,296,101699,1,0
200,296,101814,2,0,B|368:312,1,160,4|8
472,200,102504,1,2
192,48,103193,6,0,B|128:96|144:192,1,160,4|8
88,280,103767,1,0
88,280,103882,2,0,B|272:320,1,160,2|8
352,336,104456,1,0
352,336,104571,2,0,B|416:288|400:192,1,160,4|8
456,104,105145,1,0
456,104,105260,2,0,B|272:64,1,160,2|8
144,96,105950,5,4
72,168,106179,1,0
72,168,106294,2,2,B|64:224|80:280,1,106.666666666667,10|0
104,320,106639,2,2,B|200:352|256:272,1,160,2|8
280,176,107213,1,0
280,176,107328,2,0,B|416:192,1,106.666666666667,4|0
424,152,107673,2,0,B|472:224|424:320,2,160,10|2|8
368,64,108592,5,0
368,64,108707,2,0,B|208:48,1,160,4|8
80,152,109396,2,0,B|240:168,1,160,2|10
345,182,109971,1,0
345,182,110086,2,0,B|392:256|352:352,1,160,4|0
256,360,110602,5,0
256,360,110775,2,0,B|216:320|240:256,1,80,2|0
176,232,111119,2,0,B|216:160,1,80,2|0
192,88,111464,6,0,B|280:120|336:40,1,160,6|10
424,176,112153,1,2
424,176,112383,1,0
344,320,112728,2,2,B|176:296,1,160,2|0
133,285,113187,1,8
80,192,113417,5,0
80,192,113532,1,4
184,168,113762,1,0
184,168,113877,1,8
288,144,114106,5,0
288,144,114221,2,0,B|408:160,1,106.666666666667,6|0
440,128,114566,2,2,B|400:184|424:288,1,160,10|0
336,344,115140,1,2
248,208,115485,2,2,B|80:224,1,160,2|0
88,223,115945,1,8
48,128,116174,5,0
48,128,116289,2,0,B|120:144|160:64,1,106.666666666667,4|0
112,48,116634,2,0,B|240:64,1,106.666666666667,8|0
248,104,116979,6,2,B|192:160|224:256,1,160,6|10
296,328,117553,1,0
296,328,117668,2,2,B|400:312,1,106.666666666667
480,168,118242,2,2,B|416:232|320:192|328:96,1,213.333333333333,2|8
240,48,118932,5,0
240,48,119046,1,4
232,152,119276,1,0
232,152,119391,1,8
224,256,119621,5,0
224,256,119736,2,2,B|136:296|56:200,2,160,6|10|0
312,312,120655,2,0,B|344:128,1,160,2|2
350,102,121114,1,0
264,32,121344,1,0
264,32,121459,1,8
168,80,121689,5,0
168,80,121804,2,4,B|136:128|144:184,1,106.666666666667,4|0
96,200,122148,2,0,B|128:320,1,106.666666666667,8|0
160,344,122493,6,2,B|256:368|304:288,1,160,6|10
408,312,123067,1,0
408,312,123182,2,0,B|392:152,1,160,6|8
328,64,123757,2,2,B|240:8|152:88|200:176,1,213.333333333333,2|8
112,216,124446,5,0
112,216,124561,1,4
176,304,124791,1,0
176,304,124905,1,8
256,232,125135,5,0
256,232,125250,2,2,B|432:248,2,160,6|10|0
336,160,126169,2,0,B|176:145,1,160,2|2
123,140,126629,2,0,B|88:187|107:264,1,106.666666666667,4|0
102,241,126973,1,8
136,344,127203,5,0
136,344,127318,1,4
240,336,127548,1,0
240,336,127663,1,8
344,328,127892,5,0
344,328,128007,2,2,B|376:272|360:192,1,106.666666666667,6|0
400,184,128352,2,0,B|320:216|248:144,1,160,10|0
168,88,128926,1,2
64,208,129271,2,2,B|48:296|160:336|208:248,1,213.333333333333,2|8
248,160,129960,5,0
248,160,130075,2,0,B|312:144|368:200,1,106.666666666667,4|0
400,192,130420,2,0,B|368:304,1,106.666666666667,8|0
352,344,130764,6,0,B|192:336,1,160,6|8
72,224,131454,2,2,B|208:232,1,106.666666666667,2|0
336,240,132028,2,2,B|384:176|352:88,1,160,2|0
351,87,132488,1,8
256,40,132717,5,0
256,40,132832,2,2,B|144:48,1,106.666666666667,4|2
216,104,133177,2,2,B|104:112,1,106.666666666667,0|2
40,120,133522,6,0,B|-6:196|34:292,2,160,4|10|0
128,56,134441,2,0,B|312:72,2,160,2|2|0
112,216,135475,1,0
112,216,135590,2,2,B|296:232,1,160,6|10
472,120,136279,6,0,B|518:196|478:292,2,160,4|10|0
384,56,137198,2,0,B|200:72,2,160,2|2|0
400,216,138232,1,0
400,216,138347,2,0,B|216:232,1,160,4|8
128,344,139036,5,4
72,192,139381,2,2,B|192:240|192:72|312:112,1,266.666666666667,10|2
240,256,140300,2,0,B|424:264,1,160,2|0
256,184,140989,1,0
256,184,141104,2,2,B|352:208|400:120,1,160,6|10
384,344,141793,5,4
440,192,142138,2,2,B|320:240|320:72|200:112,1,266.666666666667,10|2
272,256,143057,2,0,B|88:264,1,160,2|0
112,262,143517,1,8
152,160,143746,1,0
152,160,143861,1,4
48,120,144091,2,2,B|24:96|32:56,4,53.3333333333333,0|2|0|2|4
256,192,158336,12,6,161094
256,192,162128,1,6
368,32,162989,6,0,B|352:120,1,80,0|2
432,128,163334,2,0,B|400:160|416:216,1,80,0|2
448,272,163678,2,0,B|368:296,1,80,0|4
264,352,164195,5,8
176,272,164540,2,0,B|136:224|168:136,1,119.999996423721,2|8
200,88,165115,2,0,B|336:56,2,119.999996423721,2|2|0
208,48,165919,2,0,B|91:75,1,119.999996423721,2|8
24,176,166608,6,0,B|140:203,1,119.999996423721,2|8
192,312,167297,1,2
280,232,167642,1,8
352,264,167872,2,0,B|392:216|376:128,1,119.999996423721,2|2
448,56,168561,1,0
448,56,168676,2,0,B|320:24,1,119.999996423721,2|8
248,112,169365,6,0,B|120:80,1,119.999996423721,2|8
208,176,170054,2,0,B|80:144,1,119.999996423721,2|8
40,208,170629,1,2
88,320,170974,1,2
200,280,171318,1,0
200,280,171433,2,0,B|264:264|320:312,1,119.999996423721,2|8
424,352,172122,6,0,B|440:224,1,119.999996423721,2|8
320,240,172812,2,0,B|336:112,1,119.999996423721,2|8
304,48,173386,1,0
184,24,173731,1,0
120,128,174075,5,0
120,128,174190,2,0,B|88:160|96:208,1,80,4|2
16,208,174535,2,0,B|32:288,1,80,0|2
88,344,174880,6,2,B|264:320,1,160,6|10
400,280,175569,2,2,B|440:200|400:112,1,160,2|8
320,64,176143,1,0
320,64,176258,2,2,B|192:80,1,106.666666666667,4|2
214,77,176603,2,2,B|192:128|216:192,1,106.666666666667,10|2
212,181,176947,5,4
168,280,177177,1,0
168,280,177292,1,8
248,352,177522,5,0
248,352,177637,2,2,B|432:336,1,160,6|10
472,192,178326,2,2,B|440:144|464:72,1,106.666666666667,0|2
312,24,178900,1,0
312,24,179015,2,2,B|328:144,1,106.666666666667,0|2
326,129,179360,1,8
304,232,179590,5,0
304,232,179705,1,4
208,280,179934,1,0
208,280,180049,1,8
104,248,180279,5,0
104,248,180394,2,2,B|72:200|96:136,1,106.666666666667,6|0
64,104,180739,2,0,B|240:56,1,160,10|0
176,160,181313,2,2,B|352:112,1,160,2|2
330,117,181773,1,4
416,184,182002,1,0
416,184,182117,2,2,B|440:232|424:288,1,106.666666666667,10|2
424,287,182462,5,4
328,336,182692,1,0
328,336,182807,1,8
240,272,183036,5,0
240,272,183151,2,2,B|192:200|88:216,1,160,6|10
24,72,183840,2,2,B|88:72|120:24,1,106.666666666667,2|0
256,104,184415,5,0
256,104,184530,2,0,B|384:72,1,106.666666666667,4|0
384,32,184874,2,0,B|360:80|392:144,1,106.666666666667,8|0
440,128,185219,2,0,B|432:248,1,106.666666666667
472,272,185564,2,0,B|424:240|368:256,1,106.666666666667,8|0
328,288,185908,6,0,B|152:264,1,160,6|8
56,160,186598,2,0,B|232:184,1,160,6|8
320,200,187172,1,0
320,200,187287,2,2,B|368:128|336:48,1,160,6|8
232,32,187861,2,2,B|184:104|216:184,1,160,2|0
216,184,188321,1,8
328,296,188666,6,2,B|488:288,2,160,4|2|2
432,176,189700,1,10
344,120,189929,1,0
344,120,190044,2,2,B|280:104|232:160,1,106.666666666667,0|2
144,272,190619,2,2,B|72:312|-16:240|16:168,1,213.333333333333,2|8
72,80,191308,5,0
72,80,191423,2,2,B|248:56,1,160,4|10
160,200,192112,2,2,B|256:176|296:272,1,160,2|8
368,336,192686,1,0
368,336,192801,2,2,B|416:224,1,106.666666666667,0|2
264,296,193376,2,2,B|288:64,1,213.333333333333,2|8
176,200,194180,6,2,B|152:32,1,160,4|10
40,160,194869,2,2,B|0:232|48:328,1,160,2|10
136,360,195444,1,0
136,360,195559,2,0,B|312:352,1,160,4|2
392,304,196133,5,0
392,304,196248,2,2,B|416:192,1,106.666666666667,4|2
344,216,196592,2,2,B|368:160|344:104,1,106.666666666667,0|2
304,56,196937,5,4
248,208,197282,2,2,B|224:312|88:336|24:224,1,266.666666666667,10|2
56,88,198201,1,4
56,88,198316,2,0,B|168:72,1,106.666666666667,4|0
216,64,198660,1,8
320,96,198890,1,0
320,96,199005,2,2,B|384:152|352:272,2,160,6|10|4
160,72,200039,6,2,B|216:344,1,266.666666666667,6|2
64,272,200958,1,2
64,272,201073,2,0,B|32:224|56:160,1,106.666666666667,4|0
16,128,201418,2,0,B|120:96,1,106.666666666667,8|0
104,48,201762,2,0,B|264:64,1,160,4|10
176,200,202452,5,4
176,200,202796,2,2,B|264:272|375:218|355:101,1,266.666666666667,10|2
224,24,203715,1,2
224,24,203830,2,0,B|160:8|120:72,1,106.666666666667,4|0
80,56,204175,2,0,B|96:184,1,106.666666666667,8|0
56,200,204519,2,2,B|144:160|208:248,1,160,6|10
320,344,205209,5,4
320,344,205553,2,2,B|384:64,1,266.666666666667,10|2
240,8,206472,1,2
240,8,206587,2,0,B|216:120,1,106.666666666667,4|0
56,96,207162,1,0
56,96,207277,2,0,B|88:144|56:216,1,106.666666666667,4|0
40,248,207621,2,2,B|32:280|56:320,3,53.3333333333333,2|0|2|4
192,360,208311,6,2,B|360:344,1,160,14|0
416,256,208885,1,2
416,256,209000,2,0,B|448:208|424:144,1,106.666666666667,8|2
312,48,209574,2,0,B|144:64,1,160
192,96,210034,2,2,B|360:80,2,160,6|10|4
112,232,211068,6,2,B|200:160|311:213|291:330,1,266.666666666667,14|2
440,264,211987,2,0,B|376:200|416:96,1,160,2|0
272,40,212676,1,0
272,40,212791,2,0,B|96:64,1,160,4|8
40,208,213480,5,4
168,304,213825,2,2,B|272:320|304:232,1,160,14|0
280,136,214399,1,2
280,136,214514,2,0,B|408:120,1,106.666666666667,8|2
496,240,215089,1,0
392,360,215433,1,0
392,360,215548,2,2,B|328:312|352:208,1,160,6|10
256,88,216238,1,6
256,192,216352,12,6,217386
