osu file format v9

[General]
AudioFilename: Lou Bega - Mambo No.5.mp3
AudioLeadIn: 0
PreviewTime: 49944
Countdown: 0
SampleSet: Soft
StackLeniency: 0.8
Mode: 0
LetterboxInBreaks: 0

[Editor]
DistanceSpacing: 0.8
BeatDivisor: 3
GridSize: 8

[Metadata]
Title:Mambo No.5
Artist:Lou Bega
Creator:Lesjuh
Version:Easy
Source:
Tags:GladiOol Gladi Aleks719

[Difficulty]
HPDrainRate:2
CircleSize:3
OverallDifficulty:2
ApproachRate:3
SliderMultiplier:0.8
SliderTickRate:1

[Events]
//Background and Video events
0,0,"Background.jpg"
//Break Periods
2,73062,82452
2,144750,154139
//Storyboard Layer 0 (Background)
//Storyboard Layer 1 (Fail)
//Storyboard Layer 2 (Pass)
//Storyboard Layer 3 (Foreground)
//Storyboard Sound Samples
//Background Colour Transformations
3,100,0,0,0

[TimingPoints]
17720,344.649319317594,4,2,0,35,1,0
28748,-100,4,1,0,40,0,0
38169,-100,4,1,0,30,0,0
38858,-100,4,1,0,10,0,0
39203,-100,4,1,0,40,0,0
50806,-100,4,1,0,40,0,1
72863,-100,4,1,0,40,0,0
111464,-100,4,1,0,40,0,1
133522,-100,4,1,0,40,0,0

[HitObjects]
96,64,17720,1,4
48,184,18409,1,2
136,280,19098,2,0,B|216:304|264:232,1,133.333333333333
288,168,20132,1,8
288,168,20477,2,0,B|312:120|376:96|440:128,1,160,4|0
464,224,21740,2,0,B|440:272|376:296|312:264,1,160,0|2
240,248,22889,1,8
240,248,23234,1,0
120,288,23923,5,0
144,160,24612,2,0,B|160:120|136:80,1,80,4|8
88,48,25302,1,0
16,152,25991,6,0,B|-8:208|8:272|56:304,1,160
256,192,27025,12,4,28748
384,88,29438,5,8
472,176,30127,2,2,B|424:232|344:208,1,133.333333333333
232,120,31505,5,4
120,64,32195,1,2
64,176,32884,2,2,B|41:248|97:296,1,133.333333333333
256,328,34263,6,0,B|336:304,1,80,4|8
232,248,34952,2,0,B|312:224,1,80,6|8
376,160,35641,6,0,B|296:136,1,80,4|8
400,80,36330,2,0,B|320:56,1,80,6|8
264,40,37020,5,4
144,80,37709,1,0
24,120,38398,1,0
24,120,38743,1,8
24,120,39088,1,0
24,120,39432,1,2
56,192,39777,5,4
176,232,40466,1,0
240,344,41156,2,2,B|288:328|328:368,1,80,0|10
400,280,41845,2,2,B|352:296|312:256,1,80,0|10
384,152,42879,5,8
384,152,43224,1,2
304,48,43913,2,0,B|248:24|184:48|160:104,1,160,4|2
176,224,45291,5,4
296,272,45981,1,2
192,344,46670,2,0,B|152:312|96:336,2,80,2|8|2
192,344,48049,5,4
320,360,48738,1,0
376,328,49083,2,0,B|392:272,1,53.3333333333333,8|0
256,48,50806,6,0,B|224:80|176:64,1,80,4|10
256,152,51495,2,2,B|288:112|344:104|392:136,1,133.333333333333
440,184,52529,1,8
440,184,52874,1,0
328,264,53563,6,2,B|296:232|248:248,1,80,6|8
272,336,54252,2,2,B|232:360|176:352|144:312,1,133.333333333333
112,240,55286,1,8
112,240,55631,1,0
72,120,56320,6,2,B|224:72,1,160,6|2
328,40,57584,2,2,B|368:88|344:152,1,106.666666666667,2|10
312,192,58388,1,2
192,136,59077,6,2,B|224:304,1,160,6|2
304,360,60341,2,2,B|368:376|408:320,1,106.666666666667,2|10
416,264,61145,1,2
440,136,61835,5,6
440,136,62179,1,8
440,136,62524,1,2
368,56,63098,2,0,B|304:24|224:64|224:144,1,186.666666666667,2|0
296,232,64592,5,6
296,232,64936,1,8
296,232,65281,1,2
224,312,65855,2,0,B|160:344|80:304|80:224,1,186.666666666667,2|0
128,120,67349,6,4,B|208:104,1,80,4|8
272,88,68038,2,2,B|320:144|288:216,1,133.333333333333
232,272,69072,1,8
232,272,69417,1,2
112,320,70106,5,4
72,200,70795,1,0
32,80,71485,1,4
32,80,71829,2,0,B|88:24,3,80,8|2|2|6
72,72,83892,5,4
72,72,84237,2,2,B|96:224,1,133.333333333333,10|2
104,264,85156,1,2
248,240,85960,2,0,B|264:336,1,80,6|10
336,264,86649,5,4
336,264,86994,2,2,B|312:112,1,133.333333333333,10|2
304,72,87913,1,2
480,96,89407,5,0
480,96,89751,2,2,B|510:164|462:220,1,133.333333333333,10|2
416,248,90670,1,2
280,192,91474,2,2,B|208:160,1,80,2|10
144,128,92164,1,6
144,128,93313,1,2
72,320,94921,5,4
184,256,95610,1,0
304,304,96300,2,2,B|360:336|432:312|456:248,1,160
456,208,97333,2,0,B|464:128,1,80,8|4
408,8,98367,5,2
296,72,99057,2,2,B|256:120|256:176|304:232,1,160,2|2
293,218,100091,1,8
293,218,100435,5,4
416,176,101125,1,2
456,296,101814,1,0
336,336,102503,1,2
294,219,103193,6,0,B|240:184|168:200|144:256,1,160,4|2
24,136,104571,2,0,B|78:171|150:155|174:99,1,160,4|2
272,32,105950,5,4
272,32,106294,1,8
272,32,106639,1,2
384,96,107328,1,4
384,96,107672,1,8
384,96,108017,1,2
488,176,108707,6,0,B|440:240,1,80,4|8
384,264,109396,2,0,B|336:264|312:216,1,80,2|8
296,168,110086,1,4
176,128,110775,1,2
56,88,111464,6,0,B|24:120|40:168,1,80,4|10
64,224,112153,2,2,B|96:264|152:272|200:240,1,133.333333333333
248,192,113187,1,8
248,192,113532,1,0
272,64,114221,6,2,B|304:32|352:48,1,80,6|8
400,72,114910,2,2,B|440:104|440:160|416:200,1,133.333333333333
352,248,115944,1,8
352,248,116289,1,0
248,176,116978,6,2,B|96:128,1,160,6|2
24,208,118242,2,2,B|-16:256|8:320,1,106.666666666667,2|10
40,360,119046,1,2
144,288,119735,6,2,B|312:256,1,160,6|2
400,296,120999,2,2,B|445:263|429:199,1,106.666666666667,2|10
392,152,121803,1,2
304,64,122493,5,6
304,64,122837,1,8
304,64,123182,1,2
200,48,123756,2,0,B|136:56|96:144|152:208,1,186.666666666667,2|0
256,256,125250,5,6
256,256,125594,1,8
256,256,125939,1,2
336,192,126514,2,0,B|400:200|440:288|384:352,1,186.666666666667,2|0
272,376,128007,6,4,B|184:360,1,80,4|8
128,344,128696,2,2,B|80:288|112:216,1,133.333333333333
160,152,129730,1,8
160,152,130075,1,2
232,48,130764,5,4
352,88,131453,1,0
472,136,132143,1,4
472,136,132487,2,0,B|440:224,3,80,8|2|2|6
368,184,133866,6,2,B|320:312,1,133.333333333333,10|2
296,368,134785,1,2
192,256,135590,2,0,B|160:344,1,80,6|10
96,264,136278,5,4
96,264,136624,2,2,B|144:136,1,133.333333333333,10|2
163,78,137542,1,2
312,144,139036,5,0
312,144,139380,2,2,B|380:174|436:126,1,133.333333333333,10|2
464,80,140299,1,2
448,232,141103,2,2,B|440:312,1,80,2|10
376,360,141793,5,6
376,360,142138,2,2,B|307:390|251:342,1,133.333333333333,10|2
224,288,143057,1,2
184,144,143861,2,2,B|336:80,1,160,2|4
131,130,155579,6,2,B|175:22|339:18|387:138,1,320,6|2
256,192,157647,1,0
176,304,158336,6,2,B|256:344|336:301,3,160,6|2|2|0
256,192,161094,5,6
256,192,162128,1,2
