osu file format v12

[General]
AudioFilename: .Wars of Roses 1455.mp3
AudioLeadIn: 0
PreviewTime: 13341
Countdown: 0
SampleSet: None
StackLeniency: 0.7
Mode: 3
LetterboxInBreaks: 0
SpecialStyle: 1
WidescreenStoryboard: 1

[Editor]
DistanceSpacing: 1
BeatDivisor: 4
GridSize: 8
TimelineZoom: 1.5

[Metadata]
Title:Wars of Roses, 1455
TitleUnicode:Wars of Roses, 1455
Artist:Lotze
ArtistUnicode:Lotze
Creator:pratama001
Version:Normal
Source:Ez2DJ
Tags:
BeatmapID:395560
BeatmapSetID:161524

[Difficulty]
HPDrainRate:8
CircleSize:7
OverallDifficulty:8
ApproachRate:5
SliderMultiplier:1.4
SliderTickRate:1

[Events]
//Background and Video events
0,0,"The_Wars_of_the_Roses_by_bergundy_black.jpg",0,0
//Break Periods
//Storyboard Layer 0 (Background)
//Storyboard Layer 1 (Fail)
//Storyboard Layer 2 (Pass)
//Storyboard Layer 3 (Foreground)
//Storyboard Sound Samples
//Background Colour Transformations
3,100,163,162,255

[TimingPoints]
3483,428.571428571429,4,3,1,30,1,0
29197,-100,4,3,1,30,0,1
56625,-100,4,3,1,30,0,0
75483,-100,4,3,1,30,0,1
89197,-100,4,3,1,30,0,0
116625,600,4,3,1,30,1,0

[HitObjects]
36,192,3483,5,0,2:2:0:0:
36,192,6054,1,0,2:2:0:0:
329,192,6911,128,0,9483:2:2:0:0:
36,192,8625,1,0,2:2:0:0:
402,192,9483,128,0,12054:2:2:0:0:
36,192,11197,1,0,2:2:0:0:
475,192,12054,128,0,13340:2:2:0:0:
182,192,13340,1,0,2:2:0:0:
402,192,13768,1,0,2:2:0:0:
109,192,13768,1,4,1:1:0:0:
475,192,14411,1,0,2:2:0:0:
256,192,14625,1,0,2:2:0:0:
182,192,14947,1,0,2:2:0:0:
109,192,15268,1,0,2:2:0:0:
402,192,15483,1,0,2:2:0:0:
256,192,15804,1,0,2:2:0:0:
109,192,16125,1,0,2:2:0:0:
182,192,16340,1,0,2:2:0:0:
36,192,16768,1,0,2:2:0:0:
256,192,17197,1,0,2:2:0:0:
182,192,17518,1,0,2:2:0:0:
109,192,17840,1,0,2:2:0:0:
256,192,18054,1,0,2:2:0:0:
329,192,18375,1,0,2:2:0:0:
475,192,18697,1,0,2:2:0:0:
402,192,18911,1,0,2:2:0:0:
182,192,19233,1,0,2:2:0:0:
402,192,19554,1,0,2:2:0:0:
329,192,19768,1,0,2:2:0:0:
182,192,19983,1,0,2:2:0:0:
329,192,20197,1,0,2:2:0:0:
109,192,20411,1,0,2:2:0:0:
329,192,20625,1,0,2:2:0:0:
182,192,20625,1,4,1:1:0:0:
402,192,21268,1,0,2:2:0:0:
256,192,21483,1,0,2:2:0:0:
182,192,21804,1,0,2:2:0:0:
109,192,22125,1,0,2:2:0:0:
256,192,22340,1,0,2:2:0:0:
329,192,22661,1,0,2:2:0:0:
475,192,22983,1,0,2:2:0:0:
182,192,23197,1,0,2:2:0:0:
36,192,23625,1,0,2:2:0:0:
329,192,24054,1,0,2:2:0:0:
182,192,24375,1,0,2:2:0:0:
109,192,24697,1,0,2:2:0:0:
256,192,24911,1,0,2:2:0:0:
402,192,25233,1,0,2:2:0:0:
475,192,25554,1,0,2:2:0:0:
329,192,25768,128,0,26625:2:2:0:0:
182,192,26197,128,0,26625:2:2:0:0:
36,192,26625,1,4,1:1:0:0:
475,192,26625,1,4,1:1:0:0:
109,192,27054,1,2,3:3:0:0:
182,192,27483,1,0,1:1:0:0:
329,192,27911,1,0,1:1:0:0:
36,192,28340,1,4,1:1:0:0:
475,192,28340,1,4,1:1:0:0:
36,192,28768,1,4,1:1:0:0:
475,192,28768,1,4,1:1:0:0:
256,192,29197,1,4,1:1:0:0:
36,192,29197,1,0,1:1:0:0:
475,192,29197,1,4,1:1:0:0:
402,192,29625,1,8,1:1:0:0:
475,192,29625,1,0,1:1:0:0:
36,192,30054,1,0,1:1:0:0:
402,192,30483,1,8,1:1:0:0:
475,192,30483,1,0,1:1:0:0:
475,192,30911,1,0,1:1:0:0:
36,192,31340,1,0,1:1:0:0:
109,192,31340,1,8,1:1:0:0:
475,192,31768,1,0,1:1:0:0:
109,192,32197,1,8,1:1:0:0:
36,192,32197,1,0,1:1:0:0:
36,192,32625,1,0,1:1:0:0:
402,192,33054,1,8,1:1:0:0:
475,192,33054,1,0,1:1:0:0:
109,192,33483,1,0,1:1:0:0:
256,192,33911,1,8,1:1:0:0:
329,192,33911,1,0,1:1:0:0:
475,192,34340,1,0,1:1:0:0:
36,192,34768,1,0,1:1:0:0:
109,192,34768,1,8,1:1:0:0:
402,192,35197,1,0,1:1:0:0:
256,192,35625,1,8,1:1:0:0:
182,192,35625,1,0,1:1:0:0:
36,192,36054,1,0,1:1:0:0:
329,192,36268,1,2,3:3:0:0:
402,192,36483,1,8,1:1:0:0:
475,192,36483,1,0,1:1:0:0:
256,192,36697,1,2,3:3:0:0:
36,192,36911,1,0,1:1:0:0:
329,192,37125,1,2,3:3:0:0:
402,192,37340,1,8,1:1:0:0:
475,192,37340,1,0,1:1:0:0:
256,192,37554,1,2,3:3:0:0:
475,192,37768,1,0,1:1:0:0:
329,192,37768,1,0,2:2:0:0:
182,192,37983,1,2,3:3:0:0:
36,192,38197,1,0,1:1:0:0:
109,192,38197,1,8,1:1:0:0:
256,192,38411,1,2,3:3:0:0:
475,192,38625,1,0,1:1:0:0:
182,192,38840,1,2,3:3:0:0:
36,192,39054,1,0,1:1:0:0:
109,192,39054,1,8,1:1:0:0:
256,192,39268,1,2,3:3:0:0:
36,192,39483,1,0,1:1:0:0:
329,192,39697,1,2,3:3:0:0:
402,192,39911,1,8,1:1:0:0:
475,192,39911,1,0,1:1:0:0:
256,192,40125,1,2,3:3:0:0:
475,192,40340,1,0,1:1:0:0:
182,192,40554,1,2,3:3:0:0:
36,192,40768,1,0,1:1:0:0:
109,192,40768,1,8,1:1:0:0:
256,192,40983,1,2,3:3:0:0:
402,192,41197,1,4,1:1:0:0:
109,192,41197,1,4,1:1:0:0:
475,192,41625,1,4,1:1:0:0:
36,192,41625,1,4,1:1:0:0:
109,192,42054,1,4,1:1:0:0:
402,192,42054,1,4,1:1:0:0:
182,192,42483,1,4,1:1:0:0:
329,192,42483,1,4,1:1:0:0:
36,192,42911,1,0,1:1:0:0:
402,192,42911,1,0,2:2:0:0:
36,192,43340,1,8,1:1:0:0:
256,192,43554,1,0,2:2:0:0:
36,192,43768,1,0,1:1:0:0:
329,192,43768,1,0,2:2:0:0:
36,192,44197,1,8,1:1:0:0:
182,192,44197,1,0,2:2:0:0:
36,192,44625,1,0,1:1:0:0:
256,192,44625,1,0,2:2:0:0:
329,192,44947,1,0,2:2:0:0:
36,192,45054,1,8,1:1:0:0:
402,192,45268,1,0,2:2:0:0:
256,192,45483,1,0,2:2:0:0:
36,192,45483,1,0,1:1:0:0:
36,192,45911,1,8,1:1:0:0:
182,192,45911,1,0,2:2:0:0:
475,192,46340,1,0,1:1:0:0:
256,192,46340,1,0,2:2:0:0:
182,192,46661,1,0,2:2:0:0:
475,192,46768,1,8,1:1:0:0:
109,192,46983,1,0,2:2:0:0:
475,192,47197,1,0,1:1:0:0:
182,192,47197,1,0,2:2:0:0:
256,192,47411,1,0,2:2:0:0:
475,192,47625,1,8,1:1:0:0:
329,192,47625,1,0,2:2:0:0:
402,192,47840,1,0,2:2:0:0:
475,192,48054,1,0,1:1:0:0:
182,192,48054,1,0,2:2:0:0:
36,192,48375,1,0,2:2:0:0:
475,192,48483,1,8,1:1:0:0:
329,192,48697,1,0,2:2:0:0:
475,192,48911,1,0,1:1:0:0:
182,192,48911,1,0,2:2:0:0:
109,192,49125,1,0,2:2:0:0:
475,192,49340,1,8,1:1:0:0:
182,192,49340,1,0,2:2:0:0:
36,192,49768,1,0,1:1:0:0:
402,192,49768,1,0,2:2:0:0:
36,192,50197,1,8,1:1:0:0:
256,192,50411,1,0,2:2:0:0:
36,192,50625,1,0,1:1:0:0:
329,192,50625,1,0,2:2:0:0:
36,192,51054,1,8,1:1:0:0:
182,192,51054,1,0,2:2:0:0:
475,192,51483,1,0,1:1:0:0:
109,192,51483,1,0,2:2:0:0:
182,192,51804,1,0,2:2:0:0:
475,192,51911,1,8,1:1:0:0:
256,192,52125,1,0,2:2:0:0:
475,192,52340,1,0,1:1:0:0:
329,192,52340,1,0,2:2:0:0:
475,192,52768,1,8,1:1:0:0:
402,192,52768,1,0,2:2:0:0:
36,192,53197,1,4,1:1:0:0:
329,192,53197,1,0,2:2:0:0:
256,192,53518,1,0,2:2:0:0:
475,192,53625,1,8,1:1:0:0:
182,192,53840,1,0,2:2:0:0:
36,192,54054,1,4,1:1:0:0:
329,192,54054,1,0,2:2:0:0:
256,192,54375,1,0,2:2:0:0:
475,192,54483,1,8,1:1:0:0:
182,192,54697,1,0,2:2:0:0:
256,192,54804,1,0,2:2:0:0:
36,192,54911,1,4,1:1:0:0:
329,192,54911,1,0,2:2:0:0:
402,192,55233,1,0,2:2:0:0:
36,192,55340,1,4,1:1:0:0:
475,192,55554,1,0,2:2:0:0:
329,192,55768,1,0,1:1:0:0:
182,192,55875,1,0,1:1:0:0:
329,192,55983,1,0,1:1:0:0:
182,192,56090,1,0,1:1:0:0:
329,192,56197,1,0,1:1:0:0:
182,192,56304,1,0,1:1:0:0:
329,192,56411,1,0,1:1:0:0:
182,192,56518,1,0,1:1:0:0:
36,192,56625,1,0,2:2:0:0:
329,192,56625,128,0,59197:2:2:0:0:
36,192,58340,1,0,2:2:0:0:
256,192,59197,128,0,60804:2:2:0:0:
36,192,60054,1,0,2:2:0:0:
182,192,60804,128,0,61768:2:2:0:0:
36,192,61768,1,0,1:1:0:0:
475,192,61768,1,4,1:1:0:0:
109,192,61983,1,0,1:1:0:0:
475,192,62197,1,0,1:1:0:0:
402,192,62411,1,2,3:3:0:0:
329,192,62518,1,2,3:3:0:0:
36,192,62625,1,0,1:1:0:0:
109,192,62840,1,0,1:1:0:0:
475,192,63054,1,0,1:1:0:0:
402,192,63268,1,2,3:3:0:0:
329,192,63375,1,2,3:3:0:0:
475,192,63483,1,0,1:1:0:0:
109,192,63697,1,0,1:1:0:0:
36,192,63911,1,0,1:1:0:0:
402,192,64125,1,2,3:3:0:0:
329,192,64233,1,2,3:3:0:0:
475,192,64340,1,0,1:1:0:0:
109,192,64554,1,0,1:1:0:0:
36,192,64768,1,0,1:1:0:0:
402,192,64983,1,2,3:3:0:0:
329,192,65090,1,2,3:3:0:0:
36,192,65197,1,0,1:1:0:0:
402,192,65411,1,0,1:1:0:0:
475,192,65625,1,0,1:1:0:0:
109,192,65840,1,2,3:3:0:0:
182,192,65947,1,2,3:3:0:0:
36,192,66054,1,0,1:1:0:0:
402,192,66268,1,0,1:1:0:0:
475,192,66483,1,0,1:1:0:0:
109,192,66697,1,2,3:3:0:0:
182,192,66804,1,2,3:3:0:0:
475,192,66911,1,0,1:1:0:0:
402,192,67125,1,0,1:1:0:0:
36,192,67340,1,0,1:1:0:0:
109,192,67554,1,2,3:3:0:0:
182,192,67661,1,2,3:3:0:0:
475,192,67768,1,0,1:1:0:0:
402,192,67983,1,0,1:1:0:0:
36,192,68197,1,0,1:1:0:0:
109,192,68411,1,0,2:2:0:0:
182,192,68518,1,0,2:2:0:0:
36,192,68625,1,4,1:1:0:0:
475,192,68625,1,4,1:1:0:0:
109,192,68840,1,0,1:1:0:0:
475,192,69054,1,8,1:1:0:0:
182,192,69268,1,2,3:3:0:0:
329,192,69375,1,2,3:3:0:0:
36,192,69483,1,0,1:1:0:0:
109,192,69697,1,0,1:1:0:0:
475,192,69911,1,8,1:1:0:0:
109,192,70125,1,2,3:3:0:0:
402,192,70233,1,2,3:3:0:0:
475,192,70340,1,0,2:2:0:0:
402,192,70554,1,0,1:1:0:0:
36,192,70768,1,8,1:1:0:0:
329,192,70983,1,2,3:3:0:0:
256,192,71090,1,2,3:3:0:0:
475,192,71197,1,0,1:1:0:0:
402,192,71411,1,0,1:1:0:0:
36,192,71625,1,8,1:1:0:0:
402,192,71840,1,2,3:3:0:0:
329,192,71947,1,2,3:3:0:0:
36,192,72054,1,0,1:1:0:0:
109,192,72268,1,0,1:1:0:0:
475,192,72483,1,8,1:1:0:0:
182,192,72697,1,2,3:3:0:0:
329,192,72804,1,2,3:3:0:0:
475,192,72911,1,0,1:1:0:0:
402,192,73125,1,0,1:1:0:0:
36,192,73340,1,8,1:1:0:0:
182,192,73554,1,2,3:3:0:0:
402,192,73661,1,2,3:3:0:0:
475,192,73768,1,0,1:1:0:0:
182,192,73983,1,0,1:1:0:0:
475,192,74197,1,0,1:1:0:0:
36,192,74197,1,8,1:1:0:0:
402,192,74411,1,0,1:1:0:0:
36,192,74625,1,0,1:1:0:0:
182,192,74840,1,0,1:1:0:0:
475,192,75054,1,8,1:1:0:0:
36,192,75054,1,0,1:1:0:0:
109,192,75268,1,0,1:1:0:0:
402,192,75483,1,0,2:2:0:0:
475,192,75483,1,4,1:1:0:0:
329,192,75911,1,0,2:2:0:0:
182,192,76125,1,0,2:2:0:0:
109,192,76340,1,0,2:2:0:0:
182,192,76554,1,0,2:2:0:0:
256,192,76768,1,0,2:2:0:0:
402,192,76983,1,0,2:2:0:0:
36,192,77197,1,0,2:2:0:0:
182,192,77411,1,0,2:2:0:0:
329,192,77625,1,0,2:2:0:0:
475,192,77840,1,0,2:2:0:0:
402,192,78054,1,0,2:2:0:0:
329,192,78268,1,0,2:2:0:0:
256,192,78483,1,0,2:2:0:0:
109,192,78697,1,0,2:2:0:0:
402,192,78911,1,0,2:2:0:0:
329,192,79340,1,0,2:2:0:0:
109,192,79554,1,0,2:2:0:0:
36,192,79768,1,0,2:2:0:0:
182,192,79983,1,0,2:2:0:0:
329,192,80197,1,0,2:2:0:0:
475,192,80411,1,0,2:2:0:0:
182,192,80625,1,0,2:2:0:0:
36,192,80840,1,0,2:2:0:0:
256,192,81054,1,0,2:2:0:0:
402,192,81268,1,0,2:2:0:0:
475,192,81483,1,0,2:2:0:0:
402,192,81697,1,0,2:2:0:0:
256,192,81911,1,0,2:2:0:0:
109,192,82125,1,0,2:2:0:0:
36,192,82340,1,0,2:2:0:0:
475,192,82340,1,4,1:1:0:0:
182,192,82768,1,0,2:2:0:0:
329,192,82983,1,0,2:2:0:0:
402,192,83197,1,0,2:2:0:0:
256,192,83411,1,0,2:2:0:0:
182,192,83625,1,0,2:2:0:0:
36,192,83840,1,0,2:2:0:0:
109,192,84054,1,0,2:2:0:0:
256,192,84268,1,0,2:2:0:0:
329,192,84483,1,0,2:2:0:0:
402,192,84697,1,0,2:2:0:0:
329,192,84911,1,0,2:2:0:0:
182,192,85125,1,0,2:2:0:0:
109,192,85340,1,0,2:2:0:0:
36,192,85554,1,0,2:2:0:0:
109,192,85768,1,0,2:2:0:0:
182,192,86197,1,0,2:2:0:0:
329,192,86411,1,0,2:2:0:0:
402,192,86625,1,0,2:2:0:0:
329,192,86840,1,0,2:2:0:0:
256,192,87054,1,0,2:2:0:0:
109,192,87268,1,0,2:2:0:0:
182,192,87483,1,0,2:2:0:0:
109,192,87697,1,0,2:2:0:0:
256,192,87911,1,0,2:2:0:0:
402,192,88125,1,0,2:2:0:0:
475,192,88340,1,0,2:2:0:0:
402,192,88554,1,0,2:2:0:0:
256,192,88768,1,0,2:2:0:0:
182,192,88983,1,0,2:2:0:0:
475,192,89197,1,0,2:2:0:0:
36,192,89197,1,4,1:1:0:0:
402,192,89411,1,0,2:2:0:0:
329,192,89625,1,0,2:2:0:0:
256,192,89840,1,0,2:2:0:0:
36,192,90054,1,0,2:2:0:0:
109,192,90268,1,0,2:2:0:0:
182,192,90483,1,0,2:2:0:0:
256,192,90697,1,0,2:2:0:0:
329,192,90911,1,0,2:2:0:0:
256,192,91125,1,0,2:2:0:0:
182,192,91340,1,0,2:2:0:0:
109,192,91554,1,0,2:2:0:0:
36,192,91768,1,0,2:2:0:0:
329,192,91983,1,0,2:2:0:0:
182,192,92197,1,0,2:2:0:0:
475,192,92411,1,0,2:2:0:0:
402,192,92625,1,0,2:2:0:0:
329,192,92840,1,0,2:2:0:0:
256,192,93054,1,0,2:2:0:0:
182,192,93268,1,0,2:2:0:0:
36,192,93483,1,0,2:2:0:0:
182,192,93697,1,0,2:2:0:0:
256,192,93911,1,0,2:2:0:0:
402,192,94125,1,0,2:2:0:0:
329,192,94340,1,0,2:2:0:0:
256,192,94554,1,0,2:2:0:0:
182,192,94768,1,0,2:2:0:0:
109,192,94983,1,0,2:2:0:0:
402,192,95197,1,0,2:2:0:0:
329,192,95411,1,0,2:2:0:0:
182,192,95625,1,0,2:2:0:0:
36,192,95840,1,0,2:2:0:0:
402,192,96054,1,0,2:2:0:0:
475,192,96054,1,4,1:1:0:0:
329,192,96268,1,0,2:2:0:0:
109,192,96483,1,0,2:2:0:0:
256,192,96697,1,0,2:2:0:0:
182,192,96911,128,0,97340:2:2:0:0:
329,192,97125,128,0,97340:2:2:0:0:
36,192,97340,1,0,2:2:0:0:
109,192,97447,1,0,2:2:0:0:
402,192,97554,1,0,2:2:0:0:
475,192,97661,1,0,2:2:0:0:
329,192,97768,1,0,2:2:0:0:
256,192,97983,1,0,2:2:0:0:
109,192,98197,1,0,2:2:0:0:
182,192,98411,1,0,2:2:0:0:
109,192,98625,128,0,99054:2:2:0:0:
402,192,98840,128,0,99054:2:2:0:0:
182,192,99054,1,0,2:2:0:0:
256,192,99161,1,0,2:2:0:0:
402,192,99268,1,0,2:2:0:0:
475,192,99375,1,0,2:2:0:0:
402,192,99483,1,0,2:2:0:0:
329,192,99697,1,0,2:2:0:0:
109,192,99911,1,0,2:2:0:0:
182,192,100125,1,0,2:2:0:0:
182,192,100340,128,0,100768:2:2:0:0:
402,192,100554,128,0,100768:2:2:0:0:
109,192,100768,1,0,2:2:0:0:
256,192,100875,1,0,2:2:0:0:
329,192,100983,1,0,2:2:0:0:
475,192,101090,1,0,2:2:0:0:
402,192,101197,1,0,2:2:0:0:
329,192,101411,1,0,2:2:0:0:
182,192,101625,1,0,2:2:0:0:
36,192,101840,1,0,2:2:0:0:
109,192,102054,128,0,102483:2:2:0:0:
329,192,102268,128,0,102483:2:2:0:0:
36,192,102483,1,0,2:2:0:0:
182,192,102590,1,0,2:2:0:0:
256,192,102697,1,0,2:2:0:0:
329,192,102804,1,0,2:2:0:0:
402,192,102911,128,0,104625:2:2:0:0:
109,192,102911,1,4,1:1:0:0:
329,192,104625,128,0,106340:2:2:0:0:
256,192,106340,128,0,107197:2:2:0:0:
182,192,107197,128,0,108054:2:2:0:0:
475,192,108054,1,0,2:2:0:0:
36,192,108054,1,0,2:2:0:0:
329,192,108268,1,0,2:2:0:0:
402,192,108483,1,0,2:2:0:0:
475,192,108697,1,0,2:2:0:0:
36,192,108911,1,0,2:2:0:0:
109,192,109125,1,0,2:2:0:0:
182,192,109340,1,0,2:2:0:0:
402,192,109554,1,0,2:2:0:0:
36,192,109768,1,0,2:2:0:0:
475,192,109768,128,4,111483:1:1:0:0:
109,192,111483,1,0,2:2:0:0:
182,192,111697,1,0,2:2:0:0:
109,192,111911,1,0,2:2:0:0:
182,192,112125,1,0,2:2:0:0:
329,192,112340,1,0,2:2:0:0:
402,192,112554,1,0,2:2:0:0:
329,192,112768,1,0,2:2:0:0:
402,192,112983,1,0,2:2:0:0:
36,192,113197,1,0,2:2:0:0:
475,192,113197,1,0,2:2:0:0:
182,192,113411,1,0,2:2:0:0:
109,192,113625,1,0,2:2:0:0:
36,192,113840,1,0,2:2:0:0:
475,192,114054,1,0,2:2:0:0:
402,192,114268,1,0,2:2:0:0:
329,192,114483,1,0,2:2:0:0:
109,192,114697,1,0,2:2:0:0:
36,192,114911,1,4,1:1:0:0:
256,192,114911,128,0,116625:2:2:0:0:
475,192,114911,1,4,1:1:0:0:
36,192,116625,1,4,1:1:0:0:
475,192,116625,1,4,1:1:0:0:
36,192,117825,1,0,2:2:0:0:
109,192,120225,1,0,2:2:0:0:
329,192,121425,1,0,2:2:0:0:
402,192,122325,1,0,2:2:0:0:
256,192,122625,1,0,2:2:0:0:
182,192,123225,1,0,2:2:0:0:
109,192,123525,1,0,2:2:0:0:
256,192,123825,1,0,2:2:0:0:
182,192,124425,1,0,2:2:0:0:
109,192,124725,1,0,2:2:0:0:
329,192,125025,1,0,2:2:0:0:
109,192,125625,1,0,2:2:0:0:
329,192,126225,1,0,2:2:0:0:
256,192,126825,1,0,2:2:0:0:
182,192,127125,1,0,2:2:0:0:
256,192,127425,1,0,2:2:0:0:
329,192,128025,1,0,2:2:0:0:
475,192,128325,1,0,2:2:0:0:
402,192,128625,1,0,2:2:0:0:
109,192,129225,1,0,2:2:0:0:
256,192,129525,1,0,2:2:0:0:
182,192,129825,1,0,2:2:0:0:
256,192,129975,1,0,2:2:0:0:
182,192,130125,1,0,2:2:0:0:
109,192,130275,1,0,2:2:0:0:
182,192,130425,1,0,2:2:0:0:
109,192,130725,1,0,2:2:0:0:
329,192,131025,1,0,2:2:0:0:
402,192,131925,1,0,2:2:0:0:
256,192,132225,1,0,2:2:0:0:
182,192,132825,1,0,2:2:0:0:
109,192,133125,1,0,2:2:0:0:
182,192,133425,1,0,2:2:0:0:
256,192,134025,1,0,2:2:0:0:
402,192,134325,1,0,2:2:0:0:
329,192,134625,1,0,2:2:0:0:
256,192,135225,1,0,2:2:0:0:
329,192,135825,1,0,2:2:0:0:
256,192,136425,1,0,2:2:0:0:
182,192,136725,1,0,2:2:0:0:
256,192,137025,1,0,2:2:0:0:
475,192,137625,1,0,2:2:0:0:
402,192,138225,1,0,2:2:0:0:
329,192,138375,1,0,2:2:0:0:
109,192,138525,1,0,2:2:0:0:
36,192,138675,1,0,2:2:0:0:
475,192,138825,1,0,2:2:0:0:
402,192,138975,1,0,2:2:0:0:
182,192,139125,1,0,2:2:0:0:
109,192,139275,1,0,2:2:0:0:
36,192,139425,128,0,143025:2:2:0:0:
