osu file format v12

[General]
AudioFilename: .Wars of Roses 1455.mp3
AudioLeadIn: 0
PreviewTime: 13341
Countdown: 0
SampleSet: None
StackLeniency: 0.7
Mode: 3
LetterboxInBreaks: 0
SpecialStyle: 1
WidescreenStoryboard: 1

[Editor]
DistanceSpacing: 1
BeatDivisor: 4
GridSize: 16
TimelineZoom: 1.5

[Metadata]
Title:Wars of Roses, 1455
TitleUnicode:Wars of Roses, 1455
Artist:Lotze
ArtistUnicode:Lotze
Creator:pratama001
Version:Hard
Source:Ez2DJ
Tags:
BeatmapID:395377
BeatmapSetID:161524

[Difficulty]
HPDrainRate:7
CircleSize:7
OverallDifficulty:7
ApproachRate:5
SliderMultiplier:1.4
SliderTickRate:1

[Events]
//Background and Video events
0,0,"The_Wars_of_the_Roses_by_bergundy_black.jpg",0,0
//Break Periods
//Storyboard Layer 0 (Background)
//Storyboard Layer 1 (Fail)
//Storyboard Layer 2 (Pass)
//Storyboard Layer 3 (Foreground)
//Storyboard Sound Samples
//Background Colour Transformations
3,100,163,162,255

[TimingPoints]
3483,428.571428571429,4,3,1,40,1,0
12484,-80,4,3,1,40,0,0
13340,-40,4,3,1,40,0,0
13447,-333.333333333333,4,3,1,40,0,0
13768,-100,4,3,1,40,0,0
29197,-100,4,3,1,40,0,1
56625,-100,4,3,1,40,0,0
75483,-100,4,3,1,40,0,1
89197,-100,4,3,1,40,0,0
116625,600,4,3,1,40,1,0
120225,-133.333333333333,4,3,1,40,0,0

[HitObjects]
36,192,3483,5,0,2:2:0:0:
36,192,6054,1,0,2:2:0:0:
329,192,6911,128,0,13340:2:2:0:0:
36,192,8625,1,0,2:2:0:0:
402,192,9483,128,0,13340:2:2:0:0:
36,192,11197,1,0,2:2:0:0:
475,192,12054,128,0,13340:2:2:0:0:
256,192,13340,1,0,2:2:0:0:
36,192,13768,1,2,2:2:0:0:
402,192,13768,1,0,2:2:0:0:
36,192,14197,1,2,2:2:0:0:
475,192,14411,1,0,2:2:0:0:
402,192,14625,1,0,2:2:0:0:
109,192,14625,1,2,2:2:0:0:
329,192,14947,1,0,2:2:0:0:
109,192,15054,1,2,2:2:0:0:
256,192,15268,1,0,2:2:0:0:
402,192,15483,1,0,2:2:0:0:
182,192,15483,1,2,2:2:0:0:
329,192,15804,1,0,2:2:0:0:
182,192,15911,1,2,2:2:0:0:
256,192,16125,1,0,2:2:0:0:
329,192,16340,1,0,2:2:0:0:
109,192,16340,1,2,2:2:0:0:
256,192,16768,1,0,2:2:0:0:
109,192,16768,1,2,2:2:0:0:
182,192,17197,1,0,2:2:0:0:
475,192,17197,1,2,2:2:0:0:
256,192,17518,1,0,2:2:0:0:
475,192,17625,1,2,2:2:0:0:
329,192,17840,1,0,2:2:0:0:
256,192,18054,1,0,2:2:0:0:
402,192,18054,1,2,2:2:0:0:
109,192,18375,1,0,2:2:0:0:
402,192,18483,1,2,2:2:0:0:
36,192,18697,1,0,2:2:0:0:
109,192,18911,1,0,2:2:0:0:
475,192,18911,1,2,2:2:0:0:
329,192,19233,1,0,2:2:0:0:
475,192,19340,1,2,2:2:0:0:
182,192,19554,1,0,2:2:0:0:
256,192,19768,1,0,2:2:0:0:
475,192,19768,1,2,2:2:0:0:
329,192,19875,1,0,2:2:0:0:
256,192,19983,1,0,2:2:0:0:
182,192,20090,1,0,2:2:0:0:
256,192,20197,1,0,2:2:0:0:
475,192,20197,1,2,2:2:0:0:
109,192,20411,1,0,2:2:0:0:
329,192,20625,1,0,2:2:0:0:
36,192,20625,1,2,2:2:0:0:
36,192,21054,1,2,2:2:0:0:
402,192,21268,1,0,2:2:0:0:
256,192,21483,1,0,2:2:0:0:
109,192,21483,1,2,2:2:0:0:
182,192,21804,1,0,2:2:0:0:
109,192,21911,1,2,2:2:0:0:
256,192,22125,1,0,2:2:0:0:
329,192,22340,1,0,2:2:0:0:
182,192,22340,1,2,2:2:0:0:
402,192,22661,1,0,2:2:0:0:
182,192,22768,1,2,2:2:0:0:
475,192,22983,1,0,2:2:0:0:
402,192,23197,1,0,2:2:0:0:
109,192,23197,1,2,2:2:0:0:
329,192,23625,1,0,2:2:0:0:
109,192,23625,1,2,2:2:0:0:
36,192,24054,1,0,2:2:0:0:
475,192,24054,1,2,2:2:0:0:
109,192,24375,1,0,2:2:0:0:
475,192,24483,1,2,2:2:0:0:
182,192,24697,1,0,2:2:0:0:
109,192,24911,1,0,2:2:0:0:
402,192,24911,1,2,2:2:0:0:
256,192,25233,1,0,2:2:0:0:
402,192,25340,1,2,2:2:0:0:
182,192,25554,1,0,2:2:0:0:
402,192,25768,1,0,2:2:0:0:
475,192,25768,1,2,2:2:0:0:
329,192,25875,1,0,2:2:0:0:
256,192,25983,1,0,2:2:0:0:
182,192,26090,1,0,2:2:0:0:
329,192,26197,1,0,2:2:0:0:
475,192,26197,1,2,2:2:0:0:
256,192,26304,1,0,2:2:0:0:
182,192,26411,1,0,2:2:0:0:
109,192,26518,1,0,2:2:0:0:
256,192,26625,128,0,27483:2:2:0:0:
36,192,26625,1,4,1:1:0:0:
475,192,26625,1,4,1:1:0:0:
109,192,27483,1,0,1:1:0:0:
329,192,27483,128,0,27697:2:2:0:0:
402,192,27697,128,0,27911:2:2:0:0:
329,192,27911,128,0,28125:2:2:0:0:
36,192,27911,1,0,1:1:0:0:
402,192,28125,128,0,28340:2:2:0:0:
329,192,28340,128,0,28554:2:2:0:0:
36,192,28340,1,0,1:1:0:0:
109,192,28340,1,0,1:1:0:0:
402,192,28554,128,0,28768:2:2:0:0:
329,192,28768,128,0,29197:2:2:0:0:
36,192,28768,1,0,1:1:0:0:
109,192,28768,1,0,1:1:0:0:
256,192,29197,1,0,2:2:0:0:
36,192,29197,1,4,1:1:0:0:
475,192,29197,1,4,1:1:0:0:
36,192,29625,1,0,1:1:0:0:
475,192,29840,1,0,2:2:0:0:
329,192,30054,1,0,2:2:0:0:
36,192,30054,1,0,1:1:0:0:
256,192,30375,1,0,2:2:0:0:
36,192,30483,1,0,1:1:0:0:
182,192,30697,1,0,2:2:0:0:
329,192,30911,1,0,2:2:0:0:
475,192,30911,1,0,1:1:0:0:
256,192,31233,1,0,2:2:0:0:
475,192,31340,1,0,1:1:0:0:
182,192,31554,1,0,2:2:0:0:
256,192,31768,1,0,2:2:0:0:
475,192,31768,1,0,1:1:0:0:
109,192,32197,1,0,2:2:0:0:
475,192,32197,1,0,1:1:0:0:
329,192,32625,1,0,2:2:0:0:
36,192,32625,1,0,1:1:0:0:
256,192,32947,1,0,2:2:0:0:
36,192,33054,1,0,1:1:0:0:
182,192,33268,1,0,2:2:0:0:
256,192,33483,1,0,2:2:0:0:
36,192,33483,1,0,1:1:0:0:
329,192,33804,1,0,2:2:0:0:
36,192,33911,1,0,1:1:0:0:
402,192,34125,1,0,2:2:0:0:
256,192,34340,1,0,2:2:0:0:
475,192,34340,1,0,1:1:0:0:
182,192,34661,1,0,2:2:0:0:
475,192,34768,1,0,1:1:0:0:
329,192,34983,1,0,2:2:0:0:
256,192,35197,1,0,2:2:0:0:
475,192,35197,1,0,1:1:0:0:
329,192,35304,1,0,2:2:0:0:
256,192,35411,1,0,2:2:0:0:
182,192,35518,1,0,2:2:0:0:
256,192,35625,1,0,2:2:0:0:
475,192,35625,1,0,1:1:0:0:
109,192,35840,1,0,2:2:0:0:
36,192,36054,1,4,1:1:0:0:
475,192,36054,1,4,1:1:0:0:
329,192,36054,1,0,2:2:0:0:
182,192,36375,1,2,3:3:0:0:
36,192,36483,1,0,1:1:0:0:
402,192,36697,1,0,2:2:0:0:
329,192,36911,1,0,2:2:0:0:
36,192,36911,1,0,1:1:0:0:
256,192,37233,1,0,2:2:0:0:
36,192,37340,1,0,1:1:0:0:
109,192,37554,1,0,2:2:0:0:
182,192,37768,1,0,2:2:0:0:
475,192,37768,1,0,1:1:0:0:
256,192,38090,1,0,2:2:0:0:
475,192,38197,1,0,1:1:0:0:
402,192,38411,1,0,2:2:0:0:
329,192,38625,1,0,2:2:0:0:
475,192,38625,1,0,1:1:0:0:
256,192,39054,1,0,2:2:0:0:
475,192,39054,1,0,1:1:0:0:
402,192,39483,1,0,2:2:0:0:
36,192,39483,1,0,1:1:0:0:
329,192,39804,1,0,2:2:0:0:
36,192,39911,1,0,1:1:0:0:
256,192,40125,1,0,2:2:0:0:
402,192,40340,1,0,2:2:0:0:
36,192,40340,1,0,1:1:0:0:
256,192,40554,1,0,2:2:0:0:
182,192,40768,1,0,2:2:0:0:
36,192,40768,1,0,1:1:0:0:
109,192,40983,1,0,2:2:0:0:
402,192,41197,1,0,2:2:0:0:
475,192,41197,1,4,1:1:0:0:
36,192,41197,1,4,1:1:0:0:
182,192,41411,1,0,2:2:0:0:
402,192,41625,1,0,2:2:0:0:
475,192,41625,1,4,1:1:0:0:
36,192,41625,1,4,1:1:0:0:
182,192,41840,1,0,2:2:0:0:
329,192,42054,1,0,2:2:0:0:
36,192,42054,1,4,1:1:0:0:
475,192,42054,1,4,1:1:0:0:
256,192,42268,1,0,2:2:0:0:
182,192,42375,1,0,2:2:0:0:
256,192,42483,1,0,2:2:0:0:
36,192,42483,1,4,1:1:0:0:
475,192,42483,1,4,1:1:0:0:
256,192,42697,1,0,2:2:0:0:
329,192,42804,1,0,2:2:0:0:
402,192,42911,128,0,43554:2:2:0:0:
36,192,42911,1,0,1:1:0:0:
182,192,43125,1,2,3:3:0:0:
475,192,43340,1,8,1:1:0:0:
329,192,43554,1,0,2:2:0:0:
256,192,43661,1,0,2:2:0:0:
329,192,43768,128,0,44197:2:2:0:0:
36,192,43768,1,0,1:1:0:0:
182,192,43983,1,2,3:3:0:0:
109,192,44197,128,0,44625:2:2:0:0:
475,192,44197,1,8,1:1:0:0:
475,192,44625,1,0,1:1:0:0:
256,192,44625,128,0,44947:2:2:0:0:
182,192,44840,1,2,3:3:0:0:
329,192,44947,128,0,45268:2:2:0:0:
36,192,45054,1,8,1:1:0:0:
402,192,45268,128,0,45483:2:2:0:0:
256,192,45483,128,0,45911:2:2:0:0:
475,192,45483,1,0,1:1:0:0:
109,192,45697,1,2,3:3:0:0:
182,192,45911,128,0,46340:2:2:0:0:
36,192,45911,1,8,1:1:0:0:
256,192,46340,128,0,46661:2:2:0:0:
36,192,46340,1,0,1:1:0:0:
329,192,46554,1,2,3:3:0:0:
182,192,46661,128,0,46983:2:2:0:0:
475,192,46768,1,8,1:1:0:0:
109,192,46983,128,0,47197:2:2:0:0:
182,192,47197,128,0,47411:2:2:0:0:
36,192,47197,1,0,1:1:0:0:
256,192,47411,128,0,47625:2:2:0:0:
402,192,47411,1,2,3:3:0:0:
329,192,47625,128,0,47840:2:2:0:0:
475,192,47625,1,8,1:1:0:0:
402,192,47840,128,0,48054:2:2:0:0:
329,192,48054,128,0,48375:2:2:0:0:
475,192,48054,1,0,1:1:0:0:
109,192,48268,1,2,3:3:0:0:
182,192,48375,128,0,48697:2:2:0:0:
36,192,48483,1,8,1:1:0:0:
329,192,48697,128,0,48911:2:2:0:0:
475,192,48911,1,0,1:1:0:0:
256,192,48911,1,0,2:2:0:0:
329,192,49018,1,0,2:2:0:0:
256,192,49125,1,0,2:2:0:0:
182,192,49233,1,0,2:2:0:0:
256,192,49340,128,0,49768:2:2:0:0:
36,192,49340,1,8,1:1:0:0:
329,192,49554,1,2,3:3:0:0:
36,192,49768,1,0,1:1:0:0:
402,192,49768,128,0,50411:2:2:0:0:
182,192,49983,1,2,3:3:0:0:
475,192,50197,1,8,1:1:0:0:
329,192,50411,1,0,2:2:0:0:
256,192,50518,1,0,2:2:0:0:
329,192,50625,128,0,51054:2:2:0:0:
36,192,50625,1,0,1:1:0:0:
109,192,50840,1,2,3:3:0:0:
402,192,50947,1,2,3:3:0:0:
182,192,51054,128,0,51483:2:2:0:0:
475,192,51054,1,8,1:1:0:0:
109,192,51483,128,0,51804:2:2:0:0:
475,192,51483,1,0,1:1:0:0:
402,192,51697,1,2,3:3:0:0:
182,192,51804,128,0,52125:2:2:0:0:
36,192,51911,1,8,1:1:0:0:
256,192,52125,128,0,52340:2:2:0:0:
329,192,52340,128,0,52768:2:2:0:0:
475,192,52340,1,0,1:1:0:0:
182,192,52554,1,2,3:3:0:0:
402,192,52768,128,0,53197:2:2:0:0:
36,192,52768,1,8,1:1:0:0:
329,192,53197,128,0,53518:2:2:0:0:
36,192,53197,1,0,1:1:0:0:
475,192,53197,1,0,1:1:0:0:
182,192,53411,1,2,3:3:0:0:
256,192,53518,128,0,53840:2:2:0:0:
475,192,53625,1,8,1:1:0:0:
182,192,53840,128,0,54054:2:2:0:0:
329,192,54054,128,0,54375:2:2:0:0:
36,192,54054,1,4,1:1:0:0:
475,192,54054,1,4,1:1:0:0:
109,192,54268,1,2,3:3:0:0:
256,192,54375,128,0,54697:2:2:0:0:
36,192,54483,1,8,1:1:0:0:
109,192,54697,1,0,2:2:0:0:
182,192,54804,1,0,2:2:0:0:
256,192,54911,128,0,55233:2:2:0:0:
36,192,54911,1,4,1:1:0:0:
475,192,54911,1,4,1:1:0:0:
182,192,55233,128,0,55554:2:2:0:0:
475,192,55340,1,4,1:1:0:0:
36,192,55340,1,4,1:1:0:0:
329,192,55554,128,0,55768:2:2:0:0:
36,192,55768,1,4,1:1:0:0:
475,192,55768,1,4,1:1:0:0:
402,192,55768,128,0,56625:2:2:0:0:
182,192,55875,1,0,1:1:0:0:
329,192,55983,1,0,1:1:0:0:
182,192,56090,1,0,1:1:0:0:
329,192,56197,1,0,1:1:0:0:
182,192,56304,1,0,1:1:0:0:
329,192,56411,1,0,1:1:0:0:
182,192,56518,1,0,1:1:0:0:
36,192,56625,1,0,2:2:0:0:
329,192,56625,128,0,61768:2:2:0:0:
36,192,58340,1,0,2:2:0:0:
402,192,59197,128,0,61768:2:2:0:0:
36,192,60054,1,0,2:2:0:0:
475,192,60804,128,0,61768:2:2:0:0:
36,192,61768,1,0,1:1:0:0:
256,192,61768,128,0,63483:2:2:0:0:
109,192,61983,1,2,3:3:0:0:
475,192,62197,1,8,1:1:0:0:
402,192,62411,1,2,3:3:0:0:
36,192,62625,1,0,1:1:0:0:
109,192,62840,1,2,3:3:0:0:
475,192,63054,1,8,1:1:0:0:
402,192,63268,1,2,3:3:0:0:
182,192,63483,128,0,65197:2:2:0:0:
475,192,63483,1,0,1:1:0:0:
109,192,63697,1,2,3:3:0:0:
36,192,63911,1,8,1:1:0:0:
402,192,64125,1,2,3:3:0:0:
475,192,64340,1,0,1:1:0:0:
109,192,64554,1,2,3:3:0:0:
36,192,64768,1,8,1:1:0:0:
402,192,64983,1,2,3:3:0:0:
256,192,65197,128,0,66911:2:2:0:0:
36,192,65197,1,0,1:1:0:0:
402,192,65411,1,2,3:3:0:0:
475,192,65625,1,8,1:1:0:0:
109,192,65840,1,2,3:3:0:0:
36,192,66054,1,0,1:1:0:0:
402,192,66268,1,2,3:3:0:0:
475,192,66483,1,8,1:1:0:0:
109,192,66697,1,2,3:3:0:0:
182,192,66911,128,0,68625:2:2:0:0:
475,192,66911,1,0,1:1:0:0:
402,192,67125,1,2,3:3:0:0:
36,192,67340,1,8,1:1:0:0:
109,192,67554,1,2,3:3:0:0:
475,192,67768,1,0,1:1:0:0:
402,192,67983,1,2,3:3:0:0:
36,192,68197,1,8,1:1:0:0:
109,192,68411,1,2,3:3:0:0:
256,192,68625,128,0,70340:2:2:0:0:
36,192,68625,1,0,1:1:0:0:
475,192,68625,1,0,1:1:0:0:
109,192,68840,1,2,3:3:0:0:
402,192,69054,1,8,1:1:0:0:
475,192,69054,1,8,1:1:0:0:
182,192,69268,1,2,3:3:0:0:
329,192,69375,1,2,3:3:0:0:
36,192,69483,1,0,1:1:0:0:
109,192,69697,1,2,3:3:0:0:
475,192,69911,1,8,1:1:0:0:
402,192,69911,1,8,1:1:0:0:
109,192,70125,1,2,3:3:0:0:
329,192,70233,1,2,3:3:0:0:
182,192,70340,128,0,72054:2:2:0:0:
475,192,70340,1,0,1:1:0:0:
402,192,70554,1,2,3:3:0:0:
36,192,70768,1,8,1:1:0:0:
109,192,70768,1,8,1:1:0:0:
329,192,70983,1,2,3:3:0:0:
256,192,71090,1,2,3:3:0:0:
475,192,71197,1,0,1:1:0:0:
402,192,71411,1,2,3:3:0:0:
36,192,71625,1,8,1:1:0:0:
109,192,71625,1,8,1:1:0:0:
402,192,71840,1,2,3:3:0:0:
329,192,71947,1,2,3:3:0:0:
256,192,72054,128,0,73768:2:2:0:0:
36,192,72054,1,0,1:1:0:0:
109,192,72268,1,2,3:3:0:0:
475,192,72483,1,8,1:1:0:0:
402,192,72483,1,8,1:1:0:0:
182,192,72697,1,2,3:3:0:0:
329,192,72804,1,2,3:3:0:0:
475,192,72911,1,0,1:1:0:0:
402,192,73125,1,2,3:3:0:0:
36,192,73340,1,8,1:1:0:0:
109,192,73340,1,8,1:1:0:0:
182,192,73554,1,2,3:3:0:0:
402,192,73661,1,2,3:3:0:0:
329,192,73768,128,0,75483:2:2:0:0:
475,192,73768,1,0,1:1:0:0:
182,192,73983,1,2,3:3:0:0:
36,192,74197,1,8,1:1:0:0:
109,192,74197,1,8,1:1:0:0:
402,192,74411,1,2,3:3:0:0:
256,192,74518,1,2,3:3:0:0:
475,192,74625,1,0,1:1:0:0:
182,192,74840,1,2,3:3:0:0:
36,192,75054,1,8,1:1:0:0:
109,192,75054,1,8,1:1:0:0:
182,192,75268,1,2,3:3:0:0:
256,192,75375,1,2,3:3:0:0:
36,192,75483,1,4,1:1:0:0:
402,192,75483,1,0,2:2:0:0:
475,192,75483,1,4,1:1:0:0:
329,192,75911,1,0,2:2:0:0:
475,192,75911,1,8,1:1:0:0:
256,192,76018,1,0,2:2:0:0:
182,192,76125,1,0,2:2:0:0:
109,192,76233,1,0,2:2:0:0:
182,192,76340,1,0,2:2:0:0:
36,192,76340,1,0,1:1:0:0:
256,192,76554,1,0,2:2:0:0:
329,192,76768,1,0,2:2:0:0:
475,192,76768,1,8,1:1:0:0:
402,192,76983,1,0,2:2:0:0:
475,192,77197,1,0,1:1:0:0:
182,192,77197,1,0,2:2:0:0:
109,192,77304,1,0,2:2:0:0:
182,192,77411,1,0,2:2:0:0:
256,192,77518,1,0,2:2:0:0:
36,192,77625,1,8,1:1:0:0:
329,192,77625,1,0,2:2:0:0:
182,192,77733,1,0,2:2:0:0:
256,192,77840,1,0,2:2:0:0:
329,192,77947,1,0,2:2:0:0:
475,192,78054,1,0,1:1:0:0:
402,192,78054,1,0,2:2:0:0:
329,192,78161,1,0,2:2:0:0:
182,192,78268,1,0,2:2:0:0:
109,192,78375,1,0,2:2:0:0:
36,192,78483,1,8,1:1:0:0:
329,192,78483,1,0,2:2:0:0:
256,192,78590,1,0,2:2:0:0:
182,192,78697,1,0,2:2:0:0:
109,192,78804,1,0,2:2:0:0:
36,192,78911,1,0,1:1:0:0:
402,192,78911,1,0,2:2:0:0:
475,192,79340,1,8,1:1:0:0:
329,192,79340,1,0,2:2:0:0:
256,192,79447,1,0,2:2:0:0:
182,192,79554,1,0,2:2:0:0:
402,192,79554,1,0,2:2:0:0:
109,192,79661,1,0,2:2:0:0:
36,192,79768,1,0,1:1:0:0:
182,192,79768,1,0,2:2:0:0:
256,192,79983,1,0,2:2:0:0:
475,192,80197,1,8,1:1:0:0:
329,192,80197,1,0,2:2:0:0:
402,192,80411,1,0,2:2:0:0:
475,192,80625,1,0,1:1:0:0:
182,192,80625,1,0,2:2:0:0:
109,192,80733,1,0,2:2:0:0:
182,192,80840,1,0,2:2:0:0:
256,192,80947,1,0,2:2:0:0:
36,192,81054,1,8,1:1:0:0:
329,192,81054,1,0,2:2:0:0:
182,192,81161,1,0,2:2:0:0:
256,192,81268,1,0,2:2:0:0:
329,192,81375,1,0,2:2:0:0:
475,192,81483,1,0,1:1:0:0:
402,192,81483,1,0,2:2:0:0:
329,192,81590,1,0,2:2:0:0:
256,192,81697,1,0,2:2:0:0:
182,192,81804,1,0,2:2:0:0:
36,192,81911,1,8,1:1:0:0:
109,192,81911,1,0,2:2:0:0:
402,192,82018,1,0,2:2:0:0:
329,192,82125,1,0,2:2:0:0:
182,192,82233,1,0,2:2:0:0:
475,192,82340,1,0,1:1:0:0:
109,192,82340,1,0,2:2:0:0:
36,192,82768,1,8,1:1:0:0:
182,192,82768,1,0,2:2:0:0:
256,192,82875,1,0,2:2:0:0:
329,192,82983,1,0,2:2:0:0:
402,192,83090,1,0,2:2:0:0:
475,192,83197,1,0,1:1:0:0:
329,192,83197,1,0,2:2:0:0:
256,192,83411,1,0,2:2:0:0:
36,192,83625,1,8,1:1:0:0:
182,192,83625,1,0,2:2:0:0:
109,192,83840,1,0,2:2:0:0:
329,192,84054,1,0,2:2:0:0:
36,192,84054,1,0,1:1:0:0:
402,192,84161,1,0,2:2:0:0:
329,192,84268,1,0,2:2:0:0:
256,192,84375,1,0,2:2:0:0:
182,192,84483,1,0,2:2:0:0:
475,192,84483,1,8,1:1:0:0:
329,192,84590,1,0,2:2:0:0:
256,192,84697,1,0,2:2:0:0:
182,192,84804,1,0,2:2:0:0:
36,192,84911,1,0,1:1:0:0:
109,192,84911,1,0,2:2:0:0:
182,192,85018,1,0,2:2:0:0:
329,192,85125,1,0,2:2:0:0:
402,192,85233,1,0,2:2:0:0:
475,192,85340,1,8,1:1:0:0:
182,192,85340,1,0,2:2:0:0:
256,192,85447,1,0,2:2:0:0:
329,192,85554,1,0,2:2:0:0:
402,192,85661,1,0,2:2:0:0:
109,192,85768,1,0,2:2:0:0:
475,192,85768,1,0,1:1:0:0:
182,192,86197,1,0,2:2:0:0:
36,192,86197,1,8,1:1:0:0:
256,192,86304,1,0,2:2:0:0:
329,192,86411,1,0,2:2:0:0:
402,192,86518,1,0,2:2:0:0:
475,192,86625,1,0,1:1:0:0:
329,192,86625,1,0,2:2:0:0:
256,192,86840,1,0,2:2:0:0:
36,192,87054,1,8,1:1:0:0:
182,192,87054,1,0,2:2:0:0:
109,192,87268,1,0,2:2:0:0:
329,192,87483,1,0,2:2:0:0:
36,192,87483,1,0,1:1:0:0:
402,192,87590,1,0,2:2:0:0:
329,192,87697,1,0,2:2:0:0:
256,192,87804,1,0,2:2:0:0:
475,192,87911,1,8,1:1:0:0:
182,192,87911,1,0,2:2:0:0:
329,192,88018,1,0,2:2:0:0:
256,192,88125,1,0,2:2:0:0:
182,192,88233,1,0,2:2:0:0:
109,192,88340,1,0,2:2:0:0:
36,192,88340,1,0,1:1:0:0:
182,192,88447,1,0,2:2:0:0:
256,192,88554,1,0,2:2:0:0:
329,192,88661,1,0,2:2:0:0:
475,192,88768,1,8,1:1:0:0:
402,192,88768,1,0,2:2:0:0:
109,192,88875,1,0,2:2:0:0:
182,192,88983,1,0,2:2:0:0:
329,192,89090,1,0,2:2:0:0:
475,192,89197,1,0,2:2:0:0:
329,192,89304,1,0,2:2:0:0:
402,192,89411,1,0,2:2:0:0:
256,192,89518,1,0,2:2:0:0:
329,192,89625,1,0,2:2:0:0:
182,192,89733,1,0,2:2:0:0:
256,192,89840,1,0,2:2:0:0:
109,192,89947,1,0,2:2:0:0:
36,192,90054,1,0,2:2:0:0:
109,192,90161,1,0,2:2:0:0:
182,192,90268,1,0,2:2:0:0:
256,192,90375,1,0,2:2:0:0:
182,192,90483,1,0,2:2:0:0:
256,192,90590,1,0,2:2:0:0:
329,192,90697,1,0,2:2:0:0:
402,192,90804,1,0,2:2:0:0:
329,192,90911,1,0,2:2:0:0:
256,192,91018,1,0,2:2:0:0:
329,192,91125,1,0,2:2:0:0:
182,192,91233,1,0,2:2:0:0:
256,192,91340,1,0,2:2:0:0:
109,192,91447,1,0,2:2:0:0:
182,192,91554,1,0,2:2:0:0:
109,192,91661,1,0,2:2:0:0:
36,192,91768,1,0,2:2:0:0:
182,192,91875,1,0,2:2:0:0:
329,192,91983,1,0,2:2:0:0:
475,192,92090,1,0,2:2:0:0:
109,192,92197,1,0,2:2:0:0:
256,192,92304,1,0,2:2:0:0:
402,192,92411,1,0,2:2:0:0:
475,192,92518,1,0,2:2:0:0:
402,192,92625,1,0,2:2:0:0:
329,192,92733,1,0,2:2:0:0:
402,192,92840,1,0,2:2:0:0:
256,192,92947,1,0,2:2:0:0:
329,192,93054,1,0,2:2:0:0:
182,192,93161,1,0,2:2:0:0:
256,192,93268,1,0,2:2:0:0:
109,192,93375,1,0,2:2:0:0:
36,192,93483,1,0,2:2:0:0:
109,192,93590,1,0,2:2:0:0:
182,192,93697,1,0,2:2:0:0:
329,192,93804,1,0,2:2:0:0:
402,192,93911,1,0,2:2:0:0:
182,192,94018,1,0,2:2:0:0:
329,192,94125,1,0,2:2:0:0:
475,192,94233,1,0,2:2:0:0:
402,192,94340,1,0,2:2:0:0:
256,192,94447,1,0,2:2:0:0:
329,192,94554,1,0,2:2:0:0:
182,192,94661,1,0,2:2:0:0:
256,192,94768,1,0,2:2:0:0:
109,192,94875,1,0,2:2:0:0:
182,192,94983,1,0,2:2:0:0:
109,192,95090,1,0,2:2:0:0:
36,192,95197,1,0,2:2:0:0:
256,192,95304,1,0,2:2:0:0:
402,192,95411,1,0,2:2:0:0:
475,192,95518,1,0,2:2:0:0:
109,192,95625,1,0,2:2:0:0:
256,192,95733,1,0,2:2:0:0:
329,192,95840,1,0,2:2:0:0:
402,192,95947,1,0,2:2:0:0:
475,192,96054,1,0,2:2:0:0:
36,192,96054,1,0,1:1:0:0:
329,192,96161,1,0,2:2:0:0:
402,192,96268,1,0,2:2:0:0:
329,192,96375,1,0,2:2:0:0:
402,192,96483,1,8,1:1:0:0:
109,192,96483,1,0,2:2:0:0:
182,192,96590,1,0,2:2:0:0:
109,192,96697,1,0,2:2:0:0:
182,192,96804,1,0,2:2:0:0:
475,192,96911,1,0,1:1:0:0:
36,192,96911,1,0,2:2:0:0:
109,192,97018,1,0,2:2:0:0:
256,192,97125,1,0,2:2:0:0:
329,192,97233,1,0,2:2:0:0:
475,192,97340,1,8,1:1:0:0:
182,192,97340,1,0,2:2:0:0:
256,192,97447,1,0,2:2:0:0:
402,192,97554,1,0,2:2:0:0:
475,192,97661,1,0,2:2:0:0:
36,192,97768,1,0,1:1:0:0:
329,192,97768,1,0,2:2:0:0:
402,192,97875,1,0,2:2:0:0:
329,192,97983,1,0,2:2:0:0:
402,192,98090,1,0,2:2:0:0:
475,192,98197,1,8,1:1:0:0:
182,192,98197,1,0,2:2:0:0:
109,192,98304,1,0,2:2:0:0:
182,192,98411,1,0,2:2:0:0:
109,192,98518,1,0,2:2:0:0:
36,192,98625,1,0,1:1:0:0:
182,192,98625,1,0,2:2:0:0:
256,192,98733,1,0,2:2:0:0:
329,192,98840,1,0,2:2:0:0:
402,192,98947,1,0,2:2:0:0:
475,192,99054,1,8,1:1:0:0:
109,192,99054,1,0,2:2:0:0:
256,192,99161,1,0,2:2:0:0:
329,192,99268,1,0,2:2:0:0:
475,192,99375,1,0,2:2:0:0:
36,192,99483,1,0,1:1:0:0:
402,192,99483,1,0,2:2:0:0:
329,192,99590,1,0,2:2:0:0:
402,192,99697,1,0,2:2:0:0:
256,192,99804,1,0,2:2:0:0:
329,192,99911,1,0,2:2:0:0:
475,192,99911,1,8,1:1:0:0:
182,192,100018,1,0,2:2:0:0:
256,192,100125,1,0,2:2:0:0:
182,192,100233,1,0,2:2:0:0:
36,192,100340,1,0,1:1:0:0:
109,192,100340,1,0,2:2:0:0:
182,192,100447,1,0,2:2:0:0:
329,192,100554,1,0,2:2:0:0:
402,192,100661,1,0,2:2:0:0:
475,192,100768,1,0,2:2:0:0:
36,192,100768,1,8,1:1:0:0:
109,192,100768,1,0,2:2:0:0:
182,192,100875,1,0,2:2:0:0:
329,192,100983,1,0,2:2:0:0:
475,192,101090,1,0,2:2:0:0:
36,192,101197,1,0,1:1:0:0:
402,192,101197,1,0,2:2:0:0:
256,192,101304,1,0,2:2:0:0:
329,192,101411,1,0,2:2:0:0:
182,192,101518,1,0,2:2:0:0:
475,192,101625,1,8,1:1:0:0:
256,192,101625,1,0,2:2:0:0:
109,192,101733,1,0,2:2:0:0:
182,192,101840,1,0,2:2:0:0:
109,192,101947,1,0,2:2:0:0:
475,192,102054,1,0,1:1:0:0:
36,192,102054,1,0,2:2:0:0:
182,192,102161,1,0,2:2:0:0:
329,192,102268,1,0,2:2:0:0:
402,192,102375,1,0,2:2:0:0:
36,192,102483,1,8,1:1:0:0:
109,192,102483,1,0,2:2:0:0:
256,192,102590,1,0,2:2:0:0:
402,192,102697,1,0,2:2:0:0:
475,192,102804,1,0,2:2:0:0:
402,192,102911,128,0,104625:2:2:0:0:
329,192,102911,1,4,1:1:0:0:
36,192,102911,1,4,1:1:0:0:
329,192,104625,128,0,106340:2:2:0:0:
256,192,106340,128,0,107197:2:2:0:0:
182,192,107197,128,0,108054:2:2:0:0:
402,192,108054,128,0,109768:2:2:0:0:
475,192,108054,1,4,1:1:0:0:
36,192,108054,1,4,1:1:0:0:
256,192,108268,1,2,3:3:0:0:
329,192,108483,1,8,1:1:0:0:
475,192,108697,1,2,3:3:0:0:
36,192,108911,1,0,1:1:0:0:
109,192,109125,1,2,3:3:0:0:
329,192,109340,1,8,1:1:0:0:
475,192,109554,1,2,3:3:0:0:
256,192,109768,128,0,112340:2:2:0:0:
109,192,109768,1,4,1:1:0:0:
36,192,109768,1,4,1:1:0:0:
109,192,111483,1,2,2:2:0:0:
182,192,111697,1,2,2:2:0:0:
109,192,111911,1,2,2:2:0:0:
182,192,112125,1,2,2:2:0:0:
329,192,112340,1,2,2:2:0:0:
402,192,112554,1,2,2:2:0:0:
329,192,112768,1,2,2:2:0:0:
402,192,112983,1,2,2:2:0:0:
36,192,113197,1,4,1:1:0:0:
475,192,113197,1,4,1:1:0:0:
256,192,113197,128,0,114911:2:2:0:0:
402,192,113411,1,2,3:3:0:0:
109,192,113625,1,8,1:1:0:0:
36,192,113840,1,2,3:3:0:0:
475,192,114054,1,0,1:1:0:0:
402,192,114268,1,2,3:3:0:0:
182,192,114483,1,8,1:1:0:0:
109,192,114697,1,2,3:3:0:0:
329,192,114911,128,0,116625:2:2:0:0:
36,192,114911,1,4,1:1:0:0:
475,192,114911,1,4,1:1:0:0:
109,192,115018,1,0,1:1:0:0:
182,192,115125,1,0,1:1:0:0:
256,192,115233,1,0,1:1:0:0:
402,192,115340,1,0,1:1:0:0:
475,192,115447,1,0,1:1:0:0:
109,192,115554,1,0,1:1:0:0:
182,192,115661,1,0,1:1:0:0:
256,192,115768,1,0,1:1:0:0:
402,192,115875,1,0,1:1:0:0:
475,192,115983,1,0,1:1:0:0:
36,192,116090,1,0,1:1:0:0:
109,192,116197,1,0,1:1:0:0:
182,192,116304,1,0,1:1:0:0:
256,192,116411,1,0,1:1:0:0:
402,192,116518,1,0,1:1:0:0:
36,192,116625,1,4,1:1:0:0:
475,192,116625,1,4,1:1:0:0:
36,192,117825,1,0,2:2:0:0:
109,192,120225,1,0,2:2:0:0:
329,192,121425,1,0,2:2:0:0:
36,192,121425,1,2,2:2:0:0:
475,192,122325,1,0,2:2:0:0:
402,192,122625,1,0,2:2:0:0:
36,192,122625,1,2,2:2:0:0:
329,192,123225,1,0,2:2:0:0:
256,192,123525,1,0,2:2:0:0:
329,192,123825,1,0,2:2:0:0:
475,192,123825,1,2,2:2:0:0:
256,192,124425,1,0,2:2:0:0:
182,192,124725,1,0,2:2:0:0:
256,192,125025,1,0,2:2:0:0:
36,192,125025,1,2,2:2:0:0:
109,192,125625,1,0,2:2:0:0:
182,192,126225,1,0,2:2:0:0:
475,192,126225,1,2,2:2:0:0:
256,192,126825,1,0,2:2:0:0:
182,192,127125,1,0,2:2:0:0:
256,192,127425,1,0,2:2:0:0:
36,192,127425,1,2,2:2:0:0:
329,192,128025,1,0,2:2:0:0:
475,192,128325,1,0,2:2:0:0:
402,192,128625,1,0,2:2:0:0:
36,192,128625,1,2,2:2:0:0:
256,192,129225,1,0,2:2:0:0:
402,192,129525,1,0,2:2:0:0:
182,192,129825,1,0,2:2:0:0:
36,192,129825,1,2,2:2:0:0:
256,192,129975,1,0,2:2:0:0:
182,192,130125,1,0,2:2:0:0:
109,192,130275,1,0,2:2:0:0:
182,192,130425,1,0,2:2:0:0:
109,192,130725,1,0,2:2:0:0:
329,192,131025,1,0,2:2:0:0:
475,192,131025,1,2,2:2:0:0:
402,192,131925,1,0,2:2:0:0:
256,192,132225,1,0,2:2:0:0:
475,192,132225,1,2,2:2:0:0:
109,192,132825,1,0,2:2:0:0:
36,192,133125,1,0,2:2:0:0:
109,192,133425,1,0,2:2:0:0:
475,192,133425,1,2,2:2:0:0:
182,192,134025,1,0,2:2:0:0:
402,192,134325,1,0,2:2:0:0:
256,192,134625,1,0,2:2:0:0:
475,192,134625,1,2,2:2:0:0:
182,192,135225,1,0,2:2:0:0:
329,192,135825,1,0,2:2:0:0:
475,192,135825,1,2,2:2:0:0:
256,192,136425,1,0,2:2:0:0:
182,192,136725,1,0,2:2:0:0:
256,192,137025,1,0,2:2:0:0:
475,192,137025,1,2,2:2:0:0:
402,192,137625,1,0,2:2:0:0:
402,192,138225,1,0,2:2:0:0:
475,192,138225,1,2,2:2:0:0:
256,192,138375,1,0,2:2:0:0:
182,192,138525,1,0,2:2:0:0:
109,192,138675,1,0,2:2:0:0:
402,192,138825,1,0,2:2:0:0:
329,192,138975,1,0,2:2:0:0:
182,192,139125,1,0,2:2:0:0:
109,192,139275,1,0,2:2:0:0:
36,192,139425,128,0,143025:2:2:0:0:
475,192,139425,128,0,143025:2:2:0:0:
