osu file format v5

[General]
AudioFilename: Lotus 2 Intro.mp3
AudioLeadIn: 3000
PreviewTime: -1
Countdown: 0
SampleSet: Soft
StackLeniency: 0.7
Mode: 0
LetterboxInBreaks: 1
EditorBookmarks: 48689,53651,60827,80751,85217,120372,125028,128464,132510,139228,143274,146862

[Metadata]
Title:Intro
Artist:Lotus Turbo Challenge II
Creator:jipostus
Version:Hard
Source:
Tags:

[Difficulty]
HPDrainRate:6
CircleSize:6
OverallDifficulty:6
SliderMultiplier:1.4
SliderTickRate:1

[Events]
//Background and Video events
0,0,"Lotus.png"
//Break Periods
2,61103,80620
2,84158,88480
2,145535,158105
//Storyboard Layer 0 (Background)
//Storyboard Layer 1 (Failing)
//Storyboard Layer 2 (Passing)
//Storyboard Layer 3 (Foreground)
//Storyboard Sound Samples
//Background Colour Transformations
3,100,163,162,255

[TimingPoints]
22123,458.038,4,2,0,50,1

[Colours]
Combo1 : 0,221,0
Combo2 : 215,0,0
Combo3 : 4,4,210
Combo4 : 242,242,0

[HitObjects]
96,288,6626,1,0
160,288,7084,1,0
256,288,7694,1,0
288,288,8000,1,0
352,288,8381,1,0
384,288,8610,1,0
421,192,10595,5,0
352,192,11053,1,0
288,192,11511,1,0
256,192,11817,1,0
192,192,12198,1,0
160,192,12427,1,0
123,128,14336,5,0
192,128,14794,1,0
288,128,15405,1,0
320,128,15634,1,0
384,128,16015,1,0
416,128,16244,1,0
452,192,18306,5,0
384,192,18687,1,0
288,192,19145,1,0
256,192,19451,1,0
192,192,19832,1,0
160,192,20138,1,0
161,222,22122,5,0
160,288,22504,1,0
224,288,23039,1,0
256,288,23344,1,0
320,288,23726,1,0
352,288,23955,1,0
416,288,24336,1,0
480,288,24642,1,0
452,224,24947,5,0
384,224,25329,1,0
320,224,25710,1,0
288,224,25939,1,0
224,224,26245,1,0
160,224,26627,1,0
128,224,26856,1,0
96,163,27161,5,0
160,160,27543,1,0
256,160,28001,1,0
288,160,28230,1,0
384,160,28688,1,0
436,93,29146,5,0
384,95,29527,1,0
320,96,29985,1,0
288,96,30215,1,0
224,96,30673,1,0
160,96,31054,1,0
128,96,31360,1,0
64,96,31894,1,0
65,133,32123,5,0
88,168,32581,1,0
120,200,32963,1,0
144,232,33344,1,0
152,248,33573,1,0
192,288,33955,1,0
248,288,34261,1,0
304,288,34566,1,0
352,288,34948,1,0
408,288,35329,1,0
464,288,35711,1,0
464,228,36016,5,0
408,232,36398,1,0
336,232,36856,1,0
256,232,37390,1,0
192,232,37848,1,0
120,232,38307,1,0
64,232,38688,1,0
48,192,38994,1,0
48,84,39604,5,0
64,128,39833,1,0
32,126,40291,5,0
72,208,40673,1,0
136,248,40978,1,0
264,216,41513,1,0
336,200,41818,1,0
392,120,42200,1,0
328,56,42582,1,0
232,64,42963,1,0
120,80,43421,1,0
128,136,43650,1,0
96,240,44108,1,0
120,328,44490,1,0
208,304,44872,1,0
336,320,45406,1,0
384,296,45635,1,0
424,192,46093,1,0
456,120,46399,1,0
408,40,46780,1,0
296,40,47238,1,0
240,40,47467,1,0
112,48,48002,1,0
40,40,48307,1,0
32,136,48689,1,0
80,160,48918,1,0
24,232,49299,1,0
24,328,49681,1,0
80,336,49910,1,0
168,344,50292,1,0
264,352,50674,1,0
376,344,51132,1,0
408,296,51361,1,0
432,184,51819,1,0
424,88,52200,1,0
352,64,52506,1,0
240,48,52964,1,0
168,48,53269,1,0
72,56,53651,1,0
88,144,54032,1,0
88,240,54414,1,0
112,368,54949,1,0
160,352,55178,1,0
272,336,55636,1,0
384,312,56094,1,0
456,312,56399,1,0
440,240,56704,1,0
416,152,57086,1,0
384,80,57391,1,0
432,96,57620,1,0
360,32,58002,1,0
288,24,58308,1,0
200,96,58766,1,0
160,48,58995,1,0
64,104,59453,1,0
72,232,59987,1,0
176,264,60445,1,0
256,192,60903,1,0
128,288,81820,5,0
160,288,82049,1,0
192,288,82507,1,0
224,288,82889,1,0
256,288,83271,1,0
320,288,83729,1,0
352,288,83958,1,0
80,288,89530,5,0
120,288,89759,1,0
216,288,90217,1,0
288,296,90599,1,0
344,296,90905,1,0
424,296,91363,1,0
392,248,91668,1,0
312,224,92126,1,0
240,216,92508,1,0
192,240,92813,1,0
176,296,93118,1,0
192,242,93653,5,0
192,192,94034,1,0
192,136,94493,1,0
192,88,94798,1,0
192,48,95027,1,0
128,64,95485,1,0
72,64,96019,1,0
32,64,96401,1,0
56,128,96783,5,0
80,160,97012,1,0
40,232,97470,1,0
48,312,97928,1,0
104,352,98309,1,0
136,304,98615,1,0
176,344,98920,1,0
224,296,99302,1,0
304,344,99836,1,0
352,320,100142,1,0
416,352,100523,1,0
432,312,100752,1,0
448,232,101210,1,0
368,176,101745,1,0
424,128,102126,1,0
472,80,102508,1,0
432,56,102737,1,0
368,32,103119,1,0
328,72,103424,1,0
280,40,103730,1,0
224,88,104111,1,0
176,48,104417,1,0
144,72,104646,1,0
72,32,105104,1,0
32,104,105562,1,0
80,152,105943,1,0
48,216,106325,1,0
64,256,106554,1,0
16,312,106936,1,0
80,344,107318,1,0
104,312,107547,1,0
168,344,107928,1,0
216,320,108234,1,0
272,328,108539,1,0
352,296,108997,1,0
424,336,109455,1,0
416,264,109837,1,0
456,224,110142,1,0
408,192,110447,1,0
464,160,110829,1,0
416,128,111135,1,0
448,104,111364,1,0
488,48,111745,1,0
432,48,112051,1,0
392,72,112280,1,0
312,40,112738,1,0
232,104,113272,1,0
184,56,113654,1,0
144,96,113959,1,0
96,64,114264,1,0
96,136,114646,1,0
56,224,115181,1,0
80,272,115486,1,0
120,344,115944,1,0
144,312,116173,1,0
224,336,116631,1,0
304,320,117089,1,0
256,264,117471,1,0
200,248,117776,1,0
168,200,118081,1,0
192,136,118463,1,0
208,200,118769,2,0,B|312:168,4,93.3333333333333
216,112,120448,5,0
296,168,120982,1,0
352,208,121364,1,0
408,208,121669,1,0
400,168,121898,1,0
456,128,122280,1,0
400,88,122662,1,0
376,56,122891,1,0
304,72,123273,1,0
264,32,123578,1,0
216,64,123883,1,0
136,24,124341,1,0
72,80,124799,1,0
40,136,125181,1,0
64,184,125486,1,0
24,224,125792,1,0
64,256,126097,1,0
32,320,126479,1,0
72,328,126708,1,0
136,304,127090,1,0
192,344,127471,1,0
224,320,127700,1,0
296,360,128158,1,0
352,312,128540,1,0
408,352,128922,1,0
400,280,129303,1,0
440,240,129609,1,0
376,200,129990,1,0
424,152,130372,1,0
392,128,130601,1,0
432,88,130907,1,0
384,40,131288,1,0
328,80,131670,1,0
296,32,131975,1,0
224,72,132433,1,0
176,24,132815,1,0
120,72,133197,1,0
40,32,133655,1,0
56,72,133884,1,0
40,168,134418,1,0
80,208,134724,1,0
48,272,135105,1,0
112,320,135563,1,0
144,296,135792,1,0
216,336,136250,1,0
288,288,136708,1,0
328,320,137014,1,0
408,264,137548,1,0
440,240,137777,1,0
376,184,138235,1,0
440,152,138617,1,0
400,112,138922,1,0
472,40,139457,1,0
432,40,139686,1,0
352,72,140144,1,0
288,40,140525,1,0
240,72,140831,1,0
160,48,141289,1,0
120,88,141594,1,0
56,32,142052,1,0
72,88,142357,1,0
40,152,142739,1,0
96,232,143274,1,0
64,264,143503,1,0
152,304,144037,1,0
232,280,144495,1,0
176,216,144953,1,0
256,192,145411,1,0
192,288,159305,5,0
192,288,159763,1,0
192,288,160068,1,4
257,192,163198,5,0
257,192,163275,5,0
