osu file format v5

[General]
AudioFilename: 03 PSYCHEDELIC SOULJAM.mp3
AudioLeadIn: 0
PreviewTime: -1
Countdown: 1
SampleSet: Normal
StackLeniency: 0.7
Mode: 0
LetterboxInBreaks: 1

[Metadata]
Title:Psychedelic Souljam
Artist:Lotus Juice
Creator:Hidd3NNiN
Version:Easy
Source:Soul Eater
Tags:Soul Eater

[Difficulty]
HPDrainRate:5
CircleSize:5
OverallDifficulty:6
SliderMultiplier:1.2
SliderTickRate:1

[Events]
//Background and Video events
0,0,"soul-eater-night.jpg"
//Break Periods
2,133243,152092
//Storyboard Layer 0 (Background)
//Storyboard Layer 1 (Failing)
//Storyboard Layer 2 (Passing)
//Storyboard Layer 3 (Foreground)
//Storyboard Sound Samples
//Background Colour Transformations
3,100,163,162,255

[TimingPoints]
8100,430.838140734302,4,1,0,100

[HitObjects]
64,128,8099,1,0
160,128,9607,1,0
256,128,11331,1,0
352,128,13054,1,4
96,256,14562,5,0
192,256,16285,1,0
320,256,18009,1,0
416,256,19732,1,0
352,288,21455,1,0
384,192,22963,1,0
384,128,24687,1,0
384,64,26195,1,4
256,96,27918,6,0,B|96:160|160:352|320:320|416:320,4,420
64,320,34811,5,4
64,224,36319,1,4
64,128,38043,1,4
64,32,39335,1,4
160,320,41489,5,4
160,256,42351,1,4
160,192,44290,1,4
160,128,45152,1,4
160,64,46013,1,4
224,64,46875,1,4
224,128,47593,1,4
224,192,48455,1,4
224,256,49316,1,4
224,320,50178,1,4
256,192,54630,5,0
160,192,56353,1,0
64,192,57933,1,0
160,192,59656,1,0
256,192,61236,1,0
352,192,62529,1,0
448,192,64252,1,0
448,96,66047,1,0
384,96,67986,1,0
320,96,69709,1,0
256,96,71433,1,0
160,96,72725,1,0
64,96,74664,1,0
64,192,76387,1,0
64,256,78039,1,0
64,320,79619,1,4
128,160,81486,5,4
192,96,82204,1,4
192,224,83065,1,4
256,160,83927,1,4
320,224,84789,1,4
256,288,85650,1,4
192,224,86512,1,4
256,160,87374,1,4
128,160,88092,1,4
192,96,88953,1,4
256,160,89815,1,4
320,224,90677,1,4
256,288,91538,1,4
192,224,92400,1,4
256,160,93262,1,4
192,96,94124,1,4
128,160,94842,1,4
64,96,95703,1,4
128,32,96421,1,4
192,96,97283,1,4
128,160,98145,1,4
192,224,98863,1,4
256,160,99581,1,4
352,64,101448,5,4
288,64,102309,1,4
224,64,103171,1,4
160,64,103889,1,4
96,64,104751,1,4
32,64,105613,1,4
96,224,108054,5,0
160,288,109777,1,0
256,288,111501,1,0
352,288,112793,1,0
416,192,114517,1,0
320,128,116240,1,0
224,64,117963,1,0
128,128,119256,1,0
128,224,121410,1,4
224,320,122918,5,4
352,320,124210,5,0
416,256,125934,1,0
352,192,128088,1,0
288,128,129596,1,0
224,64,131319,1,0
224,160,133043,1,4
64,96,153077,5,0
128,160,154584,1,0
192,224,156308,1,0
256,288,158031,1,0
256,224,159755,1,0
256,160,161478,1,0
256,96,163058,1,0
384,96,166217,5,0
384,192,167940,1,0
384,288,169664,1,0
256,192,172464,12,0,178495
128,160,179573,5,0
192,224,181296,1,0
256,288,183020,1,0
192,352,186466,5,0
128,288,187974,1,0
64,224,189698,1,0
160,96,192929,5,0
288,96,194652,1,0
288,192,196376,1,0
288,256,198099,1,0
288,320,199822,1,0
352,320,201330,1,4
128,192,206285,2,0,B|384:192|416:192,4,240
352,192,211455,1,4
64,96,213178,5,4
64,192,214040,1,4
64,288,214902,1,4
160,288,215763,1,4
160,192,216625,1,4
160,96,217487,1,4
448,96,219641,5,0
448,192,220503,1,0
448,288,221364,1,0
352,288,222226,1,0
352,192,223088,1,0
352,96,223949,1,4
256,96,226319,5,0
256,192,228042,1,0
256,288,229335,1,0
256,288,230843,1,0
256,192,232566,1,0
256,96,233428,1,0
320,96,233859,1,0
384,96,236013,1,0
384,192,237162,1,0
384,288,239460,1,4
256,192,239603,12,0,244199
