osu file format v14

[General]
AudioFilename: Persona 4 Arena Ultimax Opening Song.mp3
AudioLeadIn: 0
PreviewTime: 55769
Countdown: 0
SampleSet: Normal
StackLeniency: 0.7
Mode: 0
LetterboxInBreaks: 0
WidescreenStoryboard: 0

[Editor]
DistanceSpacing: 1.2
BeatDivisor: 4
GridSize: 4
TimelineZoom: 1.4

[Metadata]
Title:Break Out Of...
TitleUnicode:Break Out Of...
Artist:Lotus Juice & Shihoko Hirata
ArtistUnicode:Lotus Juice & Shihoko Hirata
Creator:Yasora
Version:Insane
Source:Persona 4 The ULTIMAX ULTRA SUPLEX HOLD
Tags:opening Atlus
BeatmapID:715374
BeatmapSetID:321580

[Difficulty]
HPDrainRate:7
CircleSize:4
OverallDifficulty:7
ApproachRate:8.5
SliderMultiplier:1.6
SliderTickRate:1

[Events]
//Background and Video events
0,0,"what is this.jpg",0,0
Video,-100,"yha.avi"
//Break Periods
//Storyboard Layer 0 (Background)
//Storyboard Layer 1 (Fail)
//Storyboard Layer 2 (Pass)
//Storyboard Layer 3 (Foreground)
//Storyboard Sound Samples

[TimingPoints]
55.3574567702585,342.857142857143,4,1,1,30,1,0
12226,-100,4,1,1,70,0,0
23198,-100,4,1,1,60,0,0
43769,-100,4,2,0,50,0,0
44455,-100,4,1,1,60,0,0
56112,-100,4,1,1,80,0,1
63141,-100,4,1,1,70,0,0
67083,-100,4,1,1,80,0,1
74112,-100,4,1,1,70,0,0
77969,-100,4,1,1,70,0,1
78141,-100,4,1,1,70,0,0
90569,-100,4,2,0,20,0,0

[Colours]
Combo1 : 0,128,128
Combo2 : 255,128,0
Combo3 : 0,128,255
Combo4 : 255,128,192

[HitObjects]
152,180,55,5,0,0:0:0:0:
152,180,398,1,0,0:0:0:0:
152,180,741,1,0,0:0:0:0:
240,224,912,5,0,0:0:0:0:
228,128,1083,2,0,L|224:88,2,40
380,264,1598,5,0,0:0:0:0:
472,228,1769,1,8,0:0:0:0:
392,160,1941,2,0,L|396:92,2,40
380,264,2283,1,0,0:0:0:0:
296,208,2455,1,8,0:0:0:0:
164,88,2626,6,0,P|128:124|128:232,1,160
216,276,3141,1,8,0:0:0:0:
312,236,3312,1,0,0:0:0:0:
308,332,3483,2,0,L|276:364,2,40
400,296,3826,1,8,0:0:0:0:
428,196,3998,6,0,P|432:120|372:48,1,160
284,32,4512,1,8,0:0:0:0:
184,64,4683,2,0,L|132:84,2,40
200,168,5026,1,0,0:0:0:0:
204,272,5198,2,0,L|280:236,1,80,8|0,0:0|0:0,0:0:0:0:
448,164,5541,6,0,P|408:148|360:160,1,80
292,216,5883,1,8,0:0:0:0:
128,336,6055,2,0,P|112:280|148:160,1,160
148,156,6483,1,0,0:0:0:0:
164,132,6569,1,8,0:0:0:0:
244,56,6741,6,0,B|280:128|280:128|300:68|352:52,1,160
384,144,7255,1,8,0:0:0:0:
380,240,7426,2,0,L|432:248,2,40
308,304,7769,1,0,0:0:0:0:
212,284,7941,1,8,0:0:0:0:
204,56,8112,6,0,B|168:128|168:128|148:68|96:52,1,160
60,152,8626,1,8,0:0:0:0:
72,252,8798,2,0,L|40:280,2,40
176,276,9141,1,0,0:0:0:0:
244,196,9312,1,8,0:0:0:0:
428,160,9483,6,0,P|404:216|300:244,1,160
324,28,9998,2,0,B|372:52|372:52|332:100|336:156,1,160,8|0,0:0|0:0,0:0:0:0:
232,76,10512,1,0,0:0:0:0:
128,144,10683,2,0,P|112:88|96:56,1,80,8|0,0:0|0:0,0:0:0:0:
300,252,11026,5,4,0:0:0:0:
196,256,11198,2,0,L|168:284,2,40
300,252,11541,2,0,B|332:276|332:276|352:312,1,80
256,340,11883,1,0,0:0:0:0:
256,340,12055,1,0,0:0:0:0:
160,184,12226,6,0,P|176:128|260:64,1,160,4|0,0:0|0:0,0:0:0:0:
348,56,12741,1,10,0:0:0:0:
344,104,13083,5,0,0:0:0:0:
244,80,13255,1,0,0:0:0:0:
144,56,13426,1,10,0:0:0:0:
148,304,13769,6,0,L|232:288,1,80,2|0,0:0|0:0,0:0:0:0:
140,208,14112,2,0,L|60:224,1,80,10|0,0:0|0:0,0:0:0:0:
272,172,14455,5,2,0:0:0:0:
292,272,14626,1,0,0:0:0:0:
384,148,14798,1,8,0:0:0:0:
248,68,14969,2,0,P|208:44|92:60,1,160,2|0,0:0|0:0,0:0:0:0:
48,136,15483,1,10,0:0:0:0:
48,136,15826,5,2,0:0:0:0:
136,148,15997,1,0,0:0:0:0:
224,164,16169,1,10,0:0:0:0:
392,188,16512,6,0,P|412:232|424:280,1,80,2|0,0:0|0:0,0:0:0:0:
300,272,16855,1,8,0:0:0:0:
206,323,17026,2,0,P|167:316|128:320,1,80,4|0,0:0|0:0,0:0:0:0:
36,340,17369,1,2,0:0:0:0:
28,312,17455,1,0,0:0:0:0:
20,280,17541,1,8,0:0:0:0:
56,160,17712,1,6,0:0:0:0:
56,160,18055,5,0,0:0:0:0:
96,52,18226,1,10,0:0:0:0:
228,240,18569,5,2,0:0:0:0:
324,264,18741,1,0,0:0:0:0:
424,288,18912,1,10,0:0:0:0:
436,80,19255,5,2,0:0:0:0:
356,160,19426,1,0,0:0:0:0:
240,140,19598,2,0,B|204:128|188:100|188:100|76:108,1,160,10|2,0:0|0:0,0:0:0:0:
44,204,20112,1,0,0:0:0:0:
80,68,20283,1,8,0:0:0:0:
152,192,20455,2,0,P|152:236|168:284,1,80,2|0,0:0|0:0,0:0:0:0:
288,336,20798,5,0,0:0:0:0:
272,236,20969,1,10,0:0:0:0:
392,264,21312,5,2,0:0:0:0:
296,224,21483,1,0,0:0:0:0:
192,180,21655,1,10,0:0:0:0:
192,180,21998,5,6,0:0:0:0:
272,120,22169,1,0,0:0:0:0:
304,112,22255,1,0,0:0:0:0:
336,104,22341,1,8,0:0:0:0:
192,56,22512,2,0,L|84:72,1,80,2|8,0:0|0:0,0:0:0:0:
80,60,22769,1,0,0:0:0:0:
48,52,22855,1,2,0:0:0:0:
80,188,23026,1,0,0:0:0:0:
184,288,23198,6,0,B|232:312|232:312|288:296|288:296|344:320,1,160,4|0,0:0|0:0,0:0:0:0:
356,216,23712,2,0,L|276:184,1,80,8|0,0:0|0:0,0:0:0:0:
192,128,24055,1,0,0:0:0:0:
120,200,24226,2,0,P|132:240|176:284,1,80,0|8,0:0|0:0,0:0:0:0:
272,348,24569,6,0,P|304:300|416:304,1,160
452,176,25083,2,0,L|368:184,1,80,8|0,0:0|0:0,0:0:0:0:
336,88,25426,1,0,0:0:0:0:
232,64,25598,2,0,P|224:108|204:144,1,80,0|8,0:0|0:0,0:0:0:0:
240,348,25941,6,0,P|208:300|96:304,1,160
52,200,26455,1,8,0:0:0:0:
124,120,26626,1,0,0:0:0:0:
224,152,26798,2,0,L|304:108,1,80
372,32,27141,1,8,0:0:0:0:
416,136,27312,1,0,0:0:0:0:
500,96,27483,6,0,P|508:152|436:228,1,160,0|8,0:0|0:0,0:0:0:0:
248,300,27998,2,0,L|344:312,1,80,0|8,0:0|0:0,0:0:0:0:
276,196,28341,1,0,0:0:0:0:
232,188,28426,1,0,0:0:0:0:
188,200,28512,1,8,0:0:0:0:
156,228,28598,1,0,0:0:0:0:
140,268,28683,6,0,P|144:312|44:300,1,160,4|0,0:0|0:0,0:0:0:0:
80,116,29198,2,0,L|104:36,1,80,10|0,0:0|0:0,0:0:0:0:
208,40,29541,2,0,L|230:116,1,80,2|0,0:0|0:0,0:0:0:0:
268,228,29883,1,10,0:0:0:0:
440,144,30226,5,0,0:0:0:0:
368,72,30398,1,0,0:0:0:0:
272,52,30569,1,10,0:0:0:0:
68,272,30912,5,2,0:0:0:0:
152,224,31083,1,0,0:0:0:0:
240,240,31255,1,8,0:0:0:0:
136,100,31426,6,0,L|160:276,1,160,2|0,0:0|0:0,0:0:0:0:
432,268,31941,2,0,L|408:348,1,80,10|0,0:0|0:0,0:0:0:0:
304,344,32284,2,0,L|281:267,1,80,2|0,0:0|0:0,0:0:0:0:
244,156,32626,1,10,0:0:0:0:
232,120,32969,5,4,0:0:0:0:
328,96,33141,1,2,0:0:0:0:
404,164,33312,1,8,0:0:0:0:
404,164,33483,2,0,P|440:224|392:304,1,160,2|2,0:0|0:0,0:0:0:0:
360,312,33912,1,0,0:0:0:0:
316,316,33998,1,8,0:0:0:0:
200,240,34169,6,0,L|368:228,1,160,4|0,0:0|0:0,0:0:0:0:
108,180,34683,2,0,P|96:228|64:260,1,80,8|0,0:0|0:0,0:0:0:0:
192,144,35026,2,0,L|284:136,1,80
432,160,35369,1,8,0:0:0:0:
432,160,35541,1,0,0:0:0:0:
384,72,35712,5,0,0:0:0:0:
336,152,35883,1,0,0:0:0:0:
316,248,36055,1,8,0:0:0:0:
224,324,36226,2,0,P|224:272|168:176,1,160
200,88,36741,2,0,P|232:60|272:48,1,80,8|0,0:0|0:0,0:0:0:0:
364,44,37083,6,0,L|392:120,1,80
196,192,37426,2,0,L|276:232,1,80,8|0,0:0|0:0,0:0:0:0:
340,292,37769,1,0,0:0:0:0:
432,276,37941,1,0,0:0:0:0:
476,192,38112,1,8,0:0:0:0:
440,104,38283,1,0,0:0:0:0:
344,52,38455,6,0,P|348:96|260:176,1,160,0|8,0:0|0:0,0:0:0:0:
256,80,38969,1,0,0:0:0:0:
104,200,39141,1,8,0:0:0:0:
76,100,39312,1,0,0:0:0:0:
76,100,39398,1,0,0:0:0:0:
76,100,39483,1,8,0:0:0:0:
168,48,39655,6,0,P|164:92|252:172,1,160,4|0,0:0|0:0,0:0:0:0:
464,252,40169,2,0,L|376:264,1,80,10|0,0:0|0:0,0:0:0:0:
388,92,40512,2,0,L|484:120,1,80,2|0,0:0|0:0,0:0:0:0:
276,176,40855,1,10,0:0:0:0:
68,96,41198,5,0,0:0:0:0:
96,184,41369,1,0,0:0:0:0:
88,280,41541,1,10,0:0:0:0:
196,80,41883,5,2,0:0:0:0:
288,48,42055,1,0,0:0:0:0:
368,104,42226,1,8,0:0:0:0:
328,192,42398,6,0,P|396:196|464:112,1,160,2|0,0:0|0:0,0:0:0:0:
124,92,42912,2,0,L|47:114,1,80,10|0,0:0|0:0,0:0:0:0:
48,252,43255,2,0,L|127:262,1,80,2|0,0:0|0:0,0:0:0:0:
236,176,43598,1,10,0:0:0:0:
368,104,43769,6,0,B|416:84|416:84|448:108|460:188,1,160,4|0,0:0|1:0,0:0:0:0:
384,260,44283,1,0,0:0:0:0:
284,292,44455,1,0,0:0:0:0:
140,268,44626,5,0,0:0:0:0:
161,291,44711,1,0,0:0:0:0:
182,315,44797,1,0,0:0:0:0:
203,339,44883,1,0,0:0:0:0:
224,364,44969,1,0,0:0:0:0:
296,180,45141,6,0,P|276:136|292:12,1,160,4|0,0:0|0:0,0:0:0:0:
164,104,45655,2,0,L|76:84,1,80,8|0,0:0|0:0,0:0:0:0:
176,208,45998,1,2,0:0:0:0:
368,92,46169,2,0,P|404:92|452:120,1,80,0|8,0:0|0:0,0:0:0:0:
380,184,46512,6,0,L|336:348,1,160,2|0,0:0|0:0,0:0:0:0:
224,348,47026,1,8,0:0:0:0:
264,264,47198,1,0,0:0:0:0:
436,304,47369,2,0,L|460:216,1,80,2|0,0:0|0:0,0:0:0:0:
304,176,47712,1,8,0:0:0:0:
174,222,47883,6,0,B|136:184|136:184|104:84,1,160,2|0,0:0|0:0,0:0:0:0:
193,28,48398,2,0,L|220:104,1,80,8|0,0:0|0:0,0:0:0:0:
329,100,48741,1,2,0:0:0:0:
329,100,48912,2,0,L|301:184,1,80,0|8,0:0|0:0,0:0:0:0:
188,304,49255,6,0,P|228:272|340:300,1,160,2|2,0:0|0:0,0:0:0:0:
268,360,49769,1,8,0:0:0:0:
352,244,49941,2,0,P|400:244|436:264,1,80,2|0,0:0|0:0,0:0:0:0:
380,344,50283,1,2,0:0:0:0:
380,344,50369,1,0,0:0:0:0:
380,344,50455,1,8,0:0:0:0:
188,304,50626,6,0,P|124:284|80:176,1,160,4|0,0:0|0:0,0:0:0:0:
140,72,51141,2,0,L|160:168,1,80,8|0,0:0|0:0,0:0:0:0:
156,150,51483,1,2,0:0:0:0:
64,112,51655,1,0,0:0:0:0:
160,36,51826,1,8,0:0:0:0:
260,112,51998,6,0,P|328:176|400:160,1,160,2|0,0:0|0:0,0:0:0:0:
464,104,52512,1,8,0:0:0:0:
400,20,52683,2,0,L|349:82,1,80,2|0,0:0|0:0,0:0:0:0:
196,280,53026,2,0,P|216:308|256:328,1,80,2|8,0:0|0:0,0:0:0:0:
419,236,53369,6,0,P|350:203|280:235,1,160,4|2,0:0|0:0,0:0:0:0:
216,148,53883,2,0,L|136:136,2,80,8|2|0,0:0|0:0|0:0,0:0:0:0:
304,136,54398,1,2,0:0:0:0:
368,72,54569,1,8,0:0:0:0:
124,44,54741,6,0,B|132:104|132:104|100:216,1,160,4|0,0:0|0:0,0:0:0:0:
152,316,55255,2,0,P|192:280|232:280,1,80,8|0,0:0|0:0,0:0:0:0:
248,280,55512,1,0,0:0:0:0:
280,280,55598,1,8,0:0:0:0:
408,264,55769,6,0,L|420:224,3,40
436,180,56112,6,0,P|376:124|276:140,1,160,4|0,0:0|0:0,0:0:0:0:
240,200,56626,1,8,0:0:0:0:
92,164,56798,1,0,0:0:0:0:
184,112,56969,1,2,0:0:0:0:
144,256,57141,2,0,L|116:352,1,80,2|8,0:0|0:0,0:0:0:0:
284,320,57483,6,0,P|328:344|412:276,1,160,2|0,0:0|0:0,0:0:0:0:
436,204,57998,1,8,0:0:0:0:
276,72,58341,1,0,0:0:0:0:
240,200,58512,1,0,0:0:0:0:
344,184,58683,1,8,0:0:0:0:
376,88,58855,6,0,L|404:8,1,80,2|0,0:0|0:0,0:0:0:0:
184,108,59198,2,0,L|140:36,2,80,2|8|0,0:0|0:0|0:0,0:0:0:0:
288,272,59712,1,2,0:0:0:0:
384,280,59883,2,0,P|375:308|344:348,1,80,0|8,0:0|0:0,0:0:0:0:
140,340,60226,6,0,P|98:287|134:171,1,160,2|2,0:0|0:0,0:0:0:0:
129,94,60741,2,0,L|200:132,1,80,8|0,0:0|0:0,0:0:0:0:
312,132,61083,2,0,L|388:92,1,80,10|0,0:0|0:0,0:0:0:0:
416,76,61341,1,0,0:0:0:0:
448,56,61426,1,8,0:0:0:0:
402,198,61598,6,0,P|416:275|372:340,1,160,4|0,0:0|0:0,0:0:0:0:
332,336,62026,1,0,0:0:0:0:
296,328,62112,2,0,P|252:312|212:312,1,80,8|0,0:0|0:0,0:0:0:0:
124,332,62455,1,0,0:0:0:0:
32,304,62626,1,0,0:0:0:0:
52,264,62712,1,0,0:0:0:0:
92,244,62798,1,8,0:0:0:0:
88,132,62969,2,0,L|92:52,1,80
200,88,63312,5,0,0:0:0:0:
192,176,63483,1,8,0:0:0:0:
304,88,63655,5,0,0:0:0:0:
328,172,63826,1,0,0:0:0:0:
392,28,63998,5,0,0:0:0:0:
452,92,64169,1,8,0:0:0:0:
444,296,64341,6,0,P|376:272|284:288,1,160,2|0,0:0|0:0,0:0:0:0:
208,320,64855,1,10,0:0:0:0:
136,188,65026,1,0,0:0:0:0:
248,172,65198,1,2,0:0:0:0:
112,284,65369,1,2,0:0:0:0:
88,108,65541,1,8,0:0:0:0:
216,84,65712,6,0,P|288:60|376:72,1,160,4|2,0:0|0:0,0:0:0:0:
440,136,66226,1,8,0:0:0:0:
444,232,66398,1,2,0:0:0:0:
384,308,66569,1,0,0:0:0:0:
384,308,66655,1,0,0:0:0:0:
384,308,66741,2,0,L|309:338,1,80,4|0,3:0|0:0,0:0:0:0:
300,188,67083,6,0,B|248:212|248:212|124:180,1,160,4|0,0:0|0:0,0:0:0:0:
80,256,67598,2,0,L|160:280,1,80,8|0,0:0|0:0,0:0:0:0:
216,120,67941,1,2,0:0:0:0:
128,88,68112,1,2,0:0:0:0:
60,152,68283,1,8,0:0:0:0:
224,288,68455,6,0,P|260:316|376:308,1,160,2|0,0:0|0:0,0:0:0:0:
416,224,68969,1,8,0:0:0:0:
284,64,69312,1,0,0:0:0:0:
300,184,69483,1,0,0:0:0:0:
384,116,69655,1,8,0:0:0:0:
208,128,69826,6,0,L|128:116,1,80,2|0,0:0|0:0,0:0:0:0:
36,168,70169,1,2,0:0:0:0:
56,268,70341,2,0,P|104:296|196:232,1,160,8|0,0:0|0:0,0:0:0:0:
184,96,70855,2,0,L|105:81,1,80,2|8,0:0|0:0,0:0:0:0:
312,56,71198,6,0,P|364:44|424:128,1,160,2|2,0:0|0:0,0:0:0:0:
432,216,71712,1,8,0:0:0:0:
396,300,71883,2,0,P|360:336|332:356,1,80,2|8,0:0|0:0,0:0:0:0:
256,248,72226,2,0,L|256:164,1,80,0|8,0:0|0:0,0:0:0:0:
164,348,72569,6,0,P|112:304|76:220,1,160,6|0,0:0|0:0,0:0:0:0:
72,176,72998,1,0,0:0:0:0:
84,136,73083,1,8,0:0:0:0:
132,52,73255,2,0,P|180:48|220:72,1,80
284,136,73598,1,0,0:0:0:0:
360,60,73769,2,0,P|396:45|435:51,1,80,8|0,0:0|0:0,0:0:0:0:
460,216,74112,5,2,0:0:0:0:
372,264,74283,1,0,0:0:0:0:
352,252,74369,2,0,P|280:244|232:288,1,120,2|0,0:0|0:0,0:0:0:0:
308,336,74798,1,2,0:0:0:0:
216,312,74969,1,2,0:0:0:0:
116,320,75141,1,8,0:0:0:0:
144,232,75312,6,0,P|192:220|224:204,1,80,2|0,0:0|0:0,0:0:0:0:
100,144,75655,2,0,P|120:96|124:64,1,80,0|8,0:0|0:0,0:0:0:0:
288,32,75998,1,0,0:0:0:0:
444,68,76169,2,0,P|451:107|467:143,1,80,2|0,0:0|0:0,0:0:0:0:
348,206,76512,2,0,P|385:223|423:231,1,80,8|0,0:0|0:0,0:0:0:0:
219,299,76855,6,0,B|200:244|200:196|200:196|216:144,1,160,4|8,0:0|0:0,0:0:0:0:
315,182,77369,2,0,B|264:212|220:216|220:216|164:200,1,160,4|8,3:0|0:0,0:0:0:0:
256,64,77883,1,4,3:0:0:0:
272,244,78055,2,0,B|284:296|284:296|320:340|380:352,1,160,4|0,0:0|0:0,0:0:0:0:
468,192,78569,5,10,0:0:0:0:
212,320,78912,1,2,0:0:0:0:
352,184,79255,1,10,0:0:0:0:
196,212,79598,5,2,0:0:0:0:
288,248,79769,1,0,0:0:0:0:
338,95,79941,2,0,P|260:84|188:116,2,160,8|2|8,0:0|0:0|0:0,0:0:0:0:
131,22,80798,2,0,P|94:92|88:172,1,160,2|2,0:0|0:0,0:0:0:0:
108,280,81312,5,8,0:0:0:0:
352,184,81655,1,2,0:0:0:0:
180,156,81998,1,10,0:0:0:0:
328,88,82341,5,2,0:0:0:0:
228,72,82512,1,0,0:0:0:0:
256,236,82683,1,8,0:0:0:0:
256,236,82855,2,0,L|260:336,1,80,2|4,0:0|0:0,0:0:0:0:
172,344,83198,1,0,0:0:0:0:
172,344,83283,1,0,0:0:0:0:
172,344,83369,1,8,0:0:0:0:
372,268,83541,6,0,P|416:232|408:120,1,160,4|0,0:0|0:0,0:0:0:0:
308,80,84055,1,10,0:0:0:0:
272,96,84398,1,0,0:0:0:0:
236,112,84741,1,10,0:0:0:0:
200,128,85083,5,2,0:0:0:0:
200,128,85255,1,0,0:0:0:0:
128,196,85426,2,0,P|104:152|104:104,1,80,10|0,0:0|0:0,0:0:0:0:
180,32,85769,1,2,0:0:0:0:
240,148,85941,1,0,0:0:0:0:
324,52,86112,1,8,0:0:0:0:
364,168,86283,6,0,P|368:212|448:304,1,160,2|2,0:0|0:0,0:0:0:0:
296,356,86798,1,8,0:0:0:0:
256,340,87141,1,2,0:0:0:0:
216,328,87483,1,8,0:0:0:0:
176,316,87826,5,4,0:0:0:0:
108,176,87998,1,0,0:0:0:0:
108,176,88083,1,0,0:0:0:0:
108,176,88169,2,0,P|152:168|200:168,1,80,8|2,0:0|0:0,0:0:0:0:
296,56,88512,1,0,0:0:0:0:
296,56,88598,1,0,0:0:0:0:
296,56,88683,2,0,P|352:48|392:48,1,80,2|8,0:0|0:0,0:0:0:0:
428,140,89026,5,4,0:0:0:0:
256,192,89541,12,0,90569,0:0:0:0:
