osu file format v5

[General]
AudioFilename: 02 A Town Called Hypocrisy.mp3
AudioLeadIn: 0
PreviewTime: -1
Countdown: 1
SampleSet: Normal
StackLeniency: 0.7
Mode: 0
LetterboxInBreaks: 1
EditorBookmarks: 11495,83507,162564,185955

[Metadata]
Title:A Town Called Hypocrisy
Artist:Lostprophets
Creator:MaxwellDemon
Version:Normal
Source:
Tags:

[Difficulty]
HPDrainRate:5
CircleSize:5
OverallDifficulty:6
SliderMultiplier:1.4
SliderTickRate:1

[Events]
//Background and Video events
//Break Periods
2,80528,83359
2,86422,92156
2,150165,161698
//Storyboard Layer 0 (Background)
//Storyboard Layer 1 (Failing)
//Storyboard Layer 2 (Passing)
//Storyboard Layer 3 (Foreground)
//Storyboard Sound Samples
//Background Colour Transformations
3,100,163,162,255

[TimingPoints]
6085,362.647325475975,4,1,0,100,1

[HitObjects]
256,192,11887,1,0
368,192,12250,1,0
368,80,12612,1,0
256,80,12975,1,0
144,80,13337,1,0
144,192,13700,1,2
144,192,13881,1,2
144,192,14063,1,2
144,192,14244,1,2
144,192,14425,1,2
256,192,14788,5,0
368,192,15151,1,0
368,80,15513,1,0
480,80,15876,1,0
480,192,16239,1,0
480,304,16601,1,2
480,304,16783,1,2
480,304,16964,1,2
480,304,17145,1,2
480,304,17327,1,2
480,304,17508,1,2
480,304,17689,1,6
368,304,18052,5,0
256,304,18415,1,0
256,192,18777,1,0
256,80,19140,1,0
368,80,19502,2,2,C|440:80,4,70
256,80,20590,5,0
144,80,20953,1,0
144,192,21316,1,0
256,192,21678,1,0
368,192,22041,1,0
368,80,22404,2,6,C|368:8,6,70
176,192,24217,5,0
176,192,24398,1,0
288,192,24761,1,0
288,80,25123,1,0
176,80,25486,1,0
64,80,25849,1,0
64,192,26211,1,0
64,192,26393,5,2
176,192,26755,1,2
288,192,27118,1,2
400,192,27481,1,2
400,24,28025,1,0
400,24,28206,1,2
400,136,28569,1,2
400,248,28931,1,2
128,192,29838,5,0
128,192,30019,1,0
128,192,30201,1,0
128,80,30563,1,0
240,80,30926,1,0
240,192,31288,1,0
360,192,31651,1,0
360,80,32014,1,0
360,80,32195,5,2
472,80,32558,1,2
472,192,32920,1,2
472,296,33283,1,2
360,296,33646,2,4,C|360:256|328:248,8,70
256,96,35822,5,0
256,96,36003,1,0
256,208,36366,1,0
256,320,36728,1,0
360,320,37091,1,0
360,208,37453,1,0
360,96,37816,1,0
360,96,37997,5,2
248,96,38360,1,2
136,96,38723,1,2
24,96,39085,1,2
160,192,39629,1,0
160,192,39811,1,2
272,192,40173,1,2
384,192,40536,1,2
48,192,41624,5,0
48,192,41805,1,0
160,192,42168,2,0,C|208:192|208:160|240:136|240:104,4,140
160,192,43800,5,2
272,192,44162,1,2
384,192,44525,1,2
384,192,44706,1,2
384,192,44888,1,2
496,192,45250,2,6,C|496:264,8,70
496,80,47064,5,0
496,80,47245,1,0
496,80,47426,1,0
328,80,47970,1,2
160,80,48514,1,0
160,80,48696,1,0
160,80,48877,1,0
160,248,49421,1,2
328,248,49965,2,0,C|400:248,2,70
328,136,50690,1,4
328,136,50871,1,4
216,136,51234,5,0
216,136,51415,1,0
216,136,51597,1,0
216,136,51778,1,0
216,256,52141,1,2
216,256,52322,1,2
384,256,52866,1,0
384,256,53047,1,0
384,256,53229,1,0
384,144,53591,1,2
384,144,53773,1,2
216,144,54317,1,0
216,144,54498,1,0
216,144,54679,1,0
216,256,55042,1,2
216,256,55223,1,2
416,256,55858,5,0
416,256,56039,1,0
416,256,56220,1,0
416,144,56583,1,0
304,144,56946,1,0
192,144,57308,1,6
192,144,57490,1,6
80,144,57852,1,6
80,256,58215,6,4,C|136:256|152:216|192:208|208:168|248:160|239:158|240:160,4,210
352,192,61116,1,0
352,192,61298,1,0
240,192,61660,1,0
128,192,62023,1,0
128,80,62385,1,0
240,80,62748,2,4,C|168:80,3,70
168,192,63655,1,6
280,192,64017,1,6
504,192,64743,5,0
504,192,64924,1,0
392,192,65287,1,0
280,192,65649,1,0
168,192,66012,1,0
256,192,66284,12,0,68732
432,128,69820,6,4,C|376:128|360:168|320:176|304:216|264:224|273:226|272:224,4,210
160,192,72721,1,0
160,192,72902,1,0
272,192,73265,1,0
384,192,73628,1,0
384,304,73990,1,0
272,304,74353,2,4,C|344:304,3,70
344,192,75259,1,6
232,192,75622,1,6
8,192,76347,5,0
8,192,76529,1,0
120,192,76891,1,0
232,192,77254,1,0
344,192,77617,1,0
256,192,77889,12,0,80337
240,64,84416,6,6,L|384:64,2,140
176,160,85504,1,6
240,240,85867,2,6,B|279:319|384:256,1,140
112,64,93120,5,0
112,192,93664,1,0
112,192,93845,2,0,B|171:271|80:320,1,140
96,312,94389,2,0,B|224:382|272:248,1,210
267,261,95114,2,0,B|267:165|299:117,1,140
368,48,95840,1,0
256,192,96021,12,4,98560
112,80,98922,5,6
216,80,99285,1,0
272,80,99466,1,0
328,80,99648,2,0,B|403:191|280:288,1,210
208,320,100554,1,0
104,288,100917,2,0,B|72:224|104:144,1,140
176,72,101642,1,0
256,192,101823,12,4,103637
80,96,103999,6,0,B|240:96,1,140
328,96,104725,1,0
392,240,105450,1,0
392,240,105631,1,0
336,240,105813,2,0,B|176:240,1,140
360,104,106900,1,0
360,104,107082,1,0
248,104,107444,2,0,B|104:104,3,140
104,208,108895,2,0,B|104:368,1,140
200,216,109802,5,4
200,216,109983,1,4
200,216,110164,2,0,B|370:250|312:88,1,210
424,112,111071,1,0
424,272,111615,1,4
424,272,111796,1,0
320,312,112159,1,0
208,304,112521,1,0
208,304,112703,2,0,B|216:232,1,70
224,184,113065,2,0,B|296:192,1,70
344,200,113428,2,0,B|360:120,1,70
358,132,113791,1,0
358,132,113972,1,0
272,64,114335,5,6
272,64,114516,1,6
272,64,114697,1,6
192,136,115060,2,0,B|176:104|96:120,1,70
144,224,115604,2,4,B|192:288|288:288,1,140
264,288,116148,2,0,B|360:288|408:208,1,140
389,235,116692,1,0
456,152,117055,2,4,B|360:120|296:184,1,140
272,192,117599,1,0
224,160,117780,1,0
136,96,118143,1,0
80,184,118505,2,4,B|48:248|80:344,1,140
128,336,119049,1,0
256,56,119593,6,0,B|307:122|416:72,3,140
360,40,120862,2,0,B|394:23|456:32,1,70
456,136,121406,2,4,B|482:225|400:280,1,140
392,216,121950,2,0,B|310:233|312:328,1,140
312,312,122494,1,0
256,216,122857,2,4,B|160:184|96:248,1,140
123,226,123401,1,0
123,226,123582,1,0
96,120,123945,1,0
192,80,124308,2,4,B|256:48|352:80,1,140
376,104,124851,1,0
256,192,125214,12,4,127481
96,96,127843,6,4,B|288:64|360:136,1,245
416,240,128931,2,4,B|352:304|160:304,1,245
264,160,130110,1,0
72,64,130835,1,0
96,112,131017,2,0,B|109:171|176:128,1,70
200,152,131379,2,0,B|296:152|280:248,2,140
288,88,132467,1,0
360,48,132648,2,0,B|472:48|456:208,1,210
416,240,133374,1,4
360,256,133555,2,4,B|264:240,1,70
104,224,134462,5,0
104,224,134643,1,0
192,280,135006,1,0
248,192,135368,1,0
264,88,135731,2,0,B|376:104|376:264,1,210
280,296,136638,1,0
248,192,137000,1,0
168,120,137363,2,0,B|101:169|152:264,3,140
128,80,139448,6,4,B|320:48|392:120,1,245
400,176,140627,2,4,B|246:329|128:232,1,280
248,160,141715,1,0
400,312,142440,1,0
376,264,142621,2,0,B|363:205|296:248,1,70
320,176,142984,2,0,B|416:176|400:80,2,140
320,64,144072,1,0
240,88,144253,2,0,B|128:88|144:248,1,210
144,240,144978,1,4
144,240,145160,2,4,B|240:224,1,70
392,288,146066,5,0
392,288,146248,1,0
400,176,146610,1,0
320,104,146973,1,0
216,80,147336,2,0,B|104:96|104:232,1,175
208,272,148152,1,0
312,304,148514,1,0
208,272,148877,1,6
312,304,149240,1,6
312,192,149602,1,6
360,96,149965,1,6
256,192,162748,5,0
88,192,163292,1,0
88,24,163836,1,0
312,24,164561,1,6
424,24,164924,1,6
424,136,165287,1,6
312,136,165649,1,0
312,304,166193,1,0
152,304,166737,1,0
152,136,167281,2,6,C|152:48,7,70
320,64,169094,5,0
424,192,169638,1,0
256,192,170182,1,6
256,192,170364,1,6
256,192,170545,1,6
256,192,170726,1,6
256,192,170908,1,6
256,192,171089,1,6
256,192,171270,1,6
256,192,171452,1,0
88,192,171996,1,0
88,360,172540,1,0
256,360,173084,1,0
256,360,173265,1,0
256,360,173446,1,0
256,360,173628,1,2
256,248,173990,1,2
256,248,174172,1,2
256,56,175078,1,2
256,168,175441,1,2
256,168,175622,1,2
464,352,176529,1,2
464,240,176891,1,2
464,240,177073,1,2
256,64,177979,1,0
256,184,178342,1,0
256,184,178523,1,0
8,24,179430,1,2
96,96,179793,1,2
96,96,179974,1,2
256,344,180881,1,2
256,224,181243,1,2
256,224,181424,1,2
480,32,182331,1,2
392,112,182694,1,2
392,112,182875,1,2
176,192,183600,1,0
176,192,183782,1,0
176,192,183963,1,0
296,192,184326,1,0
416,192,184688,1,0
296,192,185051,1,0
296,192,185232,1,0
216,280,185595,1,0
104,232,185958,6,6,B|-27:132|192:16,1,280
200,128,187046,2,6,B|331:289|184:376,1,280
168,264,188133,1,0
112,56,188859,1,0
152,88,189040,2,0,B|165:147|168:168,1,70
200,192,189403,2,0,B|296:192|280:96,2,140
288,256,190491,1,0
336,320,190672,2,0,B|448:320|432:160,1,210
432,168,191397,1,4
432,168,191579,2,4,B|416:72,1,70
256,80,192485,5,0
256,80,192667,1,0
256,184,193029,1,0
256,288,193392,1,0
152,312,193754,2,0,B|40:296|40:136,1,210
136,200,194661,1,0
160,96,195024,1,0
256,192,195205,12,0,196474
96,96,197562,6,6,L|112:232|216:104,1,280
288,56,198650,2,6,B|352:120|352:328,1,280
232,224,199738,1,0
80,64,200463,1,0
88,120,200645,2,0,B|101:179|160:168,1,70
184,144,201007,2,0,B|280:144|264:240,2,140
200,248,202095,1,0
192,304,202277,2,4,B|304:304|288:144,1,210
344,152,203002,2,6,B|344:248,1,70
344,272,203365,2,6,B|488:304,1,140
440,120,204090,5,0
440,120,204271,1,0
344,64,204634,1,0
232,72,204997,1,0
136,128,205359,2,0,B|152:240|312:240,1,210
280,128,206266,1,0
360,200,206628,1,0
256,192,206810,12,0,209167
