osu file format v6

[General]
AudioFilename: Lost_Universe.mp3
AudioLeadIn: 0
PreviewTime: -1
Countdown: 1
SampleSet: Normal
StackLeniency: 0.7
Mode: 0
LetterboxInBreaks: 1

[Editor]
DistanceSpacing: 0.800000011920929
BeatDivisor: 4
GridSize: 8

[Metadata]
Title:Lost_Universe
Artist:
Creator:abcde1234qaz
Version:Hard
Source:
Tags:

[Difficulty]
HPDrainRate:7
CircleSize:4
OverallDifficulty:7
SliderMultiplier:1.4
SliderTickRate:1

[Events]
//Background and Video events
Video,0,"Lost_Universe.AVI"
0,0,"c8d72ceff1945c10adafd55b.jpg"
//Break Periods
//Storyboard Layer 0 (Background)
//Storyboard Layer 1 (Fail)
//Storyboard Layer 2 (Pass)
//Storyboard Layer 3 (Foreground)
//Storyboard Sound Samples
//Background Colour Transformations
3,100,163,162,255

[TimingPoints]
0,416.666666666667,4,1,0,100,1,0
16944,-100,4,2,0,100,0,0
30069,-100,4,1,0,100,0,0
43333,-100,4,1,0,100,0,1
44305,-100,4,1,0,100,0,0
52812,-100,4,2,0,100,0,0
55937,-100,4,2,0,100,0,0
56875,-50,4,1,0,100,0,1
58333,-100,4,1,0,100,0,1
70104,-50,4,1,0,100,0,1
72500,-100,4,1,0,100,0,1
84895,-100,4,1,0,100,0,0
91250,-100,4,1,0,100,0,1

[Colours]
Combo1 : 255,255,128
Combo2 : 5,240,5
Combo3 : 5,5,240
Combo4 : 240,5,5

[HitObjects]
120,72,4041,1,0
256,72,4416,1,0
392,72,4833,1,0
384,216,5666,1,0
256,216,5958,1,0
128,216,6291,1,0
128,152,7333,5,0
128,152,7749,1,0
128,152,8166,1,0
128,152,8541,2,0,B|144:96|200:72|232:64|256:96|288:144,2,210
256,208,10124,12,0,10708
256,192,11083,5,0
256,192,11458,1,0
256,192,11874,1,0
200,192,12291,2,0,B|312:192,2,105
160,104,13958,5,0
352,104,14375,5,0
352,256,14791,5,0
160,256,15208,5,0
264,136,15625,6,0,B|264:240,3,87.5
40,88,17291,5,2
144,88,17708,1,2
256,88,18124,1,2
368,88,18541,2,2,B|456:88|480:96|504:120|520:144|488:176|456:192|424:192|384:200|368:200|360:192|368:184,1,280
377,195,19739,1,0
88,296,20499,1,0
184,296,20958,5,0
280,296,21416,1,0
376,296,21916,1,0
376,296,22333,2,0,B|488:296,3,93.3333333333333
80,72,23875,1,0
184,72,24291,5,0
288,72,24750,1,0
392,72,25208,1,0
392,72,25583,2,0,B|504:72,3,93.3333333333333
96,168,27208,2,0,B|256:168,1,140,0|0
242,168,27986,5,0
240,208,28458,1,0
240,208,28875,2,0,B|368:208,2,116.666666666667
80,56,30541,1,0
160,56,30972,6,0,B|160:208,1,140
160,191,31805,1,0
68,193,32187,2,0,B|68:85,3,105
464,344,33833,1,0
464,288,34291,6,0,B|464:144,1,140
408,151,35124,1,0
496,152,35541,2,0,B|400:152,3,87.5
40,40,37166,2,0,B|40:184,1,140
104,176,37986,2,0,B|104:24,1,140
38,143,38819,6,0,B|40:32,3,105
448,296,40486,2,0,B|288:296,1,140
268,296,41319,6,0,B|120:296,1,140
112,184,42166,1,0
176,184,42499,1,0
176,120,42749,1,0
112,120,42999,1,0
256,208,43541,12,0,44166
144,64,45000,6,0,C|64:112|144:144|56:200|120:216,1,350
120,280,46562,2,0,L|32:280,2,70
176,280,47187,2,0,L|256:280,1,70
302,279,47604,2,0,L|390:279,1,70
428,280,48020,2,0,L|516:280,3,70
499,280,48854,5,0
256,208,49611,12,0,50520
256,208,51145,12,0,51979
152,160,53125,6,0,B|184:96|208:96|240:128|240:168|240:200|192:216|136:208|104:176|104:144|144:96|160:80|200:64,1,350
368,112,54791,2,0,B|336:176|312:176|280:144|280:104|280:72|328:56|384:64|416:96|416:128|376:176,1,315
256,208,56041,12,0,56597
256,56,56979,6,0,B|256:200,1,140
256,196,57395,1,0
256,56,57604,1,0
171,127,57812,1,0
336,128,58020,1,0
256,128,58229,1,0
168,128,58437,1,0
120,128,58611,6,0,L|176:128,1,35
176,128,58999,2,0,L|240:128,1,35,0|0
211,128,59375,2,0,L|210:230,1,70
364,120,60104,6,0,B|348:208|348:240|324:272|324:360|268:352|132:336,1,350
168,278,61354,1,0
172,220,61562,1,0
173,159,61770,2,0,B|208:25|400:25,1,280
424,32,63437,5,0
424,32,63541,1,0
424,32,63645,2,0,L|424:112,1,70
424,160,64062,2,0,L|424:250,1,70,0|0
424,232,64479,2,0,L|424:324,3,70
424,200,65312,1,0
464,162,65499,1,0
416,160,65666,1,0
360,160,65888,1,0
288,160,66166,1,0
48,176,66875,1,0
48,176,66979,5,0
48,176,67395,2,0,L|184:72,1,140
184,88,68229,2,0,L|296:192,1,140
352,152,69166,2,0,L|256:64,1,105
56,320,70104,6,0,B|216:200,1,175
248,176,70520,1,0
303,212,70729,2,0,B|451:341,3,175
435,326,71770,1,0
432,328,71979,2,0,B|432:160,2,140
368,320,72604,1,0
368,320,72812,1,0
360,128,73750,5,0
272,128,73958,1,0
192,128,74270,1,0
192,184,74479,1,0
192,128,74687,1,0
192,184,74895,1,0
192,128,75104,1,0
192,184,75312,2,0,B|288:192|304:168|296:144|288:64|152:56|144:80|176:184,1,315
56,72,76777,5,0
96,72,76944,1,0
136,72,77083,1,0
192,72,77291,1,0
248,72,77499,1,0
304,72,77708,2,0,B|368:72,2,35
336,72,78125,1,0
336,128,78333,1,0
336,184,78541,1,0
336,240,78750,1,0
272,240,78999,2,0,B|176:240,2,70
112,224,79999,1,0
112,216,80166,6,0,L|48:216|48:128|112:128,1,210
112,128,81111,2,0,L|184:128|184:224|176:224,1,140
256,208,81875,12,0,84479
144,112,85312,5,0
256,112,85729,1,0
368,112,86145,1,0
368,112,86979,1,0
256,112,87291,1,0
144,112,87604,1,0
144,232,88541,5,0
144,232,88958,1,0
144,232,89375,1,0
144,232,89791,2,0,C|168:272|184:232|208:272,2,105
144,320,90729,2,0,C|264:320,1,105
256,208,91354,12,0,96420
