osu file format v4

[General]
AudioFilename: Rooftops.mp3
AudioLeadIn: 0
AudioHash: 5474f8903fb9caee65f14c4672005647
PreviewTime: -1
Countdown: 1
SampleSet: Soft
EditorBookmarks: 15326,119041,206854

[Metadata]
Title:Rooftops
Artist:Lost Prophets
Creator:Darushi
Version:Easy

[Difficulty]
HPDrainRate:5
CircleSize:3
OverallDifficulty:5
SliderMultiplier: 0.4
SliderTickRate: 1

[Events]
//Background and Video events
//Break Periods
2,79837,101265
2,144404,166258
//Storyboard Layer 0 (Background)
//Storyboard Layer 1 (Failing)
//Storyboard Layer 2 (Passing)
//Storyboard Layer 3 (Foreground)
//Storyboard Sound Samples
//Background Colour Transformations
3,100,0,0,81

[TimingPoints]
15326,340.722133938706,4,2,0,100

[Colours]
Combo1 : 242,242,242
Combo2 : 31,31,31

[HitObjects]
160,160,16050,5,0
320,160,17711,1,0
416,160,18733,1,0
256,64,21458,5,2
256,160,23077,1,0
256,224,24184,1,0
128,128,26825,5,0
256,128,28528,1,0
352,128,29551,1,0
224,256,31936,1,0
288,256,32617,1,0
96,128,37728,5,2
192,128,39347,1,0
256,128,40369,1,0
352,128,42754,1,0
352,224,43094,2,2,B|352:224|32:224,1,315
160,128,48461,5,0
256,128,50164,1,0
352,128,51187,1,0
224,192,53444,1,0
288,192,54253,1,0
160,128,56894,5,2
256,128,57575,1,2
352,128,58256,1,2
416,64,59619,5,0
416,160,60982,1,0
416,256,62345,2,0,B|416:256|288:256,1,120
96,64,65071,5,0
96,192,66434,1,0
192,192,67797,2,0,B|192:192|320:192,1,120
256,64,70437,5,0
256,160,71800,1,0
192,256,73163,2,0,B|192:256|320:256,1,120
256,288,75889,5,0
256,224,77252,1,0
192,128,78615,2,2,B|192:128|320:128,1,120
256,192,102465,5,0
192,256,104084,1,0
128,192,105106,1,0
128,128,107320,2,0,B|128:128|192:128,1,60
256,64,113198,5,0
320,96,114859,1,0
256,128,115881,1,2
256,192,118224,1,0
192,256,118564,2,0,B|192:256|320:256,4,120
160,192,124271,5,2
256,192,125634,1,2
352,128,126997,2,2,B|352:128|352:256,1,120
256,64,129638,5,0
256,160,131001,1,0
256,160,132364,2,0,B|256:160|256:288,1,120
256,320,135047,5,0
256,224,136410,1,0
256,224,137773,2,0,B|256:224|256:96,1,120
352,192,140456,5,0
256,192,141819,1,0
160,128,143182,2,0,B|160:128|160:256,1,120
128,128,167458,5,0
224,128,168139,2,0,B|224:128|256:128,1,30
448,64,170099,5,0
448,160,170780,2,0,B|448:160|448:192,1,30
320,320,172739,5,0
224,320,173420,2,0,B|224:320|224:288,1,30
224,192,175465,5,0
224,96,176146,2,0,B|224:96|192:96,1,30
128,96,178191,5,0
128,192,178872,2,0,B|128:192|128:224,1,30
128,288,180831,5,0
224,288,181512,2,0,B|224:288|256:288,1,30
352,288,183557,5,0
448,288,184238,2,0,B|448:288|448:256,1,30
448,192,186198,5,0
352,192,186879,2,0,B|352:192|320:192,1,30
160,192,188923,5,0
224,192,190286,1,0
288,192,191564,2,4,B|288:192|416:192,2,120
384,96,194290,6,2,B|384:96|96:96,2,280
384,192,199656,6,0,B|384:192|96:192,2,280
384,288,205023,6,2,B|384:288|96:288,1,280
96,192,208685,1,2
96,64,210389,5,0
96,160,211752,1,0
96,256,213115,2,0,B|96:256|224:256,1,120
288,256,215755,5,0
288,160,217118,1,0
288,64,218481,2,0,B|288:64|160:64,1,120
416,64,221122,5,0
416,160,222485,1,0
416,256,223848,2,0,B|416:256|288:256,1,120
256,192,226488,12,0,228958
