osu file format v3

[General]
AudioFilename: 07 Hardrock Hallelujah.mp3
AudioLeadIn: 0
AudioHash: bc924d3fd604e83917b76d20060aeb3e
PreviewTime: 70711
SampleSet: Normal
EditorBookmarks: 16020,31630,47240,62850,77485,94070,101876,117486,132120,148706,168219,176024,189683,204318,219928,236514

[Metadata]
Title:Hardrock Hallelujah
Artist:Lordi
Creator:Machu
Version:Easy

[Difficulty]
HPDrainRate:5
CircleSize:4
OverallDifficulty:2
SliderMultiplier: 0.7
SliderTickRate: 2

[Events]
2,47008,61706
2,93081,100949
2,167961,175098
3,0,204,102,102

[TimingPoints]
16020,487.818696852294

[HitObjects]
32,32,16507,1,0,
192,32,17483,1,0,
320,32,18215,1,0,
32,352,20410,5,0,
32,192,21386,1,0,
32,64,22117,1,4,
480,352,24312,5,0,
480,192,25288,1,0,
480,64,26020,1,0,
32,352,28215,5,0,
160,224,29191,1,0,
256,128,29922,1,4,
96,192,31630,5,0,
256,192,32605,1,0,
416,192,33581,1,0,
320,96,34313,1,4,
96,96,35532,5,0,
96,256,36508,1,0,
256,256,37483,1,0,
384,256,38215,1,4,
448,128,39435,5,0,
320,32,40410,1,0,
160,32,41386,1,0,
160,160,42118,1,4,
192,256,43337,5,0,
352,256,44313,1,0,
256,192,45045,12,4,46752
224,32,62850,5,0,
256,96,63338,1,0,
288,160,63826,1,0,
288,320,64801,1,0,
160,320,65533,1,2,
32,352,66753,5,2,
96,160,67728,1,2,
160,256,68460,1,4,
224,352,70655,5,0,
256,288,71143,1,0,
288,224,71631,1,0,
288,64,72606,1,0,
416,64,73338,1,2,
480,32,74802,6,4,B|480:32|480:160|352:192,1,210
256,192,77703,5,4,
224,288,78460,2,2,B|224:288|320:288,1,70
416,160,79924,1,2,
416,64,80412,2,4,B|416:64|224:64,1,175
32,32,82607,6,0,B|32:32|160:160,1,175
256,96,85046,1,4,
256,192,85534,5,4,
224,288,86265,2,2,B|224:288|320:288,1,70
416,160,87730,1,2,
416,64,88217,2,4,B|416:64|224:64,1,175
32,32,90412,2,4,B|32:32|160:160,2,175
256,32,102119,5,0,
256,128,102607,2,2,B|256:128|384:128,1,105
448,128,103827,1,0,
448,256,104559,1,0,
256,352,106022,6,2,B|256:352|256:224,2,105
128,224,108461,1,0,
32,32,109681,5,0,
96,96,110169,1,0,
160,160,110656,1,4,
320,128,111632,1,0,
320,256,112364,1,0,
256,192,113583,6,4,B|256:192|256:160|192:160|192:224|224:288|288:288|320:256|352:192|352:160|320:96|256:96|192:96,1,385
256,32,117486,5,0,
288,96,117974,1,0,
256,160,118462,1,0,
320,288,119437,1,0,
192,288,120169,1,2,
32,352,121389,5,2,
256,352,122364,1,2,
192,192,123096,1,4,
224,352,125291,5,0,
256,288,125779,1,0,
224,224,126267,1,0,
224,64,127242,1,0,
288,192,127974,1,2,
480,32,129437,6,4,B|480:32|480:160,2,105
256,192,132364,5,4,
160,224,133096,2,2,B|160:224|160:128,1,70
256,32,134585,1,2,
352,32,135047,2,4,L|352:32|448:32|448:128,1,175
480,352,137242,6,0,L|480:352|352:224,1,175
128,256,139682,1,4,
128,160,140169,5,4,
224,192,140901,2,2,L|224:192|224:96,1,70
384,96,142391,1,2,
448,160,142852,2,4,L|448:160|256:160,1,175
160,96,145048,6,4,L|160:96|352:96,2,175
256,192,148706,12,4,151633
32,192,152609,5,0,
288,32,154560,1,0,
416,160,155536,1,0,
480,160,156023,1,0,
480,224,156511,5,0,
224,352,158463,1,0,
160,96,160414,5,0,
352,96,161389,1,2,
352,288,162365,5,0,
160,288,163341,1,2,
160,192,163829,1,2,
256,192,164316,5,0,
448,192,165292,1,6,
256,192,166024,12,4,167731
160,192,176268,2,4,L|160:192|256:96|352:192|288:256,1,350
288,288,180170,6,6,L|288:288|288:160|224:160|224:96,1,245
256,192,182366,12,4,187732
96,192,190171,5,4,
256,192,191146,1,4,
384,192,191878,1,4,
64,32,194073,5,4,
64,192,195049,1,4,
64,320,195781,1,6,
256,32,197976,5,4,
256,192,198952,1,4,
256,320,199683,1,4,
64,64,201878,5,4,
256,64,202854,1,4,
160,128,203586,1,4,
160,192,204561,5,4,
256,192,205293,2,2,L|256:192|352:192,1,70
448,128,206782,1,2,
416,64,207244,2,4,L|416:64|224:64,1,175
32,32,209440,2,0,L|32:32|160:160,1,175
256,128,211879,1,4,
352,96,212367,5,4,
320,192,213098,2,2,L|320:192|416:192,1,70
352,320,214589,1,2,
256,320,215050,2,4,L|256:320|64:320,1,175
160,160,217245,6,4,L|160:160|352:160,2,175
192,256,220172,5,4,
224,160,220903,2,2,L|224:160|128:160,1,70
64,32,222367,1,2,
160,32,222855,2,4,L|160:32|352:32,1,175
352,192,224806,5,4,
256,96,225782,1,4,
160,192,226757,1,4,
256,288,227733,1,4,
96,256,228708,6,2,L|96:256|192:256,1,70
416,256,230146,1,2,
416,160,230660,2,4,L|416:160|224:160,1,175
160,96,232611,5,4,
352,96,233587,1,4,
352,288,234562,1,4,
160,288,235538,1,4,
256,192,236514,12,4,244319
