osu file format v9

[General]
AudioFilename: LOVE BEAM!.mp3
AudioLeadIn: 3000
PreviewTime: 59586
Countdown: 0
SampleSet: Normal
StackLeniency: 0.6
Mode: 0
LetterboxInBreaks: 1

[Editor]
Bookmarks: 54193,59586,91946
DistanceSpacing: 1.1
BeatDivisor: 4
GridSize: 8

[Metadata]
Title:Love * Beam
Artist:Loos
Creator:Natteke
Version:Normal
Source:
Tags:inaba-tan garven

[Difficulty]
HPDrainRate:2
CircleSize:4
OverallDifficulty:4
ApproachRate:5
SliderMultiplier:1.4
SliderTickRate:2

[Events]
//Background and Video events
0,0,"bg.jpg"
//Break Periods
2,92146,96139
//Storyboard Layer 0 (Background)
//Storyboard Layer 1 (Fail)
//Storyboard Layer 2 (Pass)
//Storyboard Layer 3 (Foreground)
//Storyboard Sound Samples
//Background Colour Transformations
3,100,163,162,255

[TimingPoints]
261,337.078651685393,4,1,0,60,1,0
11300,-100,4,2,0,60,0,0
11468,-100,4,1,0,60,0,0
11974,-100,4,2,0,60,0,0
12142,-100,4,1,0,60,0,0
12648,-100,4,2,0,60,0,0
12816,-100,4,1,0,60,0,0
13322,-100,4,2,0,60,0,0
13490,-100,4,1,0,60,0,0
13996,-100,4,2,0,60,0,0
14164,-100,4,1,0,60,0,0
14671,-100,4,2,0,60,0,0
14839,-100,4,1,0,60,0,0
15345,-100,4,2,0,60,0,0
15513,-100,4,1,0,60,0,0
16019,-100,4,2,0,60,0,0
16187,-100,4,1,0,60,0,0
24699,-100,4,2,0,60,0,0
27058,-100,4,1,0,60,0,0
35569,-100,4,2,0,60,0,0
35737,-100,4,1,0,60,0,0
36244,-100,4,2,0,60,0,0
36412,-100,4,1,0,60,0,0
36573,-100,4,2,0,60,0,0
36749,-100,4,1,0,60,0,0
36917,-100,4,2,0,60,0,0
37085,-100,4,1,0,60,0,0
37253,-100,4,2,0,60,0,0
37421,-100,4,1,0,60,0,0
37589,-100,4,2,0,60,0,0
37757,-100,4,1,0,60,0,0
42143,-100,4,2,0,60,0,0
42311,-100,4,1,0,60,0,0
42479,-100,4,2,0,60,0,0
42647,-100,4,1,0,60,0,0
42815,-100,4,2,0,60,0,0
42983,-100,4,1,0,60,0,0
52423,-100,4,2,0,60,0,0
52591,-100,4,1,0,60,0,0
53772,-100,4,2,0,60,0,0
53940,-100,4,1,0,60,0,0
54277,-100,4,2,0,60,0,0
57817,-100,4,1,0,60,0,0
61356,-100,4,2,0,45,0,0
61524,-100,4,1,0,60,0,0
61692,-100,4,2,0,45,0,0
61860,-100,4,1,0,60,0,0
62367,-100,4,2,0,50,0,0
62873,-100,4,1,0,50,0,0
63041,-100,4,2,0,50,0,0
63210,-100,4,1,0,60,0,0
63716,-100,4,2,0,60,0,0
63884,-100,4,1,0,60,0,0
64389,-100,4,2,0,60,0,0
64557,-100,4,1,0,60,0,0
80064,-100,4,2,0,60,0,0
80906,-100,4,1,0,60,0,0
97423,-100,4,2,0,60,0,0
98182,-100,4,1,0,60,0,0
98771,-100,4,2,0,60,0,0
99952,-100,4,1,0,60,0,0
100120,-100,4,2,0,60,0,0
102732,-100,4,1,0,60,0,1
117395,-100,4,1,0,60,0,0
117648,-100,4,2,0,60,0,0
117816,-100,4,1,0,60,0,0
118321,-100,4,2,0,60,0,0
118489,-100,4,1,0,60,0,0
118912,-100,4,1,0,60,0,1
128350,-100,4,1,0,60,0,0

[Colours]
Combo1 : 17,254,176
Combo2 : 173,255,95
Combo3 : 255,88,100
Combo4 : 255,94,55

[HitObjects]
64,272,261,5,0
144,272,429,1,0
104,200,598,1,8
248,112,935,5,0
168,112,1103,1,0
208,184,1272,1,8
352,272,1609,6,0,B|400:208|363:142,2,140,0|8|0
280,320,2452,1,8
200,320,2620,1,8
88,192,2957,6,0,B|72:160|80:112,1,70
144,72,3294,2,0,B|160:104|152:152,1,70,8|0
160,224,3631,2,0,B|200:208|240:224,1,70
272,296,3968,2,0,B|232:312|192:296,1,70,8|0
120,296,4305,6,0,B|-32:296,2,140,0|8|0
200,288,5148,1,8
208,200,5317,1,8
128,168,5485,1,0
64,224,5654,1,4
200,120,5991,5,8
256,280,6328,1,0
312,120,6665,1,8
360,280,7002,6,0,B|408:224,2,70,0|0|8
256,280,7676,6,0,B|248:352,2,70,0|0|8
152,280,8350,6,0,B|104:224,1,70
56,160,8687,1,8
56,160,9025,2,0,B|104:104,1,70
152,40,9362,1,8
192,112,9530,6,0,B|256:80|272:144|328:104,1,140
408,80,10036,1,8
256,192,10373,1,0
104,80,10710,1,8
256,32,11047,5,0
152,160,11384,2,0,B|96:224,2,70,8|0|4
256,296,12058,1,8
256,296,12227,2,0,B|256:144,1,140
336,176,12732,2,0,B|352:144|336:104,2,70,8|0|4
256,32,13407,1,12
256,32,13744,5,0
360,160,14081,2,0,B|416:224,2,70,8|0|4
256,296,14755,1,8
256,296,14924,2,0,B|256:144,1,140
176,176,15429,2,0,B|160:144|176:104,2,70,8|0|4
256,32,16104,1,12
400,72,16440,6,0,B|455:113|495:193|463:273|419:319,2,280,4|0|0
256,160,18126,1,0
256,328,18463,1,0
256,328,18631,1,0
256,328,18800,1,0
92,318,19137,6,0,B|49:273|17:193|57:113|112:72,2,280,0|0|0
208,200,20822,2,0,B|144:136|72:208,2,140
208,200,21834,6,0,B|224:128|312:96|384:136,1,210
413,208,22508,2,0,B|397:280|309:312|237:272,2,210
256,144,23856,1,0
96,200,24193,1,0
256,256,24530,5,0
256,256,24867,1,12
96,200,25541,1,12
256,144,26216,1,12
256,144,26553,2,0,B|256:72,2,70,2|0|12
368,272,27227,5,4
368,272,27564,1,8
232,272,27901,2,0,B|200:248|160:256,1,70
176,328,28238,2,0,B|94:351|48:264,2,140,8|0|8
336,328,29249,2,0,B|418:351|464:264,2,140,0|8|4
360,192,30260,5,8
256,96,30598,1,0
152,192,30935,1,8
176,328,31272,2,0,B|88:336,2,70,0|0|8
336,328,31946,2,0,B|424:336,2,70,0|0|8
360,192,32620,6,0,B|332:117|255:85|176:115|149:192,2,280
456,256,34305,5,8
368,328,34643,1,0
256,344,34980,1,8
144,328,35317,1,0
56,256,35655,1,4
56,144,35991,5,0
144,72,36329,1,4
256,56,36666,1,4
368,72,37003,1,4
456,144,37339,1,4
456,256,37676,1,4
456,256,38013,6,0,B|393:301|320:256,1,140,0|8
216,224,38687,2,0,B|147:181|84:226,1,140,0|8
40,328,39362,6,0,B|103:373|176:328,1,140,0|8
280,296,40036,2,0,B|348:253|411:298,1,140,0|8
496,232,40710,6,0,B|424:144|288:176,1,210
205,172,41384,2,0,B|88:144|16:232,1,210
16,231,42058,6,0,B|40:304,1,70,4|0
38,298,42395,2,0,B|96:240,1,70,4|0
87,248,42732,2,0,B|200:352,2,140,4|0|4
192,184,43744,6,0,B|160:112|192:40,1,140,8|0
272,128,44418,2,0,B|304:200|272:272,1,140,8|0
184,328,45092,1,8
72,328,45429,2,0,B|0:328,2,70,0|0|8
128,232,46103,5,0
112,120,46440,2,0,B|104:48,2,70,8|0|0
224,112,47114,2,0,B|240:264,2,140,8|0|8
328,80,48126,1,0
328,80,48294,1,0
328,80,48463,1,8
424,144,48800,6,0,B|392:208|432:288,1,140,4|8
328,320,49474,2,0,B|288:288|240:360|184:320,1,140,0|8
194,326,49980,2,0,B|232:248|184:176,1,140
193,191,50485,1,8
112,112,50822,1,0
224,88,51159,1,8
312,160,51496,6,0,B|416:248|512:136,2,210,4|4|4
200,224,52845,2,0,B|96:136|0:248,2,210,4|4|4
256,320,54193,5,4
256,320,54362,1,2
304,224,54699,1,2
384,144,55036,1,2
488,96,55373,1,2
488,96,55541,5,0
488,96,55710,1,2
384,144,56047,1,2
304,224,56384,1,2
256,320,56721,1,2
256,320,56890,6,4,B|128:330|59:194|121:72|262:78,1,420,4|0
376,72,58238,5,4
448,152,58575,1,4
344,192,58912,1,4
416,280,59249,1,4
326,343,59586,6,0,B|166:343,1,140,4|0
186,231,60260,2,0,B|346:231,1,140,0|0
328,176,60766,6,4,B|321:116|255:90|172:117|183:196,1,210
256,264,61609,1,4
256,264,61946,1,4
160,320,62283,6,0,B|136:296|96:304,2,70,4|2|8
160,320,62789,2,0,B|184:344|224:336,2,70,4|4|8
160,320,63294,1,0
160,320,63463,6,4,B|160:168,1,140
264,144,64137,2,4,B|264:296,1,140
312,312,64643,1,0
368,312,64811,1,0
424,312,64980,6,0,B|456:240|416:168,1,140,4|8
344,48,65654,2,0,B|308:111|340:183,1,140,0|8
340,182,66159,6,0,B|184:176,1,140
120,168,66665,2,0,B|112:256,1,70,8|0
168,296,67002,2,0,B|328:304,2,140,0|8|0
120,152,68013,5,8
256,80,68350,1,0
392,152,68687,1,8
392,152,68856,6,0,B|408:208|392:248|328:272,1,140,4|0
171,266,69530,2,0,B|120:248|104:208|120:152,1,140,4|0
256,80,70204,1,0
256,80,70373,6,0,B|256:240,1,140,4|8
384,304,71047,2,0,B|416:232|384:160,1,140,0|8
312,168,71553,6,0,B|283:232|315:304,1,140,0|0
315,303,72058,1,8
160,304,72395,1,0
8,304,72732,1,8
8,304,72901,6,0,B|39:232|11:168,1,140,0|0
11,168,73407,1,8
168,168,73744,1,0
320,168,74081,1,8
320,168,74249,6,0,B|344:96|312:16,3,140,0|4|0|4
184,112,75598,6,0,B|104:128|104:248|184:272,1,210,4|8
312,192,76440,2,0,B|160:192,1,140,0|8
171,192,76946,6,0,B|245:169|245:49|165:33,1,210,4|8
32,112,77789,2,0,B|184:112,1,140,0|8
328,112,78463,6,0,B|392:208|328:320,1,210,4|0
256,176,79305,1,0
178,310,79643,2,0,B|120:208|184:112,1,210,4|2
256,96,80317,1,0
328,112,80485,1,0
256,248,80822,1,4
448,272,81159,5,0
368,272,81327,1,0
408,200,81496,1,8
264,112,81833,5,0
344,112,82001,1,0
304,184,82170,1,8
160,272,82507,6,0,B|112:208|149:142,2,140,0|8|0
232,320,83350,1,8
312,320,83518,1,8
424,192,83855,6,0,B|440:160|432:112,1,70
368,72,84192,2,0,B|352:104|360:152,1,70,8|0
352,224,84529,2,0,B|312:208|272:224,1,70
240,296,84866,2,0,B|280:312|320:296,1,70,8|0
392,296,85203,6,0,B|544:296,2,140,0|8|0
312,288,86046,1,8
304,200,86215,1,8
384,168,86383,1,0
448,224,86552,1,4
312,120,86889,5,8
256,280,87226,1,0
200,120,87563,1,8
152,280,87900,6,0,B|104:224,2,70,0|0|8
256,280,88574,2,0,B|264:352,2,70,0|0|8
360,280,89248,6,0,B|408:224,1,70
368,160,89586,2,0,B|320:216,1,70,8|0
264,168,89923,6,0,B|216:112,1,70
256,48,90261,2,0,B|304:104,1,70,8|0
256,192,90598,12,4,91946
117,111,97339,6,0,B|413:111,1,280,4|4
395,273,98687,2,0,B|99:273,1,280,4|4
128,80,100036,6,4,B|184:144|328:144|387:72,1,280
324,301,101216,6,0,B|256:336|188:301,2,140,0|2|0
360,232,102058,1,4
256,120,102395,1,4
152,232,102732,6,0,B|0:232,2,140,4|8|0
256,120,103744,1,8
256,120,103912,6,0,B|416:120,1,140
464,160,104418,1,8
440,312,104755,1,0
288,280,105092,1,8
136,312,105429,6,0,B|104:240|144:176,2,140,0|8|0
288,280,106440,1,8
288,280,106609,2,4,B|320:208|280:144,3,140,4|0|4|0
144,80,107957,1,0
144,80,108126,6,0,B|112:144|144:216,1,140,4|8
256,104,108800,1,0
256,104,108968,1,0
256,104,109137,1,8
368,215,109474,6,0,B|400:144|368:80,1,140,0|8
256,184,110148,1,0
256,184,110317,1,8
256,184,110485,1,8
223,334,110822,6,0,B|257:349|298:333,1,70
352,288,111159,2,0,B|367:254|351:213,1,70,8|0
289,176,111496,2,0,B|255:161|214:177,1,70
160,222,111833,2,0,B|145:256|161:297,1,70,8|4
112,144,112339,5,0
256,88,112676,1,4
400,144,113013,1,0
424,296,113350,6,4,B|256:384|80:296,1,350,4|0
88,144,114530,1,0
88,144,114699,6,4,B|256:56|432:144,1,350,4|0
432,296,115878,1,0
432,296,116047,6,0,B|72:296,1,350,4|0
72,144,117227,1,0
72,144,117395,6,4,B|96:80|176:48,1,140
341,50,118069,2,4,B|416:80|440:144,1,140
384,288,118744,6,0,B|350:153|158:153|126:305,1,350,4|0
64,152,119923,1,8
64,152,120092,2,0,B|96:88|201:78,1,140
256,96,120598,1,8
448,232,120935,2,0,B|416:296|311:306,1,140,0|8
256,176,121609,5,4
256,176,121777,1,0
120,256,122114,1,0
256,336,122452,1,0
392,256,122789,1,0
376,24,123294,5,8
256,120,123631,1,0
136,24,123968,1,8
128,176,124305,6,0,B|96:240|128:328,1,140,4|8
264,368,124980,2,0,B|290:295|258:231,1,140,0|8
384,176,125654,2,0,B|416:240|384:328,3,140,4|8|0|8
256,192,127002,12,4,128350
