osu file format v5

[General]
AudioFilename: LOVE BEAM!.mp3
AudioLeadIn: 3000
PreviewTime: -1
Countdown: 0
SampleSet: Soft
StackLeniency: 0.5
Mode: 0
LetterboxInBreaks: 1

[Metadata]
Title:LOVE * BEAM
Artist:Loos
Creator:james039
Version:Insane
Source:
Tags:

[Difficulty]
HPDrainRate:6
CircleSize:4
OverallDifficulty:6
SliderMultiplier:1.5
SliderTickRate:2

[Events]
//Background and Video events
0,0,"Love beam.png"
1,-178,"LOVE BEAM.avi"
//Break Periods
2,13621,15255
2,91824,98730
//Storyboard Layer 0 (Background)
//Storyboard Layer 1 (Failing)
//Storyboard Layer 2 (Passing)
//Storyboard Layer 3 (Foreground)
//Storyboard Sound Samples
//Background Colour Transformations
3,100,163,162,255

[TimingPoints]
253.916434646362,337.078651685393,4,2,0,100,1
29748,-100,4,1,0,100,0
123456,-100,4,2,0,100,0

[Colours]
Combo1 : 128,0,255
Combo2 : 255,0,128
Combo3 : 0,128,192
Combo4 : 255,128,255

[HitObjects]
176,96,422,1,0
272,96,590,1,0
368,96,759,1,0
368,288,1096,1,8
272,288,1265,1,8
176,288,1433,1,8
80,288,1602,6,0,B|40:248|88:208,1,75
168,216,1939,2,0,B|200:184|152:120,1,75
72,120,2276,2,0,B|160:32|224:80,1,150
448,200,2950,5,4
408,112,3119,1,4
360,200,3287,1,4
312,112,3456,1,4
264,200,3624,1,4
216,112,3793,1,4
168,200,3961,1,4
120,112,4130,1,4
104,304,4467,6,0,B|176:336|200:288,3,75,0|0|8|8
392,296,5310,1,8
96,192,5815,5,0
160,120,5983,1,0
224,192,6152,1,0
416,192,6489,1,0
352,120,6658,1,0
288,192,6826,1,0
344,272,6995,6,8,B|304:312|264:264,1,75,8|8
176,272,7332,2,8,B|144:304|80:256,1,75,8|8
48,192,7669,2,8,B|-8:104|80:48,1,150
200,64,8343,5,4
288,112,8512,1,4
200,152,8680,1,4
288,200,8849,1,4
200,248,9017,1,4
288,296,9186,1,4
200,344,9354,1,4
104,344,9523,1,4
104,152,9860,6,0,B|72:80|120:56,3,75,0|0|8|0
288,80,10703,1,0
256,192,11040,12,8,13399
72,128,16433,5,2
112,224,16602,1,8
184,160,16770,1,2
224,248,16939,1,8
296,184,17107,1,2
456,72,17444,2,2,B|512:224|344:328,1,300
152,320,18456,1,2
32,160,18793,5,2
200,64,19130,1,8
296,64,19299,1,8
360,128,19467,1,8
360,224,19636,1,8
296,296,19804,2,8,B|224:336|144:288|136:280,1,150
152,290,20310,2,8,B|112:200|200:152,1,150
187,159,20815,2,8,B|280:120|352:176,1,150,8|12
168,56,21489,5,4
48,208,21826,1,4
128,256,21995,1,0
216,296,22164,1,0
320,288,22332,1,0
400,232,22501,2,0,B|448:168|312:144,1,150
128,88,23175,5,4
128,280,23512,1,4
296,192,23849,1,4
464,280,24186,2,4,B|488:192,2,75
368,104,24860,2,4,B|400:176,2,75
176,96,25534,2,12,B|136:184,4,75
240,264,26546,5,4
432,264,26883,1,4
384,72,27220,6,2,B|352:80,1,75
240,120,27557,2,2,B|232:88|184:64,1,75
88,64,27894,2,2,B|64:80|168:256,1,150
296,312,28568,1,2
368,240,28737,1,2
368,144,28905,1,2
304,72,29074,1,2
216,24,29242,1,2
40,104,29579,1,0
48,288,29916,5,0
88,200,30085,1,0
128,288,30253,1,0
312,200,30590,1,0
352,288,30759,1,0
392,200,30928,1,0
280,40,31265,2,0,B|256:16,1,75
280,112,31602,2,0,B|248:80|192:136,1,75
112,136,31939,2,0,B|80:216|128:280,1,150
312,320,32613,6,0,B|424:336|448:232,1,150,0|8
448,168,33119,2,0,B|488:104|368:48,1,150
344,128,33624,2,0,B|280:72|168:72,1,150,8|0
224,192,34130,2,0,B|184:152|152:184,1,75,0|8
320,288,34635,1,0
224,288,34804,1,0
128,288,34973,1,8
304,208,35310,6,0,B|416:224|440:120,1,150,0|8
432,56,35816,2,0,B|352:16|280:96,1,150
200,112,36321,2,0,B|120:64|32:136,1,150,8|0
56,216,36827,2,0,B|32:208|32:304,1,75,0|8
216,216,37332,1,0
312,216,37501,1,0
360,216,37585,1,0
336,256,37670,1,8
256,192,38006,12,6,40703
120,104,41208,5,6
120,104,41377,1,6
312,104,41714,1,6
464,224,42051,6,0,B|440:296|400:296,1,75
328,288,42388,2,0,B|304:216|264:216,1,75
184,208,42725,5,8
232,296,42894,1,8
136,296,43062,1,8
184,104,43399,1,4
256,192,43737,12,6,46096
120,104,46433,5,6
408,104,46939,1,6
408,104,47107,1,6
48,224,47444,6,0,B|72:296|112:296,1,75
184,288,47781,2,0,B|208:216|248:216,1,75
320,208,48118,5,8
272,296,48287,1,8
376,296,48455,1,8
328,104,48792,1,4
96,104,49130,6,2,B|184:80|208:136,1,75
136,192,49467,2,2,B|208:168|224:232,1,75
176,288,49804,1,4
272,288,49973,2,8,B|368:312|416:208,1,150
456,160,50478,1,8
264,128,50815,2,0,B|264:40|208:40,1,75
144,48,51152,2,8,B|112:48|184:168,1,75
120,208,51489,5,0
280,312,51826,1,0
376,312,51995,1,0
376,120,52332,1,8
280,120,52501,1,8
88,120,52838,5,0
144,304,53175,1,0
240,304,53344,1,0
424,240,53681,1,8
328,240,53850,1,8
64,304,54186,6,0,B|96:224|176:192,1,150
40,176,54692,2,0,B|88:128|184:104,1,150
240,40,55197,1,8
424,96,55534,2,0,B|448:168|352:184,3,75,0|0|8|0
312,184,56208,2,0,B|336:256|240:272,3,75,0|0|8|0
400,256,56883,5,2
384,104,57220,2,0,B|328:48|280:120,1,75,2|0
224,56,57557,2,0,B|192:24|128:72,1,75,2|0
80,120,57894,1,0
152,184,58062,1,0
232,240,58231,5,4
424,240,58568,1,4
424,48,58905,1,4
232,48,59242,1,4
72,152,59579,6,0,B|128:128|160:184,1,75
232,192,59916,1,0
136,304,60169,1,0
136,304,60253,1,0
232,304,60422,1,0
328,304,60590,1,0
408,248,60759,2,0,B|424:208|416:136,1,75
272,40,61265,5,0
200,104,61433,1,0
120,160,61602,1,0
56,232,61770,2,0,B|80:272|152:272,1,75
312,272,62276,5,2
384,208,62444,1,2
384,208,62529,1,2
384,208,62613,1,2
384,112,62782,1,2
288,112,62950,1,2
192,112,63119,2,2,B|160:72|96:128,1,75
80,64,63456,5,6
80,320,63793,1,6
376,320,64130,1,6
376,64,64467,1,6
184,64,64972,5,8
184,160,65141,1,2
184,160,65225,1,2
184,160,65309,1,2
184,256,65478,1,0
248,328,65647,2,0,B|312:304|304:248,3,75
400,256,66321,5,8
400,160,66490,1,2
400,160,66574,1,2
400,160,66658,1,2
400,64,66827,1,0
304,64,66996,2,0,B|320:104|312:160,3,75
312,232,67669,5,8
216,256,67838,1,2
216,256,67922,1,2
216,256,68006,1,2
120,256,68175,1,0
119,160,68344,2,0,B|109:136|173:112,3,75,0|0|0|4
360,112,69186,5,4
360,304,69523,1,4
168,304,69860,1,4
160,112,70197,2,6,B|160:184|392:192,2,225
136,208,71377,5,6
48,248,71546,2,6,B|48:320|280:328,2,225
48,152,72725,5,6
136,120,72894,2,6,B|224:64|376:72,2,225
168,208,74074,5,6
264,208,74242,1,6
440,296,74579,1,6
440,104,74916,1,6
248,104,75253,1,6
56,104,75590,1,6
56,296,75928,5,2
56,296,76012,1,2
56,296,76097,1,2
152,272,76265,1,8
248,248,76433,1,8
328,192,76602,1,8
280,104,76770,1,8
192,56,76939,2,0,B|128:16|112:24,1,75,0|0
56,104,77276,5,2
56,104,77360,1,2
56,104,77445,1,2
56,200,77613,1,8
96,288,77781,1,8
184,328,77950,1,8
280,328,78118,1,8
376,160,78456,6,8,B|392:112|320:88,1,75
248,96,78793,1,8
232,191,78961,2,8,B|296:240|376:248,1,150
464,80,79635,1,12
256,192,79804,12,0,80815
88,72,81321,5,0
88,168,81489,1,0
88,264,81658,1,0
184,264,81826,5,8
256,200,81995,1,8
416,208,82332,6,0,B|464:160|360:80,1,150
272,64,82838,1,0
176,80,83006,2,0,B|120:64|88:112,1,75
40,160,83343,2,0,B|24:217|72:249,1,75,0|0
128,288,83680,1,0
176,200,83849,5,4
368,200,84186,1,4
464,200,84355,1,4
368,104,84692,1,4
272,104,84860,1,4
104,304,85197,6,0,B|176:336|200:288,3,75,0|0|8|8
272,312,85871,2,0,B|344:344|368:296,3,75,0|0|8|8
80,120,86714,5,0
176,120,86882,1,0
272,120,87051,1,0
464,120,87388,1,8
464,216,87557,1,8
368,216,87725,1,8
312,296,87894,6,2,B|272:336|232:288,1,75,8|8
152,280,88231,2,10,B|120:312|56:264,1,75,8|8
56,184,88568,2,10,B|0:96|88:40,1,150
200,64,89242,5,4
384,120,89579,1,4
328,200,89748,1,4
136,224,90085,1,4
200,288,90253,1,4
296,288,90422,1,4
112,72,90759,6,0,B|152:32|200:104,3,75,0|0|8|0
256,192,91602,1,4
456,80,100028,5,6
448,272,100366,1,0
352,272,100534,1,0
256,272,100703,1,0
160,272,100871,1,0
64,272,101040,1,0
112,184,101208,5,4
256,56,101546,1,4
400,184,101883,1,4
256,320,102220,1,4
352,296,102388,5,6
288,224,102557,1,6
232,144,102725,6,0,B|288:168|320:112,1,75
360,56,103062,1,0
264,56,103231,1,0
264,56,103315,1,0
264,56,103399,1,0
168,56,103568,1,0
96,120,103736,1,0
80,216,103905,2,0,B|64:256|112:296,1,75
192,312,104242,1,0
288,312,104411,5,0
376,272,104579,1,0
408,176,104748,1,0
328,112,104916,2,0,B|296:104|264:144,1,75
72,136,105422,5,2
184,40,105675,1,2
184,40,105759,1,2
280,40,105928,1,2
376,64,106096,1,2
376,160,106265,2,2,B|416:192|360:256,1,75
256,312,106602,5,6
96,192,106939,1,6
256,80,107276,1,6
96,192,107613,1,6
256,304,107950,6,0,B|304:328|392:240,1,150
344,160,108456,2,0,B|248:136|208:240,1,150
176,304,108961,2,4,B|80:256|80:112,1,225
152,48,109635,2,8,B|224:16|320:72,1,150
312,152,110141,2,8,B|248:200|160:136,1,150
72,232,110815,5,2
72,328,110984,1,2
168,328,111152,1,2
336,232,111489,5,2
336,136,111658,1,2
336,40,111826,1,2
240,40,111995,2,4,B|144:24|96:96,1,150
104,280,112669,2,4,B|88:328|264:344,1,150
416,320,113343,2,6,B|464:304|392:96,2,225
320,328,114523,5,6
242,326,114692,2,6,B|48:320|48:248,2,225
288,240,115871,5,6
296,144,116040,2,6,B|208:88|56:96,2,225
392,144,117220,5,6
448,64,117388,1,6
448,256,117725,1,6
256,256,118062,1,6
64,256,118399,1,6
160,80,118737,1,6
256,192,118905,12,6,120928
464,256,121265,5,8
392,192,121433,1,8
320,256,121602,1,8
248,192,121770,1,8
88,80,122107,1,6
256,80,122444,1,6
448,80,122782,1,6
448,272,123287,1,4
256,192,123624,1,0
256,192,123708,1,0
256,192,123793,1,0
104,304,123961,6,0,B|144:344|200:336,1,75
264,336,124298,1,2
360,320,124467,1,2
448,192,124804,1,2
304,56,125141,1,2
48,56,125478,5,2
48,152,125647,1,8
40,248,125815,1,8
80,336,125984,1,8
224,288,126321,6,6,B|24:24|152:-56|256:152|256:152|328:-8|504:8|248:352,1,900,2|6
