osu file format v12

[General]
AudioFilename: Koi Yomi Zakura.mp3
AudioLeadIn: 1504
PreviewTime: 106376
Countdown: 0
SampleSet: None
StackLeniency: 0.5
Mode: 0
LetterboxInBreaks: 0
WidescreenStoryboard: 0

[Editor]
Bookmarks: 2359,6466,7001,12180,23609,32180,35037,43609,57894,69323,92180
DistanceSpacing: 1.5
BeatDivisor: 4
GridSize: 4

[Metadata]
Title:Koi Yomi Zakura
TitleUnicode:恋詠桜
Artist:Loos
ArtistUnicode:Loos
Creator:rrtyui
Version:ruruchi
Source:
Tags:
BeatmapID:286310
BeatmapSetID:109753

[Difficulty]
HPDrainRate:6
CircleSize:4
OverallDifficulty:8
ApproachRate:9
SliderMultiplier:2.00000000596047
SliderTickRate:1

[Events]
//Background and Video events
0,0,"BG.png",0,0
//Break Periods
//Storyboard Layer 0 (Background)
//Storyboard Layer 1 (Fail)
//Storyboard Layer 2 (Pass)
//Storyboard Layer 3 (Foreground)
//Storyboard Sound Samples
//Background Colour Transformations
3,100,163,162,255

[TimingPoints]
752,357.142857142857,4,2,0,5,1,0
1019,-100,4,2,0,10,0,0
1734,-100,4,2,0,15,0,0
1912,-100,4,2,0,20,0,0
2269,-100,4,2,0,20,0,0
2626,-100,4,2,0,25,0,0
2984,-100,4,2,0,30,0,0
3519,-100,4,2,0,40,0,0
3966,-100,4,2,0,30,0,0
4323,-100,4,2,0,20,0,0
4680,-100,4,2,0,10,0,0
5037,-100,4,2,0,5,0,0
5751,-200,4,2,0,20,0,0
6376,-200,4,2,10,5,0,0
6466,-100,4,2,10,60,0,1
6488,-100,4,2,10,60,0,0
11109,-66.6666666666667,4,2,10,90,0,0
11287,-66.6666666666667,4,2,0,40,0,0
11466,-66.6666666666667,4,2,0,70,0,0
11644,-66.6666666666667,4,2,0,5,0,0
11734,-133.333333333333,4,2,10,20,0,0
12180,-100,4,2,10,60,0,0
15662,-133.333333333333,4,2,10,60,0,0
17805,-133.333333333333,4,2,12,60,0,0
17984,-133.333333333333,4,2,10,60,0,0
18609,-133.333333333333,4,1,11,40,0,0
19144,-100,4,2,12,60,0,0
19859,-100,4,2,10,60,0,0
20037,-100,4,1,11,40,0,0
20484,-100,4,2,10,60,0,0
20841,-100,4,2,12,60,0,0
21019,-100,4,1,11,40,0,0
21198,-100,4,1,12,60,0,0
21376,-100,4,2,10,30,0,0
21555,-100,4,2,0,45,0,0
21734,-100,4,2,10,60,0,0
21912,-100,4,2,0,45,0,0
22091,-100,4,1,10,60,0,0
22269,-100,4,2,12,40,0,0
22448,-100,4,2,12,30,0,0
22626,-100,4,2,12,15,0,0
22805,-100,4,2,12,20,0,0
22984,-100,4,2,15,60,0,0
23251,-100,4,1,11,30,0,0
23341,-100,4,2,15,60,0,0
23519,-100,4,2,10,60,0,0
25216,-100,4,2,52,50,0,0
25305,-100,4,2,10,60,0,0
25751,-100,4,2,50,40,0,0
25930,-100,4,2,10,60,0,0
26287,-100,4,2,52,50,0,0
26376,-100,4,2,10,60,0,0
31466,-100,4,2,50,40,0,0
31644,-100,4,2,10,60,0,0
31778,-133.333333333333,4,2,10,60,0,0
32537,-133.333333333333,4,2,11,40,0,0
32626,-133.333333333333,4,2,10,60,0,0
33251,-133.333333333333,4,2,11,40,0,0
33341,-133.333333333333,4,2,10,60,0,0
33787,-133.333333333333,4,2,11,40,0,0
34769,-133.333333333333,4,2,10,60,0,0
35037,-100,4,2,10,60,0,0
37180,-100,4,2,50,40,0,0
37359,-100,4,2,10,60,0,0
38251,-100,4,2,12,60,0,0
38519,-133.333333333333,4,2,12,60,0,0
40841,-133.333333333333,4,2,12,60,0,0
41064,-100,4,2,10,60,0,0
41689,-133.333333333333,4,2,12,60,0,0
41912,-133.333333333333,4,2,10,60,0,0
42091,-133.333333333333,4,2,12,60,0,0
42269,-133.333333333333,4,2,10,60,0,0
42537,-133.333333333333,4,2,51,60,0,0
42671,-133.333333333333,4,2,10,60,0,0
42716,-133.333333333333,4,2,10,60,0,0
43519,-133.333333333333,4,2,10,60,0,0
43876,-100,4,1,11,40,0,0
44055,-100,4,2,10,60,0,0
44591,-100,4,1,11,40,0,0
44769,-100,4,2,10,60,0,0
45216,-200,4,2,10,60,0,0
45573,-200,4,2,11,40,0,0
45662,-200,4,2,10,60,0,0
45841,-100,4,2,10,60,0,0
46466,-100,4,2,12,60,0,0
47091,-133.333333333333,4,2,12,60,0,0
48787,-133.333333333333,4,1,11,60,0,0
48832,-133.333333333333,4,2,10,60,0,0
48921,-100,4,1,11,60,0,0
49010,-133.333333333333,4,2,10,60,0,0
49501,-133.333333333333,4,2,12,60,0,0
49859,-133.333333333333,4,2,50,50,0,0
49948,-133.333333333333,4,2,12,60,0,0
50484,-100,4,2,12,60,0,0
50751,-100,4,2,50,50,0,0
50841,-100,4,2,10,60,0,0
51376,-100,4,2,12,60,0,0
51555,-100,4,2,10,60,0,0
51734,-100,4,2,14,50,0,0
51912,-100,4,2,10,60,0,0
52091,-100,4,2,12,60,0,0
52269,-100,4,2,10,60,0,0
52894,-100,4,2,12,60,0,0
52984,-100,4,2,10,60,0,0
53341,-100,4,2,0,30,0,0
53519,-100,4,2,0,60,0,0
53698,-100,4,2,10,60,0,0
53876,-100,4,2,12,60,0,0
54055,-100,4,2,10,60,0,0
54234,-100,4,2,11,35,0,0
55126,-100,4,2,12,60,0,0
55841,-133.333333333333,4,2,12,60,0,0
56376,-133.333333333333,4,2,0,60,0,0
56555,-133.333333333333,4,2,12,30,0,0
56734,-133.333333333333,4,2,12,40,0,0
56912,-133.333333333333,4,2,12,45,0,0
57269,-133.333333333333,4,2,15,60,0,0
57537,-133.333333333333,4,2,15,50,0,0
57626,-133.333333333333,4,2,15,40,0,0
57805,-100,4,2,40,60,0,0
57984,-100,4,2,0,40,0,0
64234,-200,4,2,0,40,0,0
65573,-133.333333333333,4,2,0,40,0,0
71912,-200,4,2,0,40,0,0
72626,-133.333333333333,4,2,0,40,0,0
75037,-100,4,1,40,60,0,0
75082,-100,4,1,0,20,0,0
76466,-100,4,1,0,60,0,0
76510,-100,4,1,0,30,0,0
77894,-100,4,1,0,50,0,0
78028,-100,4,1,0,30,0,0
78207,-100,4,1,0,40,0,0
78385,-100,4,1,0,50,0,0
78787,-100,4,1,0,30,0,0
78966,-100,4,1,0,40,0,0
79144,-100,4,1,0,50,0,0
79278,-100,4,2,45,40,0,0
79368,-100,4,2,0,50,0,0
79680,-100,4,2,54,60,0,0
79769,-100,4,2,45,60,0,0
80216,-100,4,2,25,70,0,0
80751,-80,4,2,25,80,0,1
82805,-100,4,2,25,80,0,1
83207,-80,4,2,25,80,0,1
84323,-80,4,2,53,80,0,1
84501,-80,4,2,25,80,0,1
85841,-80,4,2,15,80,0,1
86376,-80,4,2,25,80,0,1
86912,-100,4,2,25,60,0,1
87180,-100,4,2,53,80,0,1
87359,-100,4,2,25,60,0,1
90037,-100,4,2,53,80,0,1
90305,-80,4,2,25,60,0,1
90662,-80,4,2,11,35,0,1
91198,-80,4,2,0,60,0,1
91376,-105.263157894737,4,2,11,35,0,1
91823,-80,4,2,25,60,0,0
92180,-100,4,1,31,50,0,0
92269,-100,4,2,30,40,0,0
93519,-50,4,2,30,40,0,0
93996,-80,4,2,30,40,0,0
95841,-133.333333333333,4,2,30,40,0,0
96109,-100,4,2,52,35,0,0
96287,-133.333333333333,4,2,30,40,0,0
96823,-133.333333333333,4,2,52,35,0,0
97001,-133.333333333333,4,2,30,40,0,0
97805,-100,4,1,31,40,0,0
97984,-100,4,2,30,40,0,0
99323,-100,4,2,30,40,0,0
100365,-80,4,2,30,40,0,0
102359,-100,4,2,30,30,0,0
102805,-100,4,2,30,10,0,0
103073,-100,4,2,30,20,0,0
103251,-100,4,2,30,25,0,0
103430,-100,4,2,30,30,0,0
103609,-100,4,2,30,50,0,0
103787,-100,4,2,30,30,0,0
103966,-100,4,2,30,40,0,0
104144,-100,4,2,30,50,0,0
104323,-100,4,2,30,60,0,0
104501,-100,4,2,30,50,0,0
104680,-100,4,2,30,40,0,0
104859,-200,4,1,0,10,0,0
105751,-66.6666666666667,4,2,0,60,0,0
106109,-66.6666666666667,4,2,0,5,0,0
106466,-100,4,2,10,60,0,1
106577,-100,4,2,25,60,0,1
109234,-80,4,2,25,60,0,1
109635,-133.333333333333,4,2,25,60,0,1
110305,-100,4,2,25,60,0,1
111644,-100,4,2,15,60,0,1
111793,-66.6666666666667,4,2,15,60,0,1
111912,-66.6666666666667,4,2,25,60,0,1
112091,-100,4,2,25,60,0,1
113698,-100,4,3,0,60,0,1
113876,-100,4,2,25,60,0,1
117135,-100,4,2,15,60,0,1
117225,-100,4,2,25,60,0,1
117314,-100,4,2,15,60,0,1
117493,-80,4,2,25,60,0,1
117805,-80,4,1,10,60,0,1
117984,-80,4,2,25,60,0,1
118921,-100,4,2,25,60,0,1
119144,-100,4,3,0,60,0,1
119234,-80,4,2,25,60,0,1
119501,-80,4,3,0,60,0,1
119591,-66.6666666666667,4,2,25,60,0,1
120350,-80,4,2,25,60,0,1
120662,-57.1428571428571,4,2,25,60,0,1
121376,-100,4,2,25,60,0,1
123073,-100,4,2,0,60,0,1
123095,-100,4,2,25,60,0,1
126443,-100,4,2,25,60,0,0
126466,-100,4,2,25,60,0,1
128653,-100,4,2,15,60,0,1
128743,-100,4,2,25,60,0,1
128832,-100,4,2,15,60,0,1
128921,-100,4,2,25,60,0,1
129301,-100,4,2,25,60,0,0
129323,-100,4,1,0,90,0,1
129345,-100,4,2,0,60,0,0
129591,-100,4,2,0,50,0,0
129769,-100,4,2,0,40,0,0
129948,-100,4,2,0,50,0,0
130126,-100,4,2,0,40,0,0
130305,-100,4,2,0,30,0,0
130841,-100,4,2,0,35,0,0
131019,-100,4,2,0,45,0,0
131376,-200,4,2,0,60,0,0
132180,-200,4,2,15,40,0,0

[Colours]
Combo1 : 128,128,255
Combo2 : 255,128,255
Combo3 : 255,0,128
SliderBorder : 240,240,240

[HitObjects]
40,344,751,5,2,0:0:0:0:
52,304,930,1,2,0:0:0:0:
64,264,1109,1,2,0:0:0:0:
132,312,1287,5,2,0:0:0:0:
144,272,1466,1,2,0:0:0:0:
208,344,1644,5,2,0:0:0:0:
220,304,1823,1,2,0:0:0:0:
232,264,2001,1,2,0:0:0:0:
244,224,2180,1,2,0:0:0:0:
304,312,2359,5,2,0:0:0:0:
316,272,2537,1,2,0:0:0:0:
328,232,2716,1,2,0:0:0:0:
340,192,2894,1,2,0:0:0:0:
392,344,3073,5,2,0:0:0:0:
404,304,3251,1,2,0:0:0:0:
416,264,3430,1,2,0:0:0:0:
428,224,3609,1,2,0:0:0:0:
504,312,3966,5,2,0:0:0:0:
392,344,4323,1,2,0:0:0:0:
236,292,4680,1,2,0:0:0:0:
80,352,5037,1,2,0:0:0:0:
80,352,5752,6,2,P|24:308|92:272,1,175.000000521541,2|2,0:0|0:0,0:0:0:0:
156,312,6466,5,6,1:0:0:0:
84,184,6644,1,0,0:0:0:0:
84,184,6734,1,0,0:0:0:0:
84,184,6823,1,0,0:0:0:0:
204,224,7002,1,0,0:0:0:0:
328,36,7180,6,0,P|328:124|324:136,1,100.000000298023,2|0,0:0|0:0,0:0:0:0:
324,134,7448,1,0,0:0:0:0:
324,134,7537,1,0,0:0:0:0:
484,176,7716,1,0,0:0:0:0:
356,348,7894,6,0,P|264:308|160:312,2,200.000000596047,2|2|2,0:0|0:0|0:0,0:0:0:0:
108,360,8787,1,0,0:0:0:0:
140,336,8877,1,0,0:0:0:0:
164,312,8966,2,0,P|174:245|166:205,1,100.000000298023
64,164,9323,6,0,L|44:268,1,100.000000298023,2|0,0:0|0:0,0:0:0:0:
140,240,9591,2,0,L|136:172,1,50.0000001490117,0|2,0:0|0:0,0:0:0:0:
328,52,9859,6,0,L|308:156,1,100.000000298023,0|2,0:0|0:0,0:0:0:0:
472,356,10216,6,0,L|468:288,1,50.0000001490117,2|0,0:0|0:0,0:0:0:0:
392,260,10394,2,0,L|372:364,1,100.000000298023,0|2,0:0|0:0,0:0:0:0:
292,368,10662,2,0,L|288:300,1,50.0000001490117,0|2,0:0|0:0,0:0:0:0:
140,240,10930,6,0,P|52:268|60:360,1,200.000000596047,2|2,0:0|0:0,0:0:0:0:
236,228,11466,6,2,P|196:156|132:140,1,150.000006169081,8|0,2:0|0:0,0:0:0:0:
108,132,11823,6,0,P|172:130|240:184,1,150.000006169081,0|6,0:0|0:0,0:0:0:0:
428,352,12359,5,0,0:0:0:0:
372,280,12537,1,8,0:0:0:0:
308,340,12716,1,0,0:0:0:0:
500,160,12894,5,2,0:0:0:0:
436,220,13073,1,0,0:0:0:0:
436,220,13162,1,0,0:0:0:0:
436,220,13251,1,8,0:0:0:0:
380,148,13430,1,0,0:0:0:0:
316,208,13609,1,2,0:0:0:0:
192,148,13787,5,0,0:0:0:0:
120,236,13966,1,8,0:0:0:0:
32,160,14144,1,0,0:0:0:0:
200,44,14323,5,2,0:0:0:0:
192,148,14501,1,0,0:0:0:0:
192,148,14591,1,0,0:0:0:0:
192,148,14680,1,8,0:0:0:0:
308,340,14859,1,0,0:0:0:0:
164,356,15037,5,2,0:0:0:0:
64,256,15216,1,0,0:0:0:0:
164,364,15394,1,8,0:0:0:0:
56,256,15573,1,0,0:0:0:0:
164,368,15751,2,0,P|228:344|308:340,1,150.000006169081,2|8,0:0|0:0,0:0:0:0:
464,356,16287,5,0,0:0:0:0:
440,272,16466,1,2,0:0:0:0:
280,232,16644,5,2,0:0:0:0:
288,184,16734,1,0,0:0:0:0:
296,136,16823,1,8,0:0:0:0:
412,176,17001,21,2,0:0:0:0:
196,56,17180,21,2,0:0:0:0:
180,92,17269,1,0,0:0:0:0:
156,120,17359,1,0,0:0:0:0:
120,144,17448,1,2,0:0:0:0:
80,152,17537,2,0,P|32:160|-4:184,1,75.0000030845407,10|2,0:0|0:0,0:0:0:0:
136,296,17894,6,0,P|72:344|64:244,1,225.000009253622,6|4,0:0|1:0,0:0:0:0:
256,184,18787,1,8,0:0:0:0:
256,192,18966,1,8,0:0:0:0:
376,352,19323,6,0,P|424:328|472:316,3,100.000000298023,6|0|2|6,0:0|0:0|0:0|1:0,0:0:0:0:
144,208,20216,5,8,0:0:0:0:
136,296,20394,2,0,P|92:324|20:344,2,100.000000298023,8|0|2,0:0|0:0|0:0,0:0:0:0:
144,208,20930,5,2,0:0:0:0:
156,248,21109,1,8,0:0:0:0:
64,144,21287,5,14,1:0:0:0:
24,160,21466,1,0,0:0:0:0:
124,68,21644,5,10,0:0:0:0:
112,28,21823,1,2,0:0:0:0:
200,128,22001,5,10,0:0:0:0:
240,116,22180,1,6,0:0:0:0:
456,132,22359,5,2,0:0:0:0:
444,208,22537,1,2,0:0:0:0:
428,288,22716,1,2,0:0:0:0:
428,288,22894,1,2,0:0:0:0:
248,360,23073,5,0,0:0:0:0:
244,316,23162,1,0,0:0:0:0:
264,268,23251,1,8,0:0:0:0:
256,372,23430,5,0,0:0:0:0:
196,188,23609,6,0,P|116:192|100:200,1,100.000000298023,2|2,0:0|3:0,0:0:0:70:normal-hitwhistle12.wav
56,260,23876,1,0,0:0:0:0:
56,260,23966,1,2,0:0:0:0:
204,332,24144,1,2,3:0:0:0:
304,168,24323,6,0,P|300:88|292:72,1,100.000000298023,2|2,0:0|3:0,0:0:0:0:
220,56,24591,1,0,0:0:0:0:
220,56,24680,1,2,0:0:0:0:
424,192,24859,1,2,3:0:0:0:
432,320,25037,6,0,B|368:312|368:312|304:332|304:332|232:324,1,200.000000596047,2|2,0:0|0:0,0:0:0:0:
340,132,25573,2,0,P|376:244|443:303,1,200.000000596047,2|2,3:0|3:0,0:0:0:0:
228,308,26109,2,0,L|324:132,1,200.000000596047,2|2,0:0|0:0,0:0:0:0:
220,56,26644,5,2,3:0:0:0:
220,56,26734,1,0,0:0:0:0:
220,56,26823,1,2,0:0:0:0:
228,308,27001,5,2,3:0:0:0:
144,280,27180,1,2,0:0:0:0:
12,248,27359,5,2,3:0:0:0:
52,232,27448,1,0,0:0:0:0:
96,220,27537,1,2,0:0:0:0:
240,196,27716,21,2,3:0:0:0:
156,168,27894,1,2,0:0:0:0:
8,148,28073,5,2,3:0:0:0:
48,132,28162,1,0,0:0:0:0:
92,120,28251,1,2,0:0:0:0:
244,108,28430,21,2,3:0:0:0:
160,80,28609,1,2,0:0:0:0:
4,60,28787,5,2,3:0:0:0:
44,44,28876,1,0,0:0:0:0:
88,32,28966,1,2,0:0:0:0:
252,100,29144,5,2,0:0:0:0:
144,280,29323,5,2,0:0:0:0:
228,308,29501,1,2,3:0:0:0:
228,308,29591,1,0,0:0:0:0:
228,308,29680,1,2,0:0:0:0:
304,248,29859,1,2,3:0:0:0:
432,332,30037,5,2,0:0:0:0:
476,256,30216,1,2,3:0:0:0:
476,256,30305,1,0,0:0:0:0:
476,256,30394,1,2,0:0:0:0:
444,176,30573,2,0,L|424:112,1,50.0000001490117,2|0,3:0|0:0,0:0:0:0:
304,248,30751,5,2,0:0:0:0:
264,52,30930,1,2,3:0:0:0:
264,52,31019,1,0,0:0:0:0:
264,52,31109,1,2,0:0:0:0:
284,148,31287,6,0,P|208:132|160:28,1,200.000000596047,2|2,3:0|3:0,0:0:0:0:
84,112,31734,1,2,0:0:0:0:
80,152,31823,2,0,L|88:240,1,75.0000030845407,2|2,0:0|0:0,0:0:0:0:
28,340,32180,6,0,P|124:340|176:328,1,150.000006169081,2|8,0:0|0:0,0:0:0:0:
440,336,32716,1,0,0:0:0:0:
240,264,32894,2,0,P|336:264|388:276,1,150.000006169081,0|8,0:0|0:0,0:0:0:0:
440,336,33430,2,0,L|428:184,3,150.000006169081,0|8|8|8,0:0|0:0|0:0|0:0,0:0:0:0:
456,344,34680,5,8,0:0:0:0:
440,176,34859,1,0,0:0:0:0:
352,208,35037,1,6,0:0:0:0:
180,144,35216,5,0,0:0:0:0:
180,144,35305,1,0,0:0:0:0:
180,144,35394,1,8,0:0:0:0:
92,176,35573,1,0,0:0:0:0:
256,204,35751,5,2,0:0:0:0:
204,292,35930,1,0,0:0:0:0:
200,304,36019,1,0,0:0:0:0:
212,300,36109,2,0,B|256:320|256:320|304:300,1,100.000000298023,8|0,0:0|0:0,0:0:0:0:
420,96,36466,6,0,L|220:76,1,200.000000596047,2|8,0:0|0:0,0:0:0:0:
424,8,37002,2,0,P|352:44|376:176,1,200.000000596047
464,208,37537,5,8,0:0:0:0:
316,244,37716,1,0,0:0:0:0:
416,352,37894,1,2,0:0:0:0:
256,344,38073,1,0,0:0:0:0:
256,344,38162,1,0,0:0:0:0:
256,344,38252,2,0,L|152:352,1,100.000000298023,10|0,0:0|0:0,0:0:0:0:
44,224,38609,6,0,P|36:276|12:312,1,75.0000030845407,6|0,0:0|0:0,0:0:0:0:
75,165,38966,2,0,P|23:173|-18:161,1,75.0000030845407,10|0,0:0|0:0,0:0:0:0:
140,176,39323,2,0,P|115:129|114:85,1,75.0000030845407,6|0,0:0|0:0,0:0:0:0:
150,242,39680,2,0,P|187:204|227:189,1,75.0000030845407,10|0,0:0|0:0,0:0:0:0:
90,271,40037,2,0,P|136:294|163:328,1,75.0000030845407,6|0,0:0|0:0,0:0:0:0:
44,224,40394,6,0,P|36:276|12:312,2,75.0000030845407,6|8|6,0:0|0:0|0:0,0:0:0:0:
48,88,40930,6,0,L|40:28,1,37.5000015422703
60,100,41109,6,0,L|164:92,1,100.000000298023,8|0,0:0|0:0,0:0:0:0:
240,168,41466,2,0,L|247:267,1,100.000000298023,2|0,0:0|0:0,0:0:0:0:
235,279,41734,22,0,L|175:287,1,37.5000015422703,0|8,0:0|0:0,0:0:0:0:
428,320,42002,21,0,0:0:0:0:
444,232,42180,1,6,0:0:0:0:
340,316,42359,2,0,P|364:260|444:232,1,150.000006169081
428,320,42894,5,0,0:0:0:0:
264,356,43073,1,0,0:0:0:0:
264,356,43162,1,0,0:0:0:0:
264,356,43252,1,8,0:0:0:0:
176,348,43430,1,0,0:0:0:0:
88,336,43609,5,2,0:0:0:0:
176,348,43787,1,2,0:0:0:0:
264,356,43966,1,12,0:0:0:0:
76,252,44323,5,2,0:0:0:0:
164,264,44502,1,2,0:0:0:0:
252,272,44680,1,8,0:0:0:0:
68,168,45037,5,2,0:0:0:0:
248,188,45216,2,0,L|148:176,1,100.000000298023,2|12,0:0|1:0,0:0:0:0:
116,100,45752,1,0,0:0:0:0:
248,188,45930,6,0,L|256:136,1,50.0000001490117
328,188,46109,2,0,L|428:176,2,100.000000298023,8|0|6,0:0|0:0|0:0,0:0:0:0:
148,176,46644,5,0,0:0:0:0:
152,180,46734,1,0,0:0:0:0:
156,184,46823,1,8,0:0:0:0:
112,96,47002,1,0,0:0:0:0:
288,192,47180,6,0,P|296:112|260:56,1,150.000006169081,6|8,0:0|0:0,0:0:0:0:
172,304,47716,2,0,P|92:312|36:276,1,150.000006169081,6|2,0:0|0:0,0:0:0:0:
208,204,48252,1,8,0:0:0:0:
120,216,48430,1,0,0:0:0:0:
264,288,48609,6,0,L|344:276,1,75.0000030845407,2|8,0:0|0:0,0:0:0:0:
408,236,48877,1,0,0:0:0:0:
436,248,48966,2,0,P|436:296|424:360,2,100.000000298023,8|0|2,0:0|0:0|3:0,0:0:0:0:
364,36,49680,6,0,P|364:113|383:217,2,150.000006169081,8|6|8,0:0|0:0|0:0,0:0:0:0:
272,116,50573,2,0,B|176:160|176:80|76:120,1,200.000000596047,2|2,0:0|0:0,0:0:0:0:
78,118,51019,1,0,0:0:0:0:
78,118,51109,1,8,0:0:0:0:
128,196,51287,1,0,0:0:0:0:
52,332,51466,5,2,0:0:0:0:
208,332,51644,1,8,0:0:0:0:
52,332,51823,2,0,B|76:304|76:304|140:296,1,100.000000298023,12|0,1:0|0:0,0:0:0:0:
368,164,52180,6,0,P|352:208|356:260,1,100.000000298023,2|0,0:0|0:0,0:0:0:0:
496,344,52537,2,0,P|376:364|308:328,1,200.000000596047,8|6,0:0|0:0,0:0:0:0:
144,220,53073,5,2,0:0:0:0:
368,164,53252,1,8,0:0:0:0:
256,192,53430,1,2,0:0:0:0:
112,56,53609,6,0,L|216:68,1,100.000000298023,2|2,0:0|0:0,0:0:0:0:
40,148,53966,2,0,L|140:140,1,100.000000298023,14|2,0:0|0:0,0:0:0:0:
212,304,54323,2,0,P|96:312|44:248,2,200.000000596047,10|10|14,0:0|0:0|0:0,0:0:0:0:
340,296,55216,5,2,0:0:0:0:
368,308,55305,1,0,0:0:0:0:
400,320,55394,1,8,0:0:0:0:
468,196,55573,1,2,0:0:0:0:
432,212,55662,1,0,0:0:0:0:
400,228,55752,1,8,0:0:0:0:
72,64,55930,6,0,L|112:60,1,37.5000015422703,2|0,0:0|0:0,0:0:0:0:
148,168,56109,1,8,0:0:0:0:
56,316,56287,1,2,0:0:0:0:
212,304,56466,1,4,0:0:0:0:
400,372,56644,5,2,0:0:0:0:
416,268,56823,1,2,0:0:0:0:
148,168,57002,5,2,0:0:0:0:
168,268,57180,1,2,0:0:0:0:
416,268,57359,54,0,L|432:196,1,37.5000015422703,8|8,0:0|0:0,0:0:0:0:
436,160,57537,1,8,0:0:0:0:
128,64,57716,5,8,0:0:0:0:
148,168,57894,2,0,L|252:152,1,100.000000298023,6|0,1:0|0:0,0:0:0:0:
256,144,58252,2,0,L|249:247,2,100.000000298023,0|0|2,0:0|0:0|0:0,0:0:0:0:
80,340,58966,2,0,L|64:236,1,100.000000298023,0|0,0:0|0:0,0:0:0:0:
56,232,59323,2,0,L|159:238,2,100.000000298023
336,332,60037,6,2,B|432:304|400:228|400:228|376:171,1,200.000000596047,2|0,0:0|0:0,0:0:0:0:
324,88,60573,1,0,0:0:0:0:
256,176,60752,2,0,P|168:160|136:40,1,200.000000596047,0|0,0:0|0:0,0:0:0:0:
228,80,61287,5,0,0:0:0:0:
64,124,61466,1,2,0:0:0:0:
176,240,61644,1,0,0:0:0:0:
228,80,61823,5,0,0:0:0:0:
288,284,62002,1,0,0:0:0:0:
176,240,62180,5,0,0:0:0:0:
92,328,62359,1,0,0:0:0:0:
208,356,62537,1,0,0:0:0:0:
288,284,62716,1,0,0:0:0:0:
393,321,62894,6,2,B|400:208|416:265,1,100.000000298023,2|0,0:0|0:0,0:0:0:0:
464,320,63252,2,0,B|480:377|486:263,1,100.000000298023,0|0,0:0|0:0,0:0:0:0:
356,84,63609,5,0,0:0:0:0:
296,252,63787,1,0,0:0:0:0:
224,116,63966,1,0,0:0:0:0:
164,216,64144,1,0,0:0:0:0:
56,168,64323,6,2,P|44:220|56:268,1,100.000000298023,2|0,0:0|0:0,0:0:0:0:
156,104,64859,5,0,0:0:0:0:
228,248,65037,1,0,0:0:0:0:
292,116,65216,1,0,0:0:0:0:
364,236,65394,1,0,0:0:0:0:
188,32,65752,6,2,P|104:44|76:100,1,150.000000447035,2|0,0:0|0:0,0:0:0:0:
156,104,66287,1,0,0:0:0:0:
84,240,66466,6,0,P|168:227|196:171,1,150.000000447035
320,40,67002,1,0,0:0:0:0:
384,104,67180,2,2,L|372:184,1,75.0000030845407,2|0,0:0|0:0,0:0:0:0:
184,260,67537,2,0,L|268:268,1,75.0000030845407
436,284,67894,5,0,0:0:0:0:
276,348,68073,1,0,0:0:0:0:
100,308,68252,1,0,0:0:0:0:
36,148,68430,1,0,0:0:0:0:
92,316,68609,5,2,0:0:0:0:
180,356,68787,1,0,0:0:0:0:
280,360,68966,1,0,0:0:0:0:
372,344,69144,1,0,0:0:0:0:
444,292,69323,1,4,0:0:0:0:
320,184,69502,5,0,0:0:0:0:
324,164,69680,1,0,0:0:0:0:
328,144,69859,1,0,0:0:0:0:
332,120,70037,1,2,0:0:0:0:
68,100,70394,21,0,0:0:0:0:
72,120,70573,5,0,0:0:0:0:
74,131,70662,1,0,0:0:0:0:
76,140,70752,1,0,0:0:0:0:
80,160,70930,21,0,0:0:0:0:
24,244,71109,1,0,0:0:0:0:
104,300,71287,1,0,0:0:0:0:
160,216,71466,1,2,0:0:0:0:
80,160,71644,21,0,0:0:0:0:
24,244,71823,1,0,0:0:0:0:
104,300,72002,1,0,0:0:0:0:
132,260,72091,1,0,0:0:0:0:
160,216,72180,2,0,B|204:200|212:256|252:244,1,100.000000298023
352,264,72716,6,0,L|332:356,1,75.0000030845407,0|2,0:0|0:0,0:0:0:0:
432,200,73073,2,0,L|448:284,2,75.0000030845407
348,168,73519,1,0,0:0:0:0:
348,168,73609,1,0,0:0:0:0:
244,208,73787,5,0,0:0:0:0:
248,224,73966,1,0,0:0:0:0:
128,200,74144,1,0,0:0:0:0:
132,216,74323,1,2,0:0:0:0:
40,116,74502,1,0,0:0:0:0:
44,132,74680,1,0,0:0:0:0:
108,24,74859,5,0,0:0:0:0:
112,40,74948,1,0,0:0:0:0:
116,56,75037,2,0,L|176:68,1,50.0000001490117,6|0,0:0|0:0,0:0:0:0:
336,104,75216,2,0,L|396:116,1,50.0000001490117
216,124,75394,2,0,L|276:136,1,50.0000001490117
456,172,75573,2,0,L|516:184,1,50.0000001490117
360,284,75752,6,0,L|352:352,1,50.0000001490117
168,252,75930,2,0,L|160:320,1,50.0000001490117
260,240,76109,2,0,L|252:308,1,50.0000001490117
76,264,76287,2,0,L|68:332,1,50.0000001490117
112,184,76466,6,0,L|104:128,1,50.0000001490117,4|0,1:0|0:0,0:0:0:0:
200,40,76644,6,0,L|276:52,1,50.0000001490117
392,128,76823,2,0,L|304:116,1,50.0000001490117
192,176,77002,2,0,L|268:164,1,50.0000001490117
348,40,77180,2,0,L|436:48,1,50.0000001490117
476,96,77359,6,0,L|464:164,1,50.0000001490117
432,332,77537,2,0,L|424:264,1,50.0000001490117
356,132,77716,2,0,L|348:200,1,50.0000001490117
324,300,77894,6,0,L|320:344,2,33.3333334326745,4|0|0,0:0|0:0|0:0,0:0:0:0:
256,256,78073,1,0,0:0:0:0:
184,264,78162,1,0,0:0:0:0:
136,320,78252,1,0,0:0:0:0:
72,284,78341,1,0,0:0:0:0:
60,212,78430,1,0,0:0:0:0:
96,148,78519,1,0,0:0:0:0:
80,76,78609,6,0,L|68:40,2,33.3333334326745,4|0|0,0:0|0:0|0:0,0:0:0:0:
152,96,78787,1,0,0:0:0:0:
212,48,78877,1,0,0:0:0:0:
288,60,78966,1,0,0:0:0:0:
308,132,79055,1,0,0:0:0:0:
288,204,79144,1,0,0:0:0:0:
362,225,79234,1,0,0:0:0:0:
432,190,79323,1,10,0:0:0:0:
344,304,79502,6,0,L|144:328,2,200.000000596047,8|10|12,0:0|0:0|3:0,0:0:0:0:
252,208,80394,1,12,3:0:0:0:
252,208,80752,6,0,P|120:224|60:136,1,250.000000745059,4|8,2:0|0:0,0:0:0:0:
61,138,81287,6,0,P|49:202|57:262,1,125.000000372529,0|6,0:0|0:0,0:0:0:0:
232,332,81644,2,0,P|173:339|109:327,1,125.000000372529,0|8,0:0|0:0,0:0:0:0:
300,284,82002,2,0,P|312:220|304:160,1,125.000000372529,0|2,0:0|0:0,0:0:0:0:
172,132,82359,5,0,0:0:0:0:
304,161,82537,1,8,0:0:0:0:
448,48,82716,1,0,0:0:0:0:
472,224,82894,2,0,P|480:320|464:392,1,150.000000447035,2|0,0:0|0:0,0:0:0:0:
396,320,83252,6,0,L|272:312,1,125.000000372529,8|0,0:0|0:0,0:0:0:0:
188,356,83609,2,0,P|80:336|84:216,1,250.000000745059,6|12,0:0|0:0,0:0:0:0:
170,173,84144,2,0,P|278:193|270:313,1,250.000000745059
144,280,84680,5,8,0:0:0:0:
216,248,84859,1,0,0:0:0:0:
86,217,85037,5,2,0:0:0:0:
170,173,85216,1,0,0:0:0:0:
20,152,85394,5,8,0:0:0:0:
120,104,85573,1,0,0:0:0:0:
252,176,85752,1,2,0:0:0:0:
352,128,85930,2,0,L|348:88,2,31.2500000931323,10|0|8,0:0|0:0|0:0,0:0:0:0:
416,172,86109,2,0,L|400:304,1,125.000000372529,8|8,0:0|0:0,0:0:0:0:
120,344,86466,6,0,P|128:220|140:92,1,250.000000745059,6|8,0:0|0:0,0:0:0:0:
32,208,87002,2,0,B|108:232|144:192|232:224,1,200.000000596047
332,300,87537,5,8,0:0:0:0:
456,276,87716,1,0,0:0:0:0:
376,184,87894,1,2,0:0:0:0:
124,228,88073,5,0,0:0:0:0:
248,204,88251,1,8,0:0:0:0:
168,112,88430,1,0,0:0:0:0:
32,208,88609,6,0,P|48:288|152:320,1,200.000000596047,2|8,0:0|0:0,0:0:0:0:
332,300,89144,1,0,0:0:0:0:
248,204,89323,6,0,P|360:180|432:224,1,200.000000596047,6|12,0:0|0:0,0:0:0:0:
340,84,89859,2,0,P|244:100|156:156,1,200.000000596047
136,52,90394,2,0,P|196:20|268:4,1,125.000000372529,0|8,0:0|0:0,0:0:0:0:
416,92,90751,5,10,0:0:0:0:
400,220,90930,1,10,0:0:0:0:
224,236,91109,1,10,0:0:0:0:
296,300,91287,1,2,0:0:0:0:
171,313,91466,2,0,P|81:318|-4:380,1,189.999995492697,10|4,0:0|3:0,0:0:0:0:
136,216,92180,22,0,L|124:112,1,100.000000298023,14|0,0:0|0:0,0:0:0:0:
192,96,92448,1,0,0:0:0:0:
124,116,92537,2,0,P|68:100|32:60,1,100.000000298023,6|0,0:0|0:0,0:0:0:0:
352,76,92894,2,0,L|339:180,1,100.000000298023,14|0,0:0|0:0,0:0:0:0:
408,196,93162,1,0,0:0:0:0:
341,175,93251,2,0,P|284:191|248:232,1,100.000000298023,2|0,0:0|0:0,0:0:0:0:
88,320,93609,6,0,L|96:356,1,33.3333334326745,14|0,0:0|0:0,0:0:0:0:
208,372,93787,2,0,L|200:340,1,33.3333334326745,12|0,0:0|0:0,0:0:0:0:
88,320,94144,5,12,0:0:0:0:
208,372,94323,1,14,0:0:0:0:
312,276,94501,1,0,0:0:0:0:
424,288,94680,1,2,0:0:0:0:
380,172,94859,1,0,0:0:0:0:
252,216,95037,6,0,P|260:136|260:56,1,125.000000372529,6|0,0:0|0:0,0:0:0:0:
128,76,95394,2,0,B|112:120|112:120|148:156|208:156,1,125.000000372529,14|0,0:0|0:0,0:0:0:0:
380,172,95751,5,6,0:0:0:0:
252,216,95930,2,0,P|244:296|248:376,1,150.000006169081,12|12,0:0|0:0,0:0:0:0:
80,264,96466,1,14,0:0:0:0:
68,340,96644,2,0,P|76:260|72:180,1,150.000006169081,12|4,0:0|0:0,0:0:0:0:
44,72,97180,1,14,0:0:0:0:
176,144,97359,6,0,L|172:188,2,25.0000010281802,2|0|0,0:0|0:0|0:0,0:0:0:0:
248,124,97537,2,0,L|240:16,1,75.0000030845407,2|0,0:0|0:0,0:0:0:0:
376,76,97894,6,0,B|324:104|324:104|324:184|400:184,1,150.000000447035,14|0,0:0|0:0,0:0:0:0:
492,128,98251,2,0,P|496:192|488:292,1,150.000000447035,6|0,0:0|0:0,0:0:0:0:
392,380,98609,2,0,B|380:332|388:280|388:280|308:296,1,150.000006169081,14|0,0:0|0:0,0:0:0:0:
216,369,98966,1,2,0:0:0:0:
128,300,99144,1,0,0:0:0:0:
36,328,99323,6,0,L|16:208,1,100.000000298023,14|12,0:0|0:0,0:0:0:0:
148,188,99680,1,2,0:0:0:0:
44,320,99859,6,0,L|24:200,1,100.000000298023,12|14,0:0|0:0,0:0:0:0:
148,188,100216,2,0,L|140:136,2,33.3333334326745
192,100,100394,2,0,P|284:108|324:176,1,125.000000372529,2|0,0:0|0:0,0:0:0:0:
280,336,100751,2,0,B|360:380|440:240|516:288,1,250.000000745059,6|14,0:0|0:0,0:0:0:0:
316,248,101287,5,0,0:0:0:0:
280,336,101466,1,6,0:0:0:0:
144,176,101644,5,14,0:0:0:0:
180,264,101823,1,2,0:0:0:0:
56,96,102001,5,4,0:0:0:0:
20,184,102180,1,6,0:0:0:0:
168,68,102359,5,0,0:0:0:0:
248,56,102537,1,0,0:0:0:0:
328,44,102716,1,0,0:0:0:0:
412,108,102894,5,0,0:0:0:0:
408,136,102984,1,8,3:0:0:0:
404,164,103073,1,8,3:0:0:0:
400,192,103162,1,8,3:0:0:0:
432,264,103251,5,8,3:0:0:0:
356,292,103341,5,4,0:0:0:0:
360,304,103430,1,4,0:0:0:0:
364,316,103519,1,4,0:0:0:0:
368,328,103609,1,4,0:0:0:0:
248,300,103787,6,0,B|140:288|176:356|56:336,1,200.000000596047,2|0,0:0|0:0,0:0:0:0:
100,256,104323,1,0,0:0:0:0:
148,164,104501,1,0,0:0:0:0:
240,124,104680,1,0,0:0:0:0:
336,132,104859,1,2,0:0:0:0:
336,132,105751,6,2,P|172:144|84:40,1,300.000012338163,2|0,0:0|0:0,0:0:0:0:
428,56,106466,5,6,2:0:0:0:
336,132,106644,1,0,0:0:0:0:
420,216,106823,1,8,0:0:0:0:
512,144,107001,1,0,0:0:0:0:
416,136,107180,6,0,P|416:232|404:296,1,150.000000447035,2|0,0:0|0:0,0:0:0:0:
288,348,107537,1,8,0:0:0:0:
252,144,107716,1,0,0:0:0:0:
264,252,107894,1,2,0:0:0:0:
260,32,108073,1,0,0:0:0:0:
176,196,108251,2,0,P|108:212|8:164,1,150.000000447035,8|0,0:0|0:0,0:0:0:0:
116,112,108609,6,0,L|96:240,1,100.000000298023,2|0,0:0|0:0,0:0:0:0:
68,382,108966,2,0,L|84:284,1,100.000000298023,8|0,0:0|0:0,0:0:0:0:
252,144,109323,6,0,P|268:244|344:264,1,187.500000558794,2|0,0:0|0:0,0:0:0:0:
420,312,109680,6,0,L|412:236,1,75.0000030845407,8|0,0:0|0:0,0:0:0:0:
260,70,110037,2,0,L|252:146,1,75.0000030845407,2|0,0:0|0:0,0:0:0:0:
104,256,110394,2,0,L|112:360,2,100.000000298023,8|0|2,0:0|0:0|0:0,0:0:0:0:
96,164,110930,5,0,0:0:0:0:
80,40,111109,1,8,0:0:0:0:
252,144,111287,1,0,0:0:0:0:
192,252,111466,54,0,L|296:260,1,100.000000298023,2|8,0:0|0:0,0:0:0:0:
340,288,111689,2,0,L|348:312,2,25.0000000745059,0|8|0,0:0|0:0|0:0,0:0:0:0:
396,236,111823,2,0,P|460:252|476:328,1,150.000006169081,10|8,0:0|0:0,0:0:0:0:
300,180,112180,6,0,L|308:80,1,100.000000298023,2|0,0:0|0:0,0:0:0:0:
200,24,112537,1,8,0:0:0:0:
140,160,112716,1,0,0:0:0:0:
44,128,112894,1,2,0:0:0:0:
44,128,113251,5,8,0:0:0:0:
140,160,113430,1,0,0:0:0:0:
200,24,113609,1,2,0:0:0:0:
300,264,113787,1,2,0:0:0:0:
388,80,113966,2,0,L|376:272,1,150.000000447035,8|0,0:0|0:0,0:0:0:0:
228,212,114323,6,0,P|216:260|224:312,1,100.000000298023,2|0,0:0|0:0,0:0:0:0:
112,360,114680,2,0,L|116:256,1,100.000000298023,8|0,0:0|0:0,0:0:0:0:
300,356,115037,2,0,L|403:352,1,100.000000298023,2|0,0:0|0:0,0:0:0:0:
464,256,115394,5,8,0:0:0:0:
476,256,115573,1,0,0:0:0:0:
332,148,115751,5,2,0:0:0:0:
344,144,115930,1,0,0:0:0:0:
164,124,116109,5,8,0:0:0:0:
176,116,116287,1,0,0:0:0:0:
12,160,116466,5,2,0:0:0:0:
20,148,116644,1,0,0:0:0:0:
20,240,116823,1,8,0:0:0:0:
6,240,117001,1,0,0:0:0:0:
88,196,117180,5,10,0:0:0:0:
100,228,117269,1,8,0:0:0:0:
96,264,117359,1,8,0:0:0:0:
116,304,117448,1,8,0:0:0:0:
136,344,117537,2,0,P|200:304|252:308,1,125.000000372529,8|0,0:0|0:0,0:0:0:0:
448,212,117894,5,6,0:0:0:0:
416,124,118073,1,0,0:0:0:0:
128,236,118251,1,8,0:0:0:0:
340,76,118430,1,0,0:0:0:0:
248,64,118609,2,0,B|200:80|148:60|148:60|40:92,1,187.500000558794,6|0,0:0|0:0,0:0:0:0:
144,140,118966,6,0,L|128:244,1,100.000000298023,8|2,0:0|0:0,0:0:0:0:
284,216,119323,2,0,L|265:338,1,125.000000372529,2|2,0:0|0:0,0:0:0:0:
488,164,119680,2,0,L|465:313,1,150.000006169081,8|0,0:0|0:0,0:0:0:0:
284,216,120037,6,0,P|172:188|144:84,1,225.000009253622,6|0,0:0|0:0,0:0:0:0:
60,60,120394,2,0,L|68:200,1,125.000000372529,8|0,0:0|0:0,0:0:0:0:
8,324,120751,6,0,P|84:340|172:304,1,175.000002190471,6|0,0:0|0:0,0:0:0:0:
304,324,121109,2,0,P|380:308|468:344,1,175.000002190471,12|0,0:0|0:0,0:0:0:0:
284,216,121466,2,0,L|280:112,1,100.000000298023,6|0,0:0|0:0,0:0:0:0:
104,64,121823,5,8,0:0:0:0:
184,96,122001,5,0,0:0:0:0:
480,60,122180,21,2,0:0:0:0:
384,88,122359,5,0,0:0:0:0:
436,216,122537,1,8,0:0:0:0:
312,332,122716,1,0,0:0:0:0:
140,304,122894,2,0,P|88:312|48:348,1,100.000000298023,6|2,0:0|0:0,0:0:0:0:
60,356,123132,6,0,L|68:388,1,33.3333334326745,0|0,0:0|0:0,0:0:0:0:
152,312,123251,2,0,L|140:212,1,100.000000298023,2|8,0:0|0:0,0:0:0:0:
304,120,123609,6,0,P|272:156|272:208,1,100.000000298023,2|0,0:0|0:0,0:0:0:0:
460,312,123966,2,0,L|360:328,1,100.000000298023,8|0,0:0|0:0,0:0:0:0:
244,288,124323,2,0,P|136:264|68:288,1,150.000000447035,6|0,0:0|0:0,0:0:0:0:
160,192,124680,2,0,P|192:155|192:103,1,100.000000298023,8|0,0:0|0:0,0:0:0:0:
60,80,125037,5,2,0:0:0:0:
40,192,125216,1,0,0:0:0:0:
160,192,125394,1,8,0:0:0:0:
152,76,125573,1,0,0:0:0:0:
264,48,125751,6,0,B|252:152|252:152|320:128,1,150.000000447035,6|0,0:0|0:0,0:0:0:0:
376,116,126109,2,0,L|364:224,1,100.000000298023,8|0,0:0|0:0,0:0:0:0:
120,292,126466,5,6,0:0:0:0:
101,319,126555,1,0,0:0:0:0:
85,347,126644,1,8,0:0:0:0:
73,203,126823,5,6,0:0:0:0:
41,194,126912,1,0,0:0:0:0:
9,187,127001,1,8,0:0:0:0:
142,131,127180,5,6,0:0:0:0:
141,98,127269,1,0,0:0:0:0:
137,66,127359,1,8,0:0:0:0:
232,176,127537,5,6,0:0:0:0:
263,164,127626,1,0,0:0:0:0:
293,151,127716,1,8,0:0:0:0:
218,274,127894,5,6,0:0:0:0:
238,300,127984,1,0,0:0:0:0:
260,324,128073,1,8,0:0:0:0:
384,344,128251,5,6,0:0:0:0:
372,304,128341,1,0,0:0:0:0:
368,260,128430,1,8,0:0:0:0:
444,160,128609,54,0,L|440:216,1,50.0000001490117,6|8,0:0|0:0,0:0:0:0:
172,260,128787,5,8,0:0:0:0:
188,184,128876,1,8,0:0:0:0:
136,140,128966,2,0,B|110:132|110:132|120:236,1,100.000000298023,2|8,0:0|0:0,0:0:0:0:
144,372,129323,5,4,0:0:0:0:
228,360,129501,1,2,0:0:0:0:
284,300,129680,1,2,0:0:0:0:
172,260,129859,5,2,0:0:0:0:
188,184,130037,1,2,0:0:0:0:
264,208,130216,1,2,0:0:0:0:
64,96,130394,5,2,0:0:0:0:
112,208,130573,1,2,0:0:0:0:
352,68,130751,1,2,0:0:0:0:
496,232,130930,5,2,0:0:0:0:
404,304,131109,5,2,0:0:0:0:
348,240,131287,1,2,0:0:0:0:
112,360,131466,5,2,0:0:0:0:
112,360,132894,5,8,2:0:0:0:
96,292,133028,1,8,2:0:0:0:
