osu file format v12

[General]
AudioFilename: loos - Omoi Yoshino.MP3
AudioLeadIn: 0
PreviewTime: 105803
Countdown: 0
SampleSet: Soft
StackLeniency: 0.7
Mode: 3
LetterboxInBreaks: 0
SpecialStyle: 0
WidescreenStoryboard: 1

[Editor]
DistanceSpacing: 1.1
BeatDivisor: 4
GridSize: 8

[Metadata]
Title:Koi Yomi Zakura
TitleUnicode:恋詠桜
Artist:Loos
ArtistUnicode:Loos
Creator:_S u w a k o_
Version:4K Lv.4
Source:
Tags:Eretto NicoNico Douga Comike victorica_db Simple_Star _S_u_w_a_k_o_ PROGUY loos
BeatmapID:342173
BeatmapSetID:128855

[Difficulty]
HPDrainRate:6
CircleSize:4
OverallDifficulty:6
ApproachRate:5
SliderMultiplier:1.4
SliderTickRate:1

[Events]
//Background and Video events
Video,0,"loos - Omoi Yoshino.avi"
0,0,"hanahubuki.jpg",0,0
//Break Periods
2,102360,105246
//Storyboard Layer 0 (Background)
//Storyboard Layer 1 (Fail)
//Storyboard Layer 2 (Pass)
//Storyboard Layer 3 (Foreground)
//Storyboard Sound Samples
Sample,137871,0,"normal-hitnormal.wav",70
Sample,137871,0,"normal-hitfinish.wav",70
Sample,137871,0,"normal-hitwhistle.wav",70
Sample,137871,0,"normal-hitclap.wav",70
Sample,137871,0,"normal-hitclap.wav",70
Sample,137871,0,"normal-hitnormal.wav",70
Sample,137871,0,"normal-hitwhistle.wav",70
Sample,137871,0,"normal-hitfinish.wav",70
Sample,137871,0,"normal-hitnormal.wav",70
Sample,137871,0,"normal-hitfinish.wav",70
Sample,137871,0,"normal-hitwhistle.wav",70
Sample,137871,0,"normal-hitclap.wav",70
//Background Colour Transformations
3,100,163,162,255

[TimingPoints]
732,357.142857142857,4,2,1,30,1,0
732,-100,4,2,1,30,0,0
80731,-100,4,2,1,30,0,1
92160,-100,4,2,1,30,0,0
106446,-100,4,2,1,29,0,1
129303,-100,4,2,1,30,0,0

[HitObjects]
64,192,732,1,0,0:0:0:0:
320,192,2160,1,0,0:0:0:0:
192,192,3589,1,0,0:0:0:0:
448,192,3946,1,0,0:0:0:0:
64,192,4303,1,0,0:0:0:0:
320,192,4660,1,0,0:0:0:0:
192,192,5017,1,0,0:0:0:0:
64,192,6446,1,0,0:0:0:70:cymbol01.wav
448,192,6446,1,0,0:0:0:70:bassdrum.wav
64,192,7160,1,0,0:0:0:70:bassdrum.wav
448,192,7160,1,0,0:0:0:0:
320,192,7874,1,0,0:0:0:70:bassdrum.wav
192,192,8231,1,0,0:0:0:70:bassdrum.wav
320,192,8589,1,0,0:0:0:70:bassdrum.wav
64,192,9303,1,0,0:0:0:70:bassdrum.wav
448,192,9660,1,0,0:0:0:70:bassdrum.wav
64,192,10017,1,0,0:0:0:70:bassdrum.wav
192,192,10196,1,0,0:0:0:0:
320,192,10553,1,0,0:0:0:70:bassdrum.wav
192,192,10731,1,0,0:0:0:70:bassdrum.wav
320,192,10910,1,0,0:0:0:70:bassdrum.wav
64,192,11267,1,0,0:0:0:0:
448,192,11267,1,0,0:0:0:0:
64,192,11446,1,0,0:0:0:70:soft-hitclap.wav
448,192,11446,1,0,0:0:0:0:
192,192,12160,1,0,0:0:0:70:bassdrum.wav
320,192,12160,1,0,0:0:0:70:cymbol01.wav
192,192,12517,1,0,0:0:0:70:bassdrum.wav
192,192,12874,1,0,0:0:0:70:bassdrum.wav
192,192,13231,1,0,0:0:0:70:bassdrum.wav
64,192,13589,1,0,0:0:0:70:bassdrum.wav
448,192,13589,1,0,0:0:0:0:
448,192,13946,1,0,0:0:0:70:bassdrum.wav
448,192,14303,1,0,0:0:0:70:bassdrum.wav
448,192,14660,1,0,0:0:0:70:bassdrum.wav
64,192,15017,1,0,0:0:0:70:bassdrum.wav
320,192,15017,1,0,0:0:0:0:
64,192,15374,1,0,0:0:0:70:bassdrum.wav
64,192,15731,1,0,0:0:0:70:bassdrum.wav
64,192,16089,1,0,0:0:0:70:bassdrum.wav
192,192,16446,1,0,0:0:0:70:bassdrum.wav
448,192,16446,1,0,0:0:0:0:
64,192,16803,1,0,0:0:0:0:
320,192,17160,1,0,0:0:0:70:bassdrum.wav
64,192,17517,1,0,0:0:0:70:bassdrum.wav
192,192,17874,1,0,0:0:0:70:bassdrum.wav
448,192,17874,1,0,0:0:0:30:cymbol01.wav
64,192,18410,1,0,0:0:0:0:
320,192,18767,1,0,0:0:0:35:normal-hitclap.wav
320,192,18946,1,0,0:0:0:35:normal-hitclap.wav
64,192,18946,1,0,0:0:0:0:
448,192,19303,1,0,0:0:0:70:bassdrum.wav
192,192,19481,1,0,0:0:0:30:cymbol01.wav
448,192,19660,1,0,0:0:0:0:
64,192,19839,1,0,0:0:0:0:
320,192,20196,1,0,0:0:0:35:normal-hitclap.wav
320,192,20374,1,0,0:0:0:35:normal-hitclap.wav
64,192,20374,1,0,0:0:0:0:
192,192,20731,1,0,0:0:0:70:bassdrum.wav
192,192,21267,1,0,0:0:0:70:bassdrum.wav
192,192,21803,1,0,0:0:0:70:bassdrum.wav
320,192,22160,1,0,0:0:0:70:bassdrum.wav
64,192,22339,1,0,0:0:0:0:
320,192,22517,1,0,0:0:0:0:
192,192,22696,1,0,0:0:0:0:
448,192,22874,1,0,0:0:0:0:
320,192,23589,1,0,0:0:0:70:bassdrum.wav
64,192,23946,1,0,0:0:0:70:bassdrum.wav
320,192,24303,1,0,0:0:0:70:bassdrum.wav
64,192,24660,1,0,0:0:0:70:bassdrum.wav
192,192,25017,1,0,0:0:0:70:bassdrum.wav
448,192,25374,1,0,0:0:0:70:bassdrum.wav
192,192,25731,1,0,0:0:0:70:bassdrum.wav
448,192,26089,1,0,0:0:0:70:bassdrum.wav
320,192,26446,1,0,0:0:0:70:bassdrum.wav
192,192,26803,1,0,0:0:0:70:bassdrum.wav
320,192,27160,1,0,0:0:0:70:bassdrum.wav
192,192,27517,1,0,0:0:0:70:bassdrum.wav
448,192,27874,1,0,0:0:0:70:bassdrum.wav
64,192,28231,1,0,0:0:0:70:bassdrum.wav
192,192,28589,1,0,0:0:0:70:bassdrum.wav
448,192,28946,1,0,0:0:0:70:bassdrum.wav
64,192,29303,1,0,0:0:0:70:bassdrum.wav
320,192,29660,1,0,0:0:0:70:bassdrum.wav
64,192,30017,1,0,0:0:0:70:bassdrum.wav
192,192,30196,1,0,0:0:0:70:whistle.wav
320,192,30374,1,0,0:0:0:70:bassdrum.wav
448,192,30731,1,0,0:0:0:70:bassdrum.wav
192,192,31089,1,0,0:0:0:70:bassdrum.wav
448,192,31446,1,0,0:0:0:70:bassdrum.wav
320,192,31624,1,0,0:0:0:70:whistle.wav
192,192,31803,1,0,0:0:0:70:bassdrum.wav
64,192,31981,1,0,0:0:0:0:
320,192,32160,1,0,0:0:0:70:bassdrum.wav
64,192,32517,1,0,0:0:0:70:soft-hitclap.wav
448,192,32517,1,0,0:0:0:70:whistle01.wav
64,192,33231,1,0,0:0:0:70:soft-hitclap.wav
448,192,33231,1,0,0:0:0:70:whistle01.wav
64,192,33767,1,0,0:0:0:70:soft-hitclap.wav
448,192,33767,1,0,0:0:0:70:whistle01.wav
64,192,34124,1,0,0:0:0:70:soft-hitclap.wav
448,192,34124,1,0,0:0:0:70:whistle01.wav
320,192,34481,1,0,0:0:0:0:
448,192,34660,1,0,0:0:0:70:soft-hitclap.wav
192,192,34660,1,0,0:0:0:70:whistle01.wav
320,192,35017,1,0,0:0:0:70:bassdrum.wav
64,192,35196,1,0,0:0:0:70:whistle.wav
192,192,35374,1,0,0:0:0:30:normal-hitclap.wav
192,192,35731,1,0,0:0:0:70:bassdrum.wav
64,192,35910,1,0,0:0:0:70:whistle.wav
320,192,36089,1,0,0:0:0:30:normal-hitclap.wav
192,192,36446,1,0,0:0:0:70:bassdrum.wav
448,192,36803,1,0,0:0:0:30:normal-hitclap.wav
64,192,37160,1,0,0:0:0:70:bassdrum.wav
320,192,37517,1,0,0:0:0:30:normal-hitclap.wav
192,192,37874,1,0,0:0:0:70:bassdrum.wav
64,192,38053,1,0,0:0:0:70:whistle.wav
448,192,38231,1,0,0:0:0:30:normal-hitclap.wav
64,192,38589,1,0,0:0:0:70:bassdrum.wav
192,192,38767,1,0,0:0:0:70:whistle.wav
448,192,38946,1,0,0:0:0:30:normal-hitclap.wav
64,192,39303,1,0,0:0:0:70:bassdrum.wav
448,192,39660,1,0,0:0:0:30:normal-hitclap.wav
64,192,40017,1,0,0:0:0:70:bassdrum.wav
192,192,40196,1,0,0:0:0:70:whistle.wav
320,192,40374,1,0,0:0:0:30:normal-hitclap.wav
448,192,40553,1,0,0:0:0:70:whistle.wav
192,192,40731,1,0,0:0:0:70:bassdrum.wav
64,192,40910,1,0,0:0:0:70:whistle.wav
448,192,41089,1,0,0:0:0:30:normal-hitclap.wav
320,192,41446,1,0,0:0:0:70:bassdrum.wav
64,192,41624,1,0,0:0:0:70:whistle.wav
320,192,41803,1,0,0:0:0:30:normal-hitclap.wav
448,192,42160,1,0,0:0:0:70:bassdrum.wav
320,192,42517,1,0,0:0:0:35:normal-hitclap.wav
64,192,42874,1,0,0:0:0:70:bassdrum.wav
320,192,43053,1,0,0:0:0:70:whistle.wav
192,192,43231,1,0,0:0:0:35:normal-hitclap.wav
448,192,43410,1,0,0:0:0:70:bassdrum.wav
64,192,43589,1,0,0:0:0:70:bassdrum.wav
64,192,43767,1,0,0:0:0:70:bassdrum.wav
192,192,43946,1,0,0:0:0:70:soft-hitclap.wav
448,192,43946,1,0,0:0:0:40:cymbol01.wav
320,192,44303,1,0,0:0:0:70:bassdrum.wav
320,192,44481,1,0,0:0:0:70:bassdrum.wav
64,192,44660,1,0,0:0:0:70:soft-hitclap.wav
448,192,44660,1,0,0:0:0:40:cymbol01.wav
64,192,45017,1,0,0:0:0:70:bassdrum.wav
192,192,45196,1,0,0:0:0:0:
320,192,45374,1,0,0:0:0:0:
64,192,45553,1,0,0:0:0:70:soft-hitclap.wav
320,192,45731,1,0,0:0:0:0:
64,192,45910,1,0,0:0:0:70:bassdrum.wav
192,192,46089,1,0,0:0:0:70:soft-hitclap.wav
448,192,46089,1,0,0:0:0:0:
64,192,46446,128,0,47160:0:0:0:70:bassdrum.wav
320,192,46803,1,0,0:0:0:35:normal-hitclap.wav
448,192,47160,1,0,0:0:0:70:bassdrum.wav
192,192,47339,1,0,0:0:0:70:whistle.wav
448,192,47517,1,0,0:0:0:0:
192,192,47696,1,0,0:0:0:0:
320,192,47874,128,0,48589:0:0:0:70:bassdrum.wav
64,192,48231,1,0,0:0:0:35:normal-hitclap.wav
192,192,48589,1,0,0:0:0:70:bassdrum.wav
448,192,48767,1,0,0:0:0:35:normal-hitclap.wav
64,192,48946,1,0,0:0:0:35:normal-hitclap.wav
320,192,49124,1,0,0:0:0:70:whistle.wav
192,192,49303,128,0,50017:0:0:0:70:bassdrum.wav
448,192,49660,1,0,0:0:0:35:normal-hitclap.wav
64,192,50017,128,0,50553:0:0:0:70:bassdrum.wav
448,192,50553,1,0,0:0:0:0:
320,192,50910,1,0,0:0:0:0:
192,192,51089,1,0,0:0:0:35:normal-hitclap.wav
448,192,51267,1,0,0:0:0:70:whistle.wav
64,192,51446,1,0,0:0:0:70:bassdrum.wav
320,192,51624,1,0,0:0:0:35:normal-hitclap.wav
192,192,51803,1,0,0:0:0:35:normal-hitclap.wav
64,192,52160,128,0,52517:0:0:0:70:bassdrum.wav
320,192,52517,1,0,0:0:0:35:normal-hitclap.wav
448,192,52696,1,0,0:0:0:70:whistle.wav
192,192,52874,1,0,0:0:0:70:bassdrum.wav
64,192,53053,1,0,0:0:0:70:whistle.wav
448,192,53231,1,0,0:0:0:35:normal-hitclap.wav
64,192,53589,1,0,0:0:0:70:bassdrum.wav
448,192,53767,1,0,0:0:0:70:whistle.wav
192,192,53946,1,0,0:0:0:30:normal-hitclap.wav
448,192,54124,1,0,0:0:0:0:
64,192,54303,1,0,0:0:0:70:bassdrum.wav
192,192,54303,1,0,0:0:0:0:
448,192,54660,1,0,0:0:0:30:normal-hitclap.wav
320,192,54660,1,0,0:0:0:0:
192,192,55017,1,0,0:0:0:70:bassdrum.wav
320,192,55196,1,0,0:0:0:0:
64,192,55374,1,0,0:0:0:30:normal-hitclap.wav
448,192,55553,1,0,0:0:0:0:
192,192,55731,1,0,0:0:0:30:normal-hitclap.wav
320,192,55910,1,0,0:0:0:0:
64,192,56089,1,0,0:0:0:30:normal-hitclap.wav
64,192,56446,1,0,0:0:0:70:bassdrum.wav
448,192,56446,1,0,0:0:0:0:
448,192,57874,128,0,59303:0:0:0:70:bassdrum.wav
64,192,57874,1,0,0:0:0:70:cymbol01.wav
192,192,59303,128,0,60731:0:0:0:0:
64,192,60731,128,0,63589:0:0:0:0:
192,192,63589,128,0,65017:0:0:0:0:
320,192,65017,128,0,66446:0:0:0:0:
448,192,66446,128,0,67874:0:0:0:0:
192,192,67874,128,0,69303:0:0:0:0:
64,192,69303,1,0,0:0:0:30:bassdrum.wav
320,192,69660,1,0,0:0:0:70:bassdrum.wav
64,192,70017,1,0,0:0:0:30:bassdrum.wav
320,192,70374,1,0,0:0:0:70:bassdrum.wav
448,192,70731,1,0,0:0:0:30:bassdrum.wav
192,192,71089,1,0,0:0:0:30:bassdrum.wav
448,192,71446,1,0,0:0:0:30:bassdrum.wav
192,192,71803,1,0,0:0:0:30:bassdrum.wav
320,192,72160,1,0,0:0:0:30:bassdrum.wav
448,192,72339,1,0,0:0:0:30:bassdrum.wav
192,192,72517,1,0,0:0:0:30:bassdrum.wav
448,192,72874,1,0,0:0:0:30:bassdrum.wav
192,192,73053,1,0,0:0:0:30:bassdrum.wav
64,192,73231,1,0,0:0:0:30:bassdrum.wav
448,192,73589,1,0,0:0:0:30:bassdrum.wav
192,192,73767,1,0,0:0:0:30:bassdrum.wav
320,192,73946,1,0,0:0:0:30:bassdrum.wav
64,192,74303,1,0,0:0:0:70:bassdrum.wav
192,192,74481,1,0,0:0:0:30:bassdrum.wav
320,192,74660,1,0,0:0:0:30:bassdrum.wav
64,192,75017,1,0,0:0:0:70:whistle01.wav
448,192,75017,1,0,0:0:0:30:bassdrum.wav
64,192,76446,1,0,0:0:0:0:
448,192,76446,1,0,0:0:0:0:
64,192,77874,1,0,0:0:0:30:cymbol01.wav
448,192,77874,1,0,0:0:0:0:
64,192,78589,1,0,0:0:0:30:cymbol01.wav
448,192,78589,1,0,0:0:0:0:
64,192,79303,1,0,0:0:0:30:normal-hitclap.wav
448,192,79303,1,0,0:0:0:70:do1.wav
64,192,79481,1,0,0:0:0:30:normal-hitclap.wav
448,192,79481,1,0,0:0:0:0:
192,192,79839,1,0,0:0:0:30:normal-hitclap.wav
320,192,79839,1,0,0:0:0:0:
64,192,80196,1,0,0:0:0:30:normal-hitclap.wav
448,192,80374,1,0,0:0:0:30:normal-hitclap.wav
192,192,80731,1,0,0:0:0:70:bassdrum.wav
448,192,80731,1,0,0:0:0:70:cymbol01.wav
448,192,81089,1,0,0:0:0:70:soft-hitclap.wav
64,192,81267,1,0,0:0:0:0:
192,192,81624,1,0,0:0:0:70:whistle.wav
192,192,81803,1,0,0:0:0:70:soft-hitclap.wav
448,192,81981,1,0,0:0:0:70:whistle.wav
64,192,82160,1,0,0:0:0:70:bassdrum.wav
320,192,82339,1,0,0:0:0:70:whistle.wav
64,192,82517,1,0,0:0:0:70:soft-hitclap.wav
320,192,82696,1,0,0:0:0:70:whistle.wav
448,192,82874,1,0,0:0:0:70:bassdrum.wav
192,192,83231,1,0,0:0:0:70:soft-hitclap.wav
448,192,83410,1,0,0:0:0:70:whistle.wav
64,192,83589,1,0,0:0:0:70:bassdrum.wav
320,192,83589,1,0,0:0:0:0:
64,192,83946,1,0,0:0:0:70:soft-hitclap.wav
448,192,84124,1,0,0:0:0:0:
320,192,84481,1,0,0:0:0:70:whistle.wav
320,192,84660,1,0,0:0:0:70:soft-hitclap.wav
64,192,84839,1,0,0:0:0:70:whistle.wav
448,192,85017,1,0,0:0:0:70:bassdrum.wav
320,192,85196,1,0,0:0:0:70:whistle.wav
64,192,85374,1,0,0:0:0:70:soft-hitclap.wav
192,192,85553,1,0,0:0:0:70:whistle.wav
64,192,85731,128,0,86446:0:0:0:70:bassdrum.wav
192,192,86446,1,0,0:0:0:70:cymbol01.wav
448,192,86446,1,0,0:0:0:70:bassdrum.wav
192,192,86803,1,0,0:0:0:70:soft-hitclap.wav
320,192,86981,1,0,0:0:0:70:whistle.wav
192,192,87339,1,0,0:0:0:70:whistle.wav
192,192,87517,1,0,0:0:0:70:soft-hitclap.wav
448,192,87696,1,0,0:0:0:70:whistle.wav
320,192,87874,1,0,0:0:0:70:bassdrum.wav
64,192,88053,1,0,0:0:0:70:whistle.wav
192,192,88231,1,0,0:0:0:70:soft-hitclap.wav
448,192,88410,1,0,0:0:0:70:whistle.wav
320,192,88589,1,0,0:0:0:70:bassdrum.wav
192,192,88767,1,0,0:0:0:70:whistle.wav
64,192,88946,1,0,0:0:0:70:soft-hitclap.wav
448,192,89124,1,0,0:0:0:70:whistle.wav
64,192,89303,1,0,0:0:0:70:bassdrum.wav
320,192,89303,1,0,0:0:0:70:cymbol.wav
64,192,89660,1,0,0:0:0:70:soft-hitclap.wav
448,192,89839,1,0,0:0:0:0:
320,192,90196,1,0,0:0:0:70:whistle.wav
320,192,90374,1,0,0:0:0:70:soft-hitclap.wav
64,192,90553,1,0,0:0:0:70:whistle.wav
448,192,90731,1,0,0:0:0:30:normal-hitclap.wav
192,192,90910,1,0,0:0:0:30:normal-hitclap.wav
320,192,91089,1,0,0:0:0:30:normal-hitclap.wav
64,192,91267,1,0,0:0:0:30:normal-hitclap.wav
320,192,91446,1,0,0:0:0:30:normal-hitclap.wav
448,192,91446,1,0,0:0:0:70:bassdrum.wav
64,192,92160,1,0,0:0:0:0:
192,192,92517,1,0,0:0:0:0:
448,192,92874,1,0,0:0:0:70:soft-hitnormal.wav
64,192,93053,1,0,0:0:0:70:soft-hitnormal.wav
192,192,93231,1,0,0:0:0:70:soft-hitnormal.wav
64,192,93589,1,0,0:0:0:30:normal-hitclap.wav
64,192,93767,1,0,0:0:0:30:normal-hitclap.wav
320,192,93946,1,0,0:0:0:0:
192,192,94303,1,0,0:0:0:70:soft-hitnormal.wav
448,192,94303,1,0,0:0:0:70:cymbol.wav
192,192,94660,1,0,0:0:0:70:soft-hitnormal.wav
448,192,95017,1,0,0:0:0:0:
320,192,95374,1,0,0:0:0:30:normal-hitclap.wav
64,192,95731,1,0,0:0:0:30:normal-hitclap.wav
448,192,95910,1,0,0:0:0:30:normal-hitclap.wav
320,192,96089,1,0,0:0:0:0:
192,192,96446,1,0,0:0:0:30:normal-hitclap.wav
192,192,96624,1,0,0:0:0:0:
320,192,96803,1,0,0:0:0:70:cymbol.wav
64,192,96981,1,0,0:0:0:70:cymbol.wav
448,192,97160,1,0,0:0:0:0:
320,192,97517,1,0,0:0:0:0:
64,192,97874,128,0,98231:0:0:0:70:cymbol.wav
320,192,98231,1,0,0:0:0:70:cymbol.wav
448,192,98410,1,0,0:0:0:0:
192,192,98589,1,0,0:0:0:70:soft-hitnormal.wav
320,192,98767,1,0,0:0:0:70:soft-hitnormal.wav
64,192,98946,1,0,0:0:0:70:soft-hitnormal.wav
192,192,99124,1,0,0:0:0:0:
448,192,99303,128,0,99660:0:0:0:30:normal-hitclap.wav
192,192,99660,1,0,0:0:0:0:
64,192,99839,1,0,0:0:0:30:normal-hitclap.wav
320,192,100017,1,0,0:0:0:30:normal-hitclap.wav
192,192,100196,1,0,0:0:0:0:
448,192,100374,1,0,0:0:0:0:
320,192,100553,1,0,0:0:0:0:
64,192,100731,1,0,0:0:0:30:normal-hitclap.wav
448,192,100731,1,0,0:0:0:70:cymbol.wav
192,192,100910,1,0,0:0:0:0:
320,192,101089,1,0,0:0:0:0:
192,192,101267,1,0,0:0:0:0:
64,192,101446,1,0,0:0:0:30:normal-hitclap.wav
448,192,101446,1,0,0:0:0:70:cymbol.wav
192,192,101624,1,0,0:0:0:30:normal-hitclap.wav
320,192,101803,1,0,0:0:0:0:
192,192,101981,1,0,0:0:0:0:
448,192,102160,1,0,0:0:0:0:
64,192,102160,1,0,0:0:0:0:
64,192,106446,5,0,0:0:0:30:cymbol01.wav
448,192,106446,1,0,0:0:0:0:
320,192,106803,1,0,0:0:0:30:normal-hitclap.wav
192,192,107160,1,0,0:0:0:70:bassdrum.wav
320,192,107517,1,0,0:0:0:30:normal-hitclap.wav
192,192,107874,1,0,0:0:0:0:
64,192,107874,1,0,0:0:0:0:
448,192,108231,1,0,0:0:0:30:normal-hitclap.wav
320,192,108589,1,0,0:0:0:70:bassdrum.wav
448,192,108946,1,0,0:0:0:30:normal-hitclap.wav
192,192,109303,1,0,0:0:0:0:
320,192,109303,1,0,0:0:0:0:
448,192,109660,1,0,0:0:0:30:normal-hitclap.wav
64,192,110017,1,0,0:0:0:70:bassdrum.wav
448,192,110374,1,0,0:0:0:30:normal-hitclap.wav
64,192,110731,1,0,0:0:0:0:
192,192,110731,1,0,0:0:0:0:
448,192,111089,1,0,0:0:0:30:normal-hitclap.wav
320,192,111446,1,0,0:0:0:70:bassdrum.wav
448,192,111803,1,0,0:0:0:30:normal-hitclap.wav
64,192,112160,1,0,0:0:0:70:bassdrum.wav
192,192,112339,1,0,0:0:0:70:whistle.wav
320,192,112517,1,0,0:0:0:30:normal-hitclap.wav
448,192,112696,1,0,0:0:0:70:whistle.wav
192,192,112874,128,0,113589:0:0:0:70:bassdrum.wav
320,192,113231,1,0,0:0:0:30:normal-hitclap.wav
448,192,113589,1,0,0:0:0:70:bassdrum.wav
320,192,113767,1,0,0:0:0:70:whistle.wav
192,192,113946,1,0,0:0:0:30:normal-hitclap.wav
64,192,114124,1,0,0:0:0:70:whistle.wav
320,192,114303,128,0,115017:0:0:0:70:bassdrum.wav
192,192,114660,1,0,0:0:0:30:normal-hitclap.wav
64,192,115017,1,0,0:0:0:70:bassdrum.wav
192,192,115196,1,0,0:0:0:70:whistle.wav
320,192,115374,1,0,0:0:0:30:normal-hitclap.wav
448,192,115553,1,0,0:0:0:70:whistle.wav
192,192,115731,1,0,0:0:0:70:bassdrum.wav
320,192,115910,1,0,0:0:0:70:whistle.wav
448,192,116089,1,0,0:0:0:30:normal-hitclap.wav
64,192,116267,1,0,0:0:0:70:whistle.wav
320,192,116446,1,0,0:0:0:70:bassdrum.wav
448,192,116624,1,0,0:0:0:70:whistle.wav
192,192,116803,1,0,0:0:0:30:normal-hitclap.wav
320,192,116981,1,0,0:0:0:70:whistle.wav
64,192,117160,128,0,117874:0:0:0:70:bassdrum.wav
320,192,117517,1,0,0:0:0:30:normal-hitclap.wav
192,192,117874,1,0,0:0:0:70:cymbol01.wav
448,192,117874,1,0,0:0:0:0:
320,192,118231,1,0,0:0:0:30:normal-hitclap.wav
64,192,118589,1,0,0:0:0:70:bassdrum.wav
320,192,118946,1,0,0:0:0:30:normal-hitclap.wav
192,192,119303,128,0,119660:0:0:0:70:bassdrum.wav
64,192,119303,1,0,0:0:0:70:cymbol.wav
320,192,119660,128,0,120017:0:0:0:30:normal-hitclap.wav
64,192,120017,128,0,120374:0:0:0:70:bassdrum.wav
448,192,120374,128,0,120731:0:0:0:30:normal-hitclap.wav
64,192,120731,1,0,0:0:0:70:cymbol.wav
192,192,120731,1,0,0:0:0:0:
320,192,121089,1,0,0:0:0:30:normal-hitclap.wav
64,192,121446,1,0,0:0:0:70:bassdrum.wav
448,192,121803,1,0,0:0:0:30:normal-hitclap.wav
320,192,122160,128,0,122517:0:0:0:70:soft-hitnormal.wav
64,192,122160,1,0,0:0:0:70:bassdrum.wav
64,192,122517,128,0,122874:0:0:0:30:normal-hitclap.wav
448,192,122874,128,0,123231:0:0:0:70:bassdrum.wav
192,192,123231,128,0,123589:0:0:0:30:normal-hitclap.wav
64,192,123589,1,0,0:0:0:70:bassdrum.wav
192,192,123767,1,0,0:0:0:70:whistle.wav
320,192,123946,1,0,0:0:0:30:normal-hitclap.wav
448,192,124124,1,0,0:0:0:70:whistle.wav
192,192,124303,1,0,0:0:0:70:bassdrum.wav
320,192,124481,1,0,0:0:0:70:whistle.wav
64,192,124660,1,0,0:0:0:30:normal-hitclap.wav
192,192,124839,1,0,0:0:0:70:whistle.wav
448,192,125017,1,0,0:0:0:70:bassdrum.wav
320,192,125196,1,0,0:0:0:70:whistle.wav
192,192,125374,1,0,0:0:0:30:normal-hitclap.wav
64,192,125553,1,0,0:0:0:70:whistle.wav
320,192,125731,1,0,0:0:0:70:cymbol.wav
192,192,125910,1,0,0:0:0:70:whistle.wav
448,192,126089,1,0,0:0:0:30:normal-hitclap.wav
320,192,126267,1,0,0:0:0:70:whistle.wav
64,192,126446,1,0,0:0:0:70:bassdrum.wav
448,192,126624,1,0,0:0:0:30:normal-hitclap.wav
64,192,126803,1,0,0:0:0:30:normal-hitclap.wav
448,192,126981,1,0,0:0:0:30:normal-hitclap.wav
64,192,127160,1,0,0:0:0:30:normal-hitclap.wav
448,192,127339,1,0,0:0:0:30:normal-hitclap.wav
64,192,127517,1,0,0:0:0:30:normal-hitclap.wav
448,192,127696,1,0,0:0:0:30:normal-hitclap.wav
192,192,127874,1,0,0:0:0:30:normal-hitclap.wav
448,192,128053,1,0,0:0:0:30:normal-hitclap.wav
64,192,128053,1,0,0:0:0:70:bassdrum.wav
192,192,128231,1,0,0:0:0:30:normal-hitclap.wav
448,192,128410,1,0,0:0:0:30:normal-hitclap.wav
64,192,128410,1,0,0:0:0:70:bassdrum.wav
192,192,128589,1,0,0:0:0:30:normal-hitclap.wav
448,192,128767,1,0,0:0:0:30:normal-hitclap.wav
64,192,128767,1,0,0:0:0:70:bassdrum.wav
320,192,128946,1,0,0:0:0:0:
448,192,129124,1,0,0:0:0:70:bassdrum.wav
192,192,129124,1,0,0:0:0:70:bassdrum.wav
64,192,129303,128,0,133589:0:0:0:70:bassdrum.wav
320,192,129303,1,0,0:0:0:30:cymbol01.wav
