osu file format v9

[General]
AudioFilename: Koi Yomi Zakura.mp3
AudioLeadIn: 2000
PreviewTime: 106376
Countdown: 0
SampleSet: Normal
StackLeniency: 0.5
Mode: 0
LetterboxInBreaks: 1

[Editor]
DistanceSpacing: 0.8
BeatDivisor: 4
GridSize: 8

[Metadata]
Title:Koi Yomi Zakura
Artist:Loos
Creator:NatsumeRin
Version:Rin
Source:
Tags:omoiyoshino KanaRin c73

[Difficulty]
HPDrainRate:6
CircleSize:4
OverallDifficulty:8
ApproachRate:8
SliderMultiplier:2.08
SliderTickRate:1

[Events]
//Background and Video events
0,0,"BG.jpg"
Video,0,"Movie.avi"
//Break Periods
//Storyboard Layer 0 (Background)
//Storyboard Layer 1 (Fail)
//Storyboard Layer 2 (Pass)
//Storyboard Layer 3 (Foreground)
//Storyboard Sound Samples
//Background Colour Transformations
3,100,163,162,255

[TimingPoints]
752,357.142857142857,4,1,2,60,1,0
3609,-100,4,2,1,60,0,0
5037,-166.666666666667,4,2,1,60,0,0
5394,-166.666666666667,4,2,1,30,0,0
5573,-166.666666666667,4,1,1,5,0,0
5751,-125,4,2,1,30,0,0
6109,-125,4,2,1,45,0,0
6466,-100,4,1,1,60,0,0
11466,-66.6666666666667,4,1,2,60,0,0
11644,-66.6666666666667,4,1,2,5,0,0
12180,-100,4,2,1,80,0,0
16466,-100,4,2,1,85,0,0
17894,-125,4,2,1,85,0,0
18430,-125,4,2,1,70,0,0
18787,-100,4,2,0,55,0,0
19323,-100,4,2,1,85,0,0
20216,-100,4,2,0,55,0,0
20751,-100,4,1,1,70,0,0
21823,-100,4,1,2,80,0,0
22001,-100,4,1,1,70,0,0
22894,-100,4,1,2,70,0,0
23073,-100,4,1,1,80,0,0
23609,-100,4,2,1,80,0,0
32180,-100,4,1,2,80,0,0
33787,-100,4,1,1,80,0,0
35037,-100,4,2,1,80,0,0
43966,-100,4,1,2,70,0,0
44501,-100,4,2,1,80,0,0
44680,-100,4,2,1,90,0,0
45037,-100,4,2,1,80,0,0
46109,-66.6666666666667,4,2,1,80,0,0
46287,-66.6666666666667,4,2,1,5,0,0
46466,-100,4,1,1,75,0,0
48787,-100,4,2,1,95,0,0
49144,-100,4,1,1,75,0,0
51644,-100,4,2,1,95,0,0
52001,-100,4,1,1,75,0,0
55037,-100,4,2,1,85,0,0
55216,-100,4,2,1,65,0,0
56466,-200,4,1,2,75,0,0
56823,-200,4,1,1,5,0,0
57894,-133.333333333333,4,2,2,45,0,0
60037,-133.333333333333,4,2,2,55,0,0
60394,-133.333333333333,4,2,2,45,0,0
65751,-133.333333333333,4,2,2,55,0,0
66109,-133.333333333333,4,2,2,45,0,0
75037,-133.333333333333,4,1,0,15,0,0
75751,-133.333333333333,4,1,0,20,0,0
76466,-133.333333333333,4,1,0,25,0,0
77180,-133.333333333333,4,1,0,30,0,0
77894,-100,4,1,0,35,0,0
78609,-100,4,1,0,40,0,0
79323,-100,4,1,1,90,0,0
80394,-100,4,1,2,80,0,0
80751,-100,4,1,1,80,0,0
85751,-100,4,1,2,85,0,0
85930,-100,4,1,2,65,0,0
86466,-100,4,1,1,80,0,0
90751,-100,4,2,1,80,0,0
91466,-133.333333333333,4,2,1,80,0,0
91823,-133.333333333333,4,1,2,80,0,0
92180,-100,4,1,1,60,0,0
97359,-100,4,2,1,40,0,0
97894,-100,4,1,1,60,0,0
100751,-100,4,2,1,50,0,0
102180,-100,4,2,1,70,0,0
105751,-83.3333333333333,4,2,2,50,0,0
106109,-100,4,1,2,70,0,0
106466,-100,4,2,1,85,0,1
111644,-100,4,1,2,65,0,1
112180,-100,4,2,1,85,0,1
117359,-100,4,1,2,65,0,1
117894,-100,4,2,1,85,0,1
123609,-100,4,1,1,85,0,1
123787,-100,4,2,1,85,0,1
125037,-100,4,1,1,85,0,1
125216,-100,4,2,1,85,0,1
125751,-100,4,1,1,85,0,1
125930,-100,4,2,1,85,0,1
126466,-100,4,2,1,95,0,1
129323,-100,4,2,1,70,0,0
130037,-100,4,2,1,60,0,0
130751,-100,4,2,1,50,0,0
131466,-200,4,2,1,40,0,0
131823,-200,4,2,1,5,0,0
132894,-200,4,2,1,50,0,0

[Colours]
Combo1 : 128,128,255
Combo2 : 255,128,255
Combo3 : 255,0,128
SliderBorder : 240,240,240

[HitObjects]
112,136,752,6,0,B|152:104|216:112,1,104,0|2
272,272,1109,2,0,B|232:304|168:296,1,104,0|0
96,240,1466,1,2
112,136,1644,1,0
96,240,1823,1,0
192,208,2001,1,2
272,272,2180,6,0,B|312:304|392:288,1,104,0|2
328,128,2537,2,0,B|384:112|440:152,1,104,2|0
448,240,2894,1,2
472,336,3073,1,0
448,240,3251,1,0
328,128,3430,1,2
304,40,3609,5,2
272,208,3966,1,0
368,344,4323,1,2
272,208,4680,1,0
368,344,5037,2,0,B|320:384|240:392|184:352,1,187.200004463196,4|0
272,360,5751,6,2,B|224:336|152:328|104:360,1,166.4,2|0
111,355,6287,1,0
32,312,6466,6,0,B|80:272|80:208,1,104,4|8
64,128,6823,1,2
16,48,7001,1,0
32,224,7180,6,0,B|40:288|96:312,1,104,0|2
184,328,7537,1,8
280,296,7716,1,2
400,320,7894,6,0,B|360:272|384:208,1,104,4|8
408,136,8251,1,2
480,64,8430,1,0
432,232,8609,6,0,B|400:288|328:304,1,104,0|2
256,312,8966,1,8
168,272,9144,1,2
96,168,9323,6,0,B|136:128|200:144,1,104,4|8
272,184,9680,1,2
336,256,9859,1,0
152,200,10037,6,0,B|128:136|176:88,1,104,4|6
248,56,10394,1,0
344,48,10573,1,2
344,48,10662,1,0
344,48,10751,6,0,B|456:88,1,104,4|2
360,272,11109,2,0,B|472:312,1,104,12|0
480,208,11466,6,0,B|328:152,1,155.999995350838,4|0
333,154,12180,6,0,B|271:151|239:207,1,104,0|8
216,288,12537,1,2
272,368,12716,1,0
120,312,12894,6,0,B|56:304|32:248,1,104,2|2
24,160,13251,1,0
80,80,13430,1,2
240,24,13609,6,0,B|264:80|224:128,1,104,0|2
136,160,13966,1,2
56,104,14144,1,0
128,256,14323,6,0,B|152:312|216:320,1,104,2|2
256,328,14591,1,0
304,320,14680,1,0
392,264,14859,1,2
472,96,15037,6,0,B|416:80|368:120,1,104,0|2
224,216,15394,2,0,B|280:232|328:192,1,104,2|0
328,40,15751,1,2
208,16,15930,1,2
144,120,16109,1,0
224,216,16287,1,2
224,216,16376,1,0
224,216,16466,6,0,B|224:336,1,104,8|0
344,168,16823,2,0,B|344:280,1,104,8|0
464,120,17180,2,0,B|464:248,1,104,8|0
464,224,17448,1,0
464,224,17537,1,8
440,344,17716,1,0
328,296,17894,6,0,B|232:296|216:260|232:224|280:224|296:260|280:296|184:296,1,249.6,4|0
192,48,18787,5,8
320,48,18965,1,8
352,320,19323,5,4
304,240,19501,1,0
208,240,19680,1,2
160,320,19859,1,0
160,128,20216,5,8
352,128,20395,1,8
360,256,20751,5,0
320,136,20930,1,0
192,136,21109,1,2
152,256,21287,1,2
256,328,21466,5,0
256,192,21644,1,2
112,144,21823,1,2
24,256,22001,1,0
152,256,22180,5,0
192,136,22359,1,2
152,256,22537,1,2
48,176,22716,1,0
88,48,22894,1,2
192,136,23073,1,0
192,136,23162,1,0
192,136,23251,2,0,B|328:136,1,104,0|0
352,48,23609,5,0
448,80,23787,2,0,B|488:40,2,52,2|0|0
456,184,24144,1,2
360,216,24323,5,0
296,136,24501,2,0,B|232:136,2,52,2|0|0
352,48,24859,1,2
456,184,25037,6,0,B|480:240|432:288,1,104,0|2
344,312,25394,2,0,B|320:256|368:208,1,104,0|2
416,368,25751,1,0
272,368,25930,1,2
272,368,26019,1,2
272,368,26109,2,0,B|160:368,1,104,0|2
64,344,26466,5,0
144,200,26644,2,0,B|160:128,2,52,2|0|0
168,368,27001,1,2
48,240,27180,5,0
216,280,27359,2,0,B|272:280,2,52,2|0|0
64,344,27716,1,2
144,200,27894,6,0,B|160:144|120:88,1,104,0|2
24,64,28251,2,0,B|8:120|48:176,1,104,0|2
168,24,28609,2,0,B|304:24,1,104,0|2
312,24,28876,1,2
352,24,28966,1,0
464,64,29144,1,2
376,136,29323,6,0,B|336:184|360:248,1,104,0|2
384,280,29591,1,0
432,304,29680,2,0,B|472:256|448:192,1,104,0|2
288,320,30037,6,0,B|248:368|176:344,1,104,0|2
144,320,30305,1,0
120,272,30394,2,0,B|160:224|232:248,1,104,0|2
40,344,30751,5,0
120,272,30930,1,2
72,176,31109,2,0,B|72:64,1,104,0|2
256,24,31466,2,0,B|256:136,1,104,0|2
256,168,31734,1,2
256,208,31823,2,0,B|256:336,1,104,0|2
368,344,32180,5,0
144,344,32537,1,4
336,272,32716,5,0
368,200,32894,1,0
176,272,33251,1,4
368,200,33430,5,0
144,200,33787,1,2
368,200,34144,1,2
176,128,34502,5,2
336,128,34680,1,2
400,272,34859,1,0
400,272,34948,1,0
400,272,35037,6,0,B|352:312|280:280,1,104,0|2
256,272,35305,1,0
208,288,35394,2,0,B|152:304|109:271,1,104,0|2
80,184,35751,5,0
168,56,35930,1,2
168,208,36109,1,0
76,92,36287,1,2
224,136,36466,6,0,B|280:160|328:128,1,104,0|2
360,104,36734,1,0
392,72,36823,2,0,B|440:40|496:64,1,104,0|2
448,152,37180,5,0
456,304,37359,1,2
360,184,37537,1,0
504,224,37716,1,2
368,280,37894,6,0,B|320:304|264:280,1,104,0|2
208,112,38251,2,0,B|256:88|312:112,1,104,0|2
160,224,38609,2,0,B|112:248|56:224,1,104,0|2
112,32,38966,1,0
208,112,39144,1,2
224,144,39234,1,2
240,176,39323,6,0,B|272:232|232:288,1,104,0|2
208,312,39591,1,0
160,320,39680,2,0,B|128:264|168:208,1,104,0|2
320,128,40037,1,0
360,232,40215,1,2
320,336,40394,1,0
280,232,40573,1,2
320,128,40751,6,0,B|264:104|208:144,1,104,0|2
192,176,41019,1,0
176,224,41109,2,0,B|232:248|288:208,1,104,0|2
368,32,41466,1,0
264,40,41644,1,2
168,80,41823,1,0
112,168,42001,1,2
112,168,42091,1,0
112,168,42180,6,0,B|80:216|104:272,1,104,0|2
256,320,42537,2,0,B|288:272|264:216,1,104,0|2
160,352,42894,1,0
352,352,43073,1,2
352,352,43162,1,2
352,352,43251,1,0
256,320,43430,1,2
200,240,43609,5,0
256,152,43787,1,2
312,240,43966,1,4
144,176,44323,5,0
256,80,44501,1,2
368,176,44680,1,4
64,152,45037,5,0
136,48,45216,1,2
256,8,45394,1,0
376,48,45573,1,2
448,152,45751,1,0
304,216,45930,5,2
304,216,46019,1,0
304,216,46109,2,0,B|240:208|224:232|240:256|272:256|288:232|272:208|184:216,1,155.999995350838,12|0
128,288,46466,6,0,B|88:328|24:320,1,104,0|2
152,16,46823,2,0,B|192:64|168:136,1,104,2|0
360,232,47180,2,0,B|312:256|240:248|208:208,1,156,2|0
213,214,47537,1,0
464,144,47716,6,0,B|504:184|488:248,1,104,2|0
448,336,48073,1,2
352,376,48251,1,2
256,336,48430,1,0
256,336,48519,1,0
256,336,48609,2,0,B|152:288,1,104,2|10
168,112,48966,2,0,B|272:160,1,104,10|2
262,155,49234,1,0
262,155,49323,6,0,B|312:184|376:160,1,104,0|2
120,24,49680,2,0,B|120:80|168:112,1,104,2|0
80,312,50037,2,0,B|128:304|176:256|184:192,1,156,2|0
181,205,50394,1,0
8,336,50573,6,0,B|32:392|104:384,1,104,2|0
200,376,50930,1,2
296,328,51109,1,2
352,240,51287,1,0
328,136,51466,2,0,B|384:120|424:160,2,104,2|10|8
192,48,52001,1,2
176,56,52091,1,0
160,64,52180,6,0,B|120:104|144:160,1,104,0|2
312,232,52537,2,0,B|352:192|328:136,1,104,2|0
168,256,52894,1,2
256,320,53073,2,0,B|272:392,2,52,0|2|0
328,136,53430,6,0,B|264:128|216:184,1,104,2|0
168,256,53787,1,2
64,224,53966,1,2
56,112,54144,1,0
160,72,54323,1,2
256,320,54680,1,2
352,72,55037,5,4
412,152,55216,1,2
428,176,55305,1,0
444,200,55394,1,0
352,232,55573,1,2
336,256,55662,1,0
320,280,55751,1,0
264,192,55930,1,2
240,184,56019,1,0
216,176,56109,1,0
264,96,56287,1,2
312,96,56376,1,0
352,72,56466,6,0,B|416:80|448:176|352:232|352:232|304:232|256:184,1,312,4|0
184,48,57894,5,2
112,24,58073,1,0
64,88,58251,1,2
112,152,58430,1,0
184,128,58609,1,2
96,232,58966,5,2
100,310,59145,1,0
172,334,59323,1,2
220,270,59502,1,0
172,206,59681,1,2
432,288,60037,6,0,B|400:328|320:336|272:296,1,155.999995350838,4|0
219,269,60573,1,0
368,112,60751,6,0,B|400:72|480:64|528:104,1,155.999995350838,2|2
488,160,61287,1,0
424,208,61466,1,2
352,184,61644,1,0
296,136,61823,1,0
272,64,62001,1,2
344,40,62180,5,2
296,136,62359,1,0
192,168,62537,1,2
96,120,62716,1,0
72,16,62894,1,2
72,16,63609,5,2
128,72,63787,1,0
96,144,63966,1,2
24,136,64144,1,0
8,64,64323,1,2
276,212,64680,5,2
208,252,64858,1,0
148,200,65037,1,2
179,129,65215,1,0
256,136,65394,1,2
464,96,65751,6,0,B|432:64|352:56|312:88,1,155.999995350838,4|0
256,136,66287,1,0
224,304,66466,6,0,B|256:336|336:344|376:312,1,155.999995350838,2|2
424,256,67001,1,0
352,208,67180,1,2
272,232,67359,1,0
224,304,67537,1,0
152,344,67716,1,2
72,336,67894,5,2
128,216,68073,1,0
152,344,68251,1,2
56,256,68430,1,2
192,272,68609,1,0
192,272,69323,5,2
128,216,69501,1,0
168,144,69680,1,2
248,152,69859,1,0
264,232,70037,1,2
264,232,70394,5,2
248,152,70573,1,0
320,112,70751,1,2
384,168,70930,1,0
344,240,71109,1,2
344,240,71466,6,0,B|344:192|408:128|464:144,1,155.999995350838,4|0
496,200,72001,1,0
432,232,72180,2,0,B|384:216|336:144|360:88,1,155.999995350838,2|2
384,40,72716,1,0
432,104,72894,2,0,B|440:152|384:192,1,77.9999976754189,2|0
328,200,73251,2,0,B|280:216|240:184,1,77.9999976754189,2|0
200,128,73609,5,2
328,200,73787,1,0
176,216,73966,1,2
288,120,74144,1,0
256,264,74323,1,2
256,264,75037,6,0,B|256:208,15,38.9999988377095
256,152,76466,6,0,B|256:120,7,19.4999994188547
320,192,76823,2,0,B|376:192,11,38.9999988377095
432,192,77894,6,0,B|464:192,3,26
448,240,78073,1,0
440,288,78162,1,0
408,328,78251,1,0
360,336,78341,1,0
312,328,78430,1,0
272,296,78519,1,0
256,248,78609,6,0,B|256:216,3,26
240,296,78787,1,0
200,328,78876,1,0
152,336,78965,1,0
104,328,79055,1,0
72,288,79144,1,0
64,240,79233,1,0
80,192,79323,5,2
256,248,79501,1,0
256,32,79859,5,2
432,192,80216,5,2
256,248,80394,1,4
256,32,80751,6,0,B|304:24|376:48|408:96,1,156,4|8
432,120,81109,1,0
480,248,81287,2,0,B|454:272|408:272|376:240,1,104,8|0
312,176,81644,1,8
432,120,81823,1,8
480,248,82001,1,0
456,280,82091,1,8
432,312,82180,6,0,B|328:344,1,104,0|8
136,232,82537,2,0,B|240:200,1,104,0|8
384,32,82894,2,0,B|280:64,1,104,0|8
242,79,83162,1,0
200,96,83251,2,0,B|136:112|96:72,1,104,8|0
40,184,83609,6,0,B|64:224|144:248|184:224,1,156,0|8
224,208,83966,1,0
320,112,84144,2,0,B|368:144|360:208,1,104,8|0
320,304,84501,1,0
224,208,84680,1,8
320,112,84859,1,0
416,272,85037,6,0,B|432:328|496:344,1,104,0|8
416,144,85394,2,0,B|432:88|496:72,1,104,0|8
504,208,85751,1,4
328,208,85930,1,2
328,208,86019,1,2
328,208,86109,2,0,B|200:208,1,104,2|2
96,112,86466,6,0,B|48:144|40:216|80:272,1,156,4|8
96,296,86823,1,0
248,352,87001,2,0,B|280:296|232:240,1,104,8|0
160,152,87359,1,8
96,296,87537,1,8
248,352,87716,1,0
280,336,87805,1,8
312,320,87894,6,0,B|344:208,1,104,0|8
496,192,88251,2,0,B|464:304,1,104,0|8
256,232,88609,2,0,B|288:120,1,104,0|8
295,93,88876,1,0
306,55,88966,2,0,B|338:7|410:23,1,104,8|0
360,184,89323,6,0,B|328:232|256:248|200:208,1,156,0|8
184,192,89680,1,0
88,80,89859,2,0,B|120:32|192:48,1,104,8|0
295,93,90216,1,0
184,192,90394,1,8
88,80,90573,1,0
192,112,90751,5,2
128,256,90930,1,8
272,176,91109,1,2
104,160,91287,1,8
232,268,91466,2,0,B|280:300|352:268|364:212,1,155.999995350838,4|4
480,16,92180,6,0,B|456:120,1,104,4|4
376,144,92716,5,4
376,144,92805,1,0
376,144,92894,2,0,B|352:248,1,104,4|4
272,264,93430,5,4
272,264,93519,1,0
272,264,93608,2,0,B|248:368,1,104,4|4
248,365,94144,5,4
144,344,94323,2,0,B|88:368|40:328,1,104,4|0
120,208,94680,2,0,B|176:184|224:224,1,104,4|4
248,368,95037,6,0,B|368:368,1,104,4|0
272,264,95394,2,0,B|392:264,1,104,4|0
296,160,95751,1,4
296,160,95930,2,0,B|264:104|160:96|104:136,1,208,0|4
152,216,96466,5,4
88,280,96644,1,4
8,240,96823,1,0
24,152,97001,1,4
108,133,97180,1,4
152,56,97359,1,2
152,56,97448,1,0
152,56,97537,2,0,B|200:32|256:56,1,104,2|0
304,128,97894,6,0,B|352:232,1,104,4|4
384,296,98430,5,4
384,296,98519,1,0
384,296,98609,2,0,B|280:344,1,104,4|4
216,368,99144,5,4
216,368,99233,1,0
216,368,99323,2,0,B|168:264,1,104,4|4
136,200,99859,5,4
136,200,100037,2,0,B|200:176|240:232,1,104,4|0
208,344,100394,2,0,B|144:368|104:312,1,104,4|0
32,248,100751,6,0,B|32:120,1,104,2|0
136,200,101109,2,0,B|136:72,1,104,2|0
240,152,101466,1,2
240,152,101644,2,0,B|240:24,2,104,2|0|2
240,248,102180,5,4
240,248,105751,6,2,B|232:312|288:360|288:360|360:368|424:304,1,249.600005950928,0|4
256,140,106466,5,0
336,216,106644,1,2
432,168,106823,1,0
416,56,107001,1,2
304,40,107180,2,0,B|256:32|184:48|152:88,1,156,8|8
120,144,107537,5,0
16,200,107716,1,2
32,312,107894,1,0
144,336,108073,1,2
200,232,108251,1,0
464,248,108430,5,2
464,248,108519,1,0
464,248,108609,2,0,B|432:208|352:184|288:216,1,156,8|8
272,256,108966,1,0
368,368,109144,1,2
440,176,109323,6,0,B|392:192|328:176|288:128,1,156,4|8
256,80,109680,1,0
384,32,109859,1,2
312,208,110037,2,0,B|272:256|200:240,1,104,0|2
56,160,110394,2,0,B|96:112|168:128,1,104,8|2
184,184,110662,1,0
152,248,110751,6,0,B|96:352,1,104,0|2
328,320,111109,2,0,B|384:216,1,104,8|2
456,64,111466,1,0
360,120,111644,1,2
360,120,111734,1,2
360,120,111823,2,0,B|304:152|248:112,1,104,2|0
184,24,112180,5,4
72,56,112359,1,2
72,168,112537,1,0
184,208,112716,1,2
261,120,112894,2,0,B|296:88|376:80|416:112,1,156,8|8
456,160,113251,5,0
512,272,113430,1,2
424,352,113609,1,0
312,296,113787,1,2
336,176,113966,1,0
80,224,114144,5,2
80,224,114234,1,0
80,224,114323,2,0,B|112:256|200:256|248:200,1,156,8|8
264,160,114680,1,0
144,88,114859,1,2
112,288,115037,6,0,B|144:256|224:248|264:296,1,156,4|8
312,336,115394,2,0,B|440:336,1,104,0|2
472,216,115751,1,0
364,128,115930,1,2
256,216,116109,1,8
312,336,116287,1,2
312,336,116376,1,2
312,336,116466,6,0,B|368:312|376:256,1,104,0|2
192,96,116823,2,0,B|136:120|128:176,1,104,8|2
128,344,117180,1,0
152,320,117269,1,0
176,296,117359,1,2
200,272,117448,1,2
224,248,117537,2,0,B|304:160,1,104,2|0
376,80,117894,5,4
488,128,118073,1,2
480,248,118251,1,0
368,280,118430,1,2
293,171,118609,1,8
368,280,118787,5,2
368,280,118876,1,8
368,280,118966,1,0
368,160,119144,1,2
256,112,119323,1,0
176,200,119501,1,2
240,304,119680,2,0,B|192:344|128:312,1,104,8|2
80,288,119948,1,0
40,232,120037,6,0,B|8:184|32:128,1,104,8|2
120,48,120394,1,0
240,88,120573,1,2
312,192,120751,2,0,B|344:240|320:296,1,104,0|2
360,352,121019,1,8
432,336,121109,2,0,B|432:208,1,104,0|2
432,88,121466,2,0,B|368:80|336:128,1,104,0|10
288,264,121823,2,0,B|256:320|184:304,1,104,0|2
128,240,122180,5,0
272,168,122359,1,10
200,306,122537,1,8
176,152,122716,1,2
288,264,122894,1,8
128,240,123073,1,2
128,240,123162,1,10
128,240,123251,2,0,B|0:224,1,104,0|10
224,144,123609,6,0,B|96:128,1,104,4|2
200,32,123966,2,0,B|72:16,1,104,0|2
448,88,124323,6,0,B|432:216,1,104,0|2
336,112,124680,2,0,B|320:240,1,104,0|2
64,280,125037,6,0,B|192:304,1,104,4|2
216,208,125394,1,0
144,128,125573,1,2
312,160,125751,6,0,B|336:32,1,104,4|2
448,40,126108,1,0
504,144,126287,1,2
416,232,126466,6,0,B|432:368,1,104,0|2
352,136,126823,6,0,B|488:120,1,104,0|2
256,200,127180,6,0,B|240:64,1,104,0|2
320,296,127537,6,0,B|184:312,1,104,0|2
336,216,127894,5,0
272,344,128073,1,2
296,128,128251,5,0
424,192,128430,1,2
208,168,128609,5,0
272,40,128788,1,2
248,256,128966,5,0
120,192,129145,1,2
208,168,129323,5,0
296,184,129501,1,0
376,232,129680,1,0
416,320,129859,1,0
376,232,130037,5,0
368,152,130216,1,0
384,72,130394,1,0
432,8,130573,1,0
384,72,130751,5,0
318,105,130930,1,0
246,109,131109,1,0
177,94,131287,1,0
112,56,131466,6,0,B|72:16|24:24|24:24|32:64|72:96|72:96|56:152|112:192|112:192|40:312,1,416,4|0
50,295,133028,1,0
