osu file format v9

[General]
AudioFilename: Koi Yomi Zakura.mp3
AudioLeadIn: 2000
PreviewTime: 106376
Countdown: 0
SampleSet: Normal
StackLeniency: 0.5
Mode: 0
LetterboxInBreaks: 1

[Editor]
DistanceSpacing: 1
BeatDivisor: 4
GridSize: 8

[Metadata]
Title:Koi Yomi Zakura
Artist:Loos
Creator:NatsumeRin
Version:Normal
Source:
Tags:omoiyoshino KanaRin c73

[Difficulty]
HPDrainRate:3
CircleSize:3
OverallDifficulty:3
ApproachRate:5
SliderMultiplier:1.28
SliderTickRate:1

[Events]
//Background and Video events
0,0,"BG.jpg"
Video,0,"Movie.avi"
//Break Periods
//Storyboard Layer 0 (Background)
//Storyboard Layer 1 (Fail)
//Storyboard Layer 2 (Pass)
//Storyboard Layer 3 (Foreground)
//Storyboard Sound Samples
//Background Colour Transformations
3,100,163,162,255

[TimingPoints]
752,357.142857142857,4,1,2,60,1,0
752,-133.333333333333,4,1,2,60,0,0
3609,-166.666666666667,4,2,1,50,0,0
4323,-166.666666666667,4,2,1,30,0,0
4680,-166.666666666667,4,2,1,60,0,0
5037,-166.666666666667,4,2,1,30,0,0
5751,-133.333333333333,4,2,1,30,0,0
6109,-133.333333333333,4,2,1,45,0,0
6466,-100,4,1,1,60,0,0
11466,-100,4,1,2,60,0,0
12180,-100,4,2,1,80,0,0
16466,-100,4,2,1,85,0,0
18430,-100,4,2,1,70,0,0
18787,-100,4,2,2,55,0,0
19323,-100,4,2,1,85,0,0
20216,-100,4,2,2,55,0,0
20751,-100,4,1,1,70,0,0
22894,-100,4,1,2,70,0,0
23609,-100,4,2,1,80,0,0
32180,-100,4,1,2,80,0,0
33787,-100,4,1,1,80,0,0
35037,-100,4,2,1,80,0,0
43966,-100,4,1,2,70,0,0
44501,-100,4,2,1,80,0,0
44680,-100,4,2,1,90,0,0
45037,-100,4,2,1,80,0,0
46109,-100,4,1,2,80,0,0
46466,-100,4,1,1,75,0,0
48787,-100,4,2,1,95,0,0
49144,-100,4,1,1,75,0,0
51644,-100,4,2,1,95,0,0
52001,-100,4,1,1,75,0,0
55037,-100,4,2,1,75,0,0
56466,-100,4,1,2,80,0,0
57894,-133.333333333333,4,2,2,45,0,0
60037,-133.333333333333,4,2,2,55,0,0
60394,-133.333333333333,4,2,2,45,0,0
65751,-133.333333333333,4,2,2,55,0,0
66109,-133.333333333333,4,2,2,45,0,0
75037,-133.333333333333,4,1,0,20,0,0
76466,-133.333333333333,4,1,0,25,0,0
77180,-133.333333333333,4,1,0,30,0,0
77894,-100,4,1,0,35,0,0
78609,-100,4,1,0,40,0,0
79323,-100,4,1,1,90,0,0
80394,-100,4,1,2,80,0,0
80751,-100,4,1,1,80,0,0
85751,-100,4,1,2,85,0,0
85930,-100,4,1,2,65,0,0
86466,-100,4,1,1,80,0,0
90751,-100,4,2,1,80,0,0
91823,-100,4,1,2,80,0,0
92180,-100,4,1,1,60,0,0
97359,-100,4,2,1,40,0,0
97894,-100,4,1,1,60,0,0
100751,-100,4,2,1,50,0,0
102180,-100,4,2,1,70,0,0
106466,-100,4,2,1,85,0,1
123609,-100,4,1,1,85,0,1
123787,-100,4,2,1,85,0,1
125037,-100,4,1,1,85,0,1
125216,-100,4,2,1,85,0,1
125751,-100,4,1,1,85,0,1
125930,-100,4,2,1,85,0,1
126466,-100,4,2,1,95,0,1
126555,-100,4,2,1,50,0,1
129323,-100,4,2,1,70,0,0
130037,-100,4,2,1,60,0,0
130751,-100,4,2,1,50,0,0
131466,-200,4,2,1,40,0,0
131823,-200,4,2,1,5,0,0
132894,-200,4,2,1,50,0,0

[Colours]
Combo1 : 128,128,255
Combo2 : 255,128,255
Combo3 : 255,0,128
SliderBorder : 240,240,240

[HitObjects]
160,232,752,2,0,B|56:232,1,95.9999971389771,0|0
104,336,1466,2,0,B|200:336,1,95.9999971389771,0|0
312,336,2180,2,0,B|408:336,1,95.9999971389771,0|0
448,232,2894,2,0,B|352:232,1,95.9999971389771,0|0
256,168,3609,6,0,B|208:128|304:64|248:16,2,153.600003662109,4|0|0
304,344,5751,2,0,B|256:368|208:344,1,95.9999971389771
88,248,6466,6,0,B|48:184|80:112,1,128,4|2
216,56,7180,1,8
320,168,7537,1,0
232,296,7894,6,0,B|280:344|360:320,1,128,4|2
448,200,8609,1,8
336,88,8966,1,0
200,160,9323,6,0,B|144:208|64:176,1,128,4|2
120,32,10037,1,4
120,32,10216,1,6
256,96,10573,2,0,B|336:96,1,64,2|4
376,240,11109,2,0,B|352:152,2,64,6|0|4
376,240,12180,6,0,B|336:304|256:288,1,128,0|2
144,200,12894,1,0
216,64,13251,1,2
368,88,13609,6,0,B|448:72|496:144,1,128,0|2
488,280,14323,1,0
344,320,14680,1,2
264,192,15037,6,0,B|224:168|208:112|224:72,1,128,0|2
80,24,15751,1,0
24,168,16109,2,0,B|24:248,2,64,2|0|0
168,224,16823,5,2
232,360,17180,1,0
232,360,17359,1,0
232,360,17537,1,2
376,296,17894,5,4
136,296,18430,1,0
288,224,18787,2,0,B|208:224,1,64,8|8
336,120,19323,5,4
296,48,19501,1,0
216,48,19680,1,2
176,120,19859,1,0
288,224,20216,2,0,B|208:224,1,64,8|8
72,224,20751,6,0,B|32:168|64:96,1,128,0|2
192,24,21466,2,0,B|232:80|200:152,1,128,0|2
128,280,22180,2,0,B|176:328|240:336|240:336|304:304|328:232,1,256,0|4
192,24,23609,6,0,B|264:8|320:56,1,128,0|2
336,200,24323,1,0
192,256,24680,1,2
96,136,25037,2,0,B|32:176|40:264,2,128,0|2|0
248,104,26109,1,2
328,240,26466,5,0
224,352,26823,2,0,B|64:352,2,128,2|0|2
376,352,27894,1,0
456,224,28251,1,2
424,152,28430,1,2
456,80,28609,2,0,B|408:32|320:40,1,128,0|2
232,152,29323,6,0,B|152:160|104:104,2,128,0|2|0
248,304,30394,1,2
104,352,30751,1,0
8,232,31109,1,2
112,112,31466,2,0,B|112:48,2,64,0|2|2
176,256,32180,6,0,B|240:288|328:248,1,128,0|4
32,112,33251,1,4
128,320,33787,2,0,B|192:360|272:344,1,128,2|2
328,344,34323,2,0,B|416:344,2,64,0|2|2
448,248,35037,6,0,B|496:192|472:112,1,128,0|2
352,32,35751,1,0
248,144,36109,1,2
312,280,36466,2,0,B|280:304|208:304|176:264,1,128,0|2
96,160,37180,1,0
160,24,37537,2,0,B|240:24,1,64,2|2
296,48,37894,6,0,B|344:88|416:72,1,128,0|2
464,216,38609,2,0,B|405:237|383:307,1,128,0|2
232,352,39323,1,0
144,224,39680,1,2
232,104,40037,1,0
376,152,40394,1,2
376,152,40573,1,2
376,152,40751,6,0,B|360:240|264:256,1,128,0|2
168,320,41466,2,0,B|88:328|48:256,1,128,0|2
48,120,42180,1,0
200,80,42537,1,2
272,216,42894,2,0,B|360:184,2,64,0|2|2
200,352,43609,5,0
256,296,43787,1,2
312,352,43966,2,0,B|344:320|344:264|296:224,1,128,4|0
256,176,44501,1,2
200,232,44680,6,0,B|168:200|168:144|216:104,1,128,4|0
256,56,45216,1,0
328,24,45394,2,0,B|400:8|448:56,2,128,2|2|4
360,176,46466,6,0,B|360:328,1,128,0|2
216,360,47180,2,0,B|152:376|64:344|48:280,2,192,2|2|2
176,208,48609,1,0
232,144,48787,1,10
152,128,48966,1,10
272,32,49323,6,0,B|344:8|408:64,1,128,0|2
464,192,50037,2,0,B|432:256|488:320|488:320|448:344|472:384,2,192,2|2|2
312,208,51466,1,0
232,216,51644,1,10
280,280,51823,1,8
128,304,52180,6,0,B|72:256|96:176,1,128,0|2
200,80,52894,2,0,B|280:96|320:24|320:24|352:40|376:24,2,192,2|2|2
48,40,54323,1,0
96,184,54680,1,2
208,296,55037,6,0,B|264:336|336:312,1,128
408,176,55751,2,0,B|352:136|280:160,1,128
208,296,56466,1,4
208,296,57894,5,2
124,240,58251,1,0
152,140,58609,1,2
252,136,58966,1,2
288,232,59323,1,0
208,296,59680,1,2
288,232,60037,6,0,B|328:200|408:200|448:232,1,143.999995708466,4|0
472,272,60751,6,0,B|432:256|392:184|424:128,1,143.999995708466,2|0
432,88,61466,1,2
344,16,61823,1,0
264,88,62180,2,0,B|216:120|160:80,2,95.9999971389771,2|0|2
264,88,63609,5,2
344,140,63966,1,0
324,232,64323,1,2
228,244,64680,1,2
192,156,65037,1,0
264,88,65394,1,2
192,156,65751,6,0,B|158:192|96:204|48:180,1,143.999995708466,4|0
12,132,66466,6,0,B|60:148|80:220|52:272,1,143.999995708466,0|2
44,308,67180,1,0
160,360,67537,1,2
240,264,67894,2,0,B|280:232|336:248,1,95.9999971389771,0|2
448,288,68609,1,0
448,288,69323,5,2
488,200,69680,1,0
424,128,70037,1,2
336,176,70394,1,2
352,272,70751,1,0
448,288,71109,1,2
488,200,71466,6,0,B|504:152|480:88|424:64,1,143.999995708466,4|0
400,104,72180,2,0,B|352:112|296:96|272:56,1,143.999995708466,2|0
232,24,72894,2,0,B|128:24,1,95.9999971389771,2|0
64,112,73609,2,0,B|32:160|72:208,2,95.9999971389771,2|2|4
64,112,75037,5,0
144,112,76466,5,0
368,112,77180,1,0
184,192,77894,5,0
256,232,78251,1,0
328,192,78609,1,0
256,152,78966,1,0
184,192,79323,6,0,B|104:192,1,64,2|0
256,312,79859,1,2
328,192,80216,2,0,B|408:192,1,64,2|4
256,152,80751,6,0,B|232:112|160:96|112:144,1,128,0|2
24,224,81466,1,0
160,304,81823,1,2
296,224,82180,2,0,B|344:200|352:136|312:88,1,128,0|2
304,32,82716,1,2
224,32,82894,2,0,B|80:32,2,128,0|2|0
384,32,83966,5,2
456,64,84144,1,0
456,216,84501,1,0
384,248,84680,2,0,B|352:272|272:272|232:216,1,128,2|0
144,344,85394,1,2
32,240,85751,1,4
64,168,85930,1,2
32,96,86109,1,2
176,48,86466,6,0,B|216:32|280:48|304:88,1,128,0|2
344,216,87180,2,0,B|304:232|240:216|216:176,1,128,0|2
176,128,87716,1,2
149,202,87894,1,0
240,328,88251,1,2
392,288,88609,2,0,B|440:264|448:192|400:152,1,128,0|2
456,24,89323,6,0,B|416:0|352:16|328:56,1,128,0|2
288,104,89859,2,0,B|272:144|192:152|160:120,1,128
112,80,90394,1,2
112,232,90751,2,0,B|72:244|52:304|76:344,1,128,2|2
152,352,91287,1,0
176,280,91466,2,0,B|328:280,1,128,4|4
408,168,92180,5,4
104,168,92894,1,4
368,88,93609,2,0,B|288:88,1,64,4|4
144,88,94144,2,0,B|224:88,1,64,4|4
256,248,95037,6,0,B|296:288|216:336|272:384,2,128,4|4|4
256,168,95930,1,4
336,328,96466,1,4
336,328,96644,1,4
176,328,97001,1,4
176,328,97180,2,0,B|16:328,1,128,0|2
104,192,97894,5,4
408,192,98609,1,4
152,128,99323,1,4
200,64,99501,2,0,B|224:32|289:32|315:65,1,128,4|4
360,128,100037,1,4
256,240,100394,1,4
152,128,100751,6,0,B|152:200|96:248,1,128,2|2
216,352,101466,1,2
296,352,101644,1,2
360,128,102180,1,4
360,128,106466,6,0,B|192:128,2,128,0|2|0
296,264,107537,2,0,B|440:264,2,128,2|0|2
160,336,108609,1,0
104,192,108966,1,2
104,192,109144,1,0
104,192,109323,6,0,B|144:168|168:104|144:56,1,128,0|2
296,32,110037,2,0,B|336:16|400:24|424:64,1,128,0|2
440,208,110751,1,0
296,272,111109,1,2
208,152,111466,2,0,B|144:64,3,64,0|2|2|2
120,40,112180,6,0,B|80:40|40:104|56:144,1,128,0|2
144,264,112894,1,0
280,184,113251,1,2
232,40,113609,2,0,B|264:16|336:16|368:64,1,128,0|2
464,152,114323,1,0
416,296,114680,2,0,B|328:296,1,64,2|0
280,328,115037,6,0,B|248:344|176:344|144:320,1,128,0|2
64,200,115751,1,0
168,88,116109,1,2
240,120,116287,1,0
296,64,116466,2,0,B|328:40|392:40|424:64,1,128,0|2
480,200,117180,2,0,B|480:280,2,64,0|2|2
384,320,117894,5,0
232,344,118251,1,2
88,280,118609,1,0
56,128,118966,2,0,B|96:104|160:112|184:160,2,128,2|0|2
168,232,120037,2,0,B|216:240|264:192|264:136,1,128,0|2
384,72,120751,5,0
512,160,121109,1,2
464,304,121466,1,0
312,304,121823,1,2
168,360,122180,2,0,B|136:336|136:264|176:232,1,128,0|2
216,184,122716,1,2
192,104,122894,2,0,B|240:88|304:120|304:192,1,128,0|2
136,168,123609,5,4
184,24,123966,1,2
328,64,124323,1,0
288,216,124680,2,0,B|288:312,1,64,2|0
352,328,125037,5,4
424,192,125394,1,2
312,88,125751,1,4
176,152,126109,1,2
192,304,126466,1,4
256,192,126555,12,4,129323
368,224,130037,1,0
320,344,130394,1,0
192,344,130751,1,0
144,224,131109,1,0
272,136,131466,2,0,B|288:104|288:48|256:16|256:16|224:48|220:104|244:140,1,256,4|0
