osu file format v9

[General]
AudioFilename: Koi Yomi Zakura.mp3
AudioLeadIn: 2000
PreviewTime: 106376
Countdown: 0
SampleSet: Normal
StackLeniency: 0.5
Mode: 0
LetterboxInBreaks: 1

[Editor]
DistanceSpacing: 1
BeatDivisor: 4
GridSize: 8

[Metadata]
Title:Koi Yomi Zakura
Artist:Loos
Creator:NatsumeRin
Version:Hard
Source:
Tags:omoiyoshino KanaRin c73

[Difficulty]
HPDrainRate:5
CircleSize:4
OverallDifficulty:6
ApproachRate:7
SliderMultiplier:1.6
SliderTickRate:1

[Events]
//Background and Video events
0,0,"BG.jpg"
Video,0,"Movie.avi"
//Break Periods
//Storyboard Layer 0 (Background)
//Storyboard Layer 1 (Fail)
//Storyboard Layer 2 (Pass)
//Storyboard Layer 3 (Foreground)
//Storyboard Sound Samples
//Background Colour Transformations
3,100,163,162,255

[TimingPoints]
752,357.142857142857,4,1,2,60,1,0
752,-133.333333333333,4,1,2,60,0,0
3609,-133.333333333333,4,2,1,40,0,0
5037,-166.666666666667,4,2,1,30,0,0
5394,-166.666666666667,4,2,1,5,0,0
5751,-133.333333333333,4,2,1,30,0,0
6109,-133.333333333333,4,2,1,45,0,0
6466,-100,4,1,1,60,0,0
11466,-80,4,1,2,60,0,0
11823,-80,4,1,2,5,0,0
12180,-100,4,2,1,80,0,0
16466,-100,4,2,1,85,0,0
18430,-100,4,2,1,70,0,0
18787,-100,4,2,2,55,0,0
19323,-100,4,2,1,85,0,0
20216,-100,4,2,2,55,0,0
20751,-100,4,1,1,70,0,0
22894,-100,4,1,2,70,0,0
23609,-100,4,2,1,80,0,0
32180,-100,4,1,2,80,0,0
33787,-100,4,1,1,80,0,0
35037,-100,4,2,1,80,0,0
43966,-100,4,1,2,70,0,0
44501,-100,4,2,1,80,0,0
44680,-100,4,2,1,90,0,0
45037,-100,4,2,1,80,0,0
46109,-100,4,1,2,80,0,0
46466,-100,4,1,1,75,0,0
48787,-100,4,2,1,95,0,0
49144,-100,4,1,1,75,0,0
51644,-100,4,2,1,95,0,0
52001,-100,4,1,1,75,0,0
55037,-100,4,2,1,75,0,0
56466,-100,4,1,2,80,0,0
57894,-133.333333333333,4,2,2,45,0,0
60037,-133.333333333333,4,2,2,55,0,0
60394,-133.333333333333,4,2,2,45,0,0
65751,-133.333333333333,4,2,2,55,0,0
66109,-133.333333333333,4,2,2,45,0,0
75037,-133.333333333333,4,1,0,20,0,0
76466,-133.333333333333,4,1,0,25,0,0
77180,-133.333333333333,4,1,0,30,0,0
77894,-100,4,1,0,35,0,0
78609,-100,4,1,0,40,0,0
79323,-100,4,1,1,90,0,0
80394,-100,4,1,2,80,0,0
80751,-100,4,1,1,80,0,0
85751,-100,4,1,2,85,0,0
85930,-100,4,1,2,65,0,0
86466,-100,4,1,1,80,0,0
90751,-100,4,2,1,80,0,0
91466,-133.333333333333,4,2,1,80,0,0
91823,-100,4,1,2,80,0,0
92180,-100,4,1,1,60,0,0
97359,-100,4,2,1,40,0,0
97894,-100,4,1,1,60,0,0
100751,-100,4,2,1,50,0,0
102180,-100,4,2,1,70,0,0
106466,-100,4,2,1,85,0,1
111644,-100,4,1,2,65,0,1
112180,-100,4,2,1,85,0,1
117359,-100,4,1,2,65,0,1
117894,-100,4,2,1,85,0,1
123609,-100,4,1,1,85,0,1
123787,-100,4,2,1,85,0,1
125037,-100,4,1,1,85,0,1
125216,-100,4,2,1,85,0,1
125751,-100,4,1,1,85,0,1
125930,-100,4,2,1,85,0,1
126466,-100,4,2,1,95,0,1
129323,-100,4,2,1,70,0,0
130037,-100,4,2,1,60,0,0
130751,-100,4,2,1,50,0,0
131466,-200,4,2,1,40,0,0
131823,-200,4,2,1,5,0,0
132894,-200,4,2,1,50,0,0

[Colours]
Combo1 : 128,128,255
Combo2 : 255,128,255
Combo3 : 255,0,128
SliderBorder : 240,240,240

[HitObjects]
104,88,752,2,0,B|136:72|192:80|216:112,1,119.999996423721,0|0
264,192,1287,1,0
192,248,1466,2,0,B|160:264|104:256|80:224,1,119.999996423721,0|0
144,168,2001,1,0
214,109,2180,6,0,B|248:88|304:96|328:128,1,119.999996423721,0|0
376,200,2716,1,0
352,288,2894,2,0,B|392:296|424:272,1,59.9999982118607,0|0
464,152,3251,2,0,B|440:120|400:112,1,59.9999982118607,0|0
328,80,3609,5,2
256,208,3966,1,0
184,336,4323,1,2
256,208,4680,1,0
184,336,5037,2,0,B|144:376|24:344|24:280,1,192.000004577637,4|0
56,120,6109,1,0
56,120,6287,1,0
120,72,6466,6,0,B|160:40|240:48|272:88,1,160,4|2
280,160,7001,1,0
360,176,7180,1,0
400,104,7359,1,2
344,48,7537,1,0
416,232,7894,6,0,B|384:264|336:248,1,80,4|0
264,232,8251,2,0,B|216:216|176:248,1,80,2|0
168,320,8609,1,0
240,360,8787,1,2
296,304,8966,1,0
96,360,9323,6,0,B|40:344|16:264|56:208,1,160,4|2
88,160,9859,1,0
160,128,10037,2,0,B|144:88|80:80,2,80,4|6|0
224,176,10573,1,2
224,176,10662,1,2
224,176,10751,6,0,B|328:176,1,80,4|0
448,136,11109,2,0,B|344:136,1,80,6|0
248,248,11466,6,0,B|448:248,1,199.999997019768,4|0
208,312,12180,6,0,B|176:352|96:368|48:328,1,160,0|2
32,264,12716,1,2
88,208,12894,2,0,B|104:168|88:128,1,80
64,56,13251,1,2
128,8,13430,1,0
192,56,13609,6,0,B|280:56,1,80
344,16,13966,2,0,B|368:56|344:96,1,80,2|2
304,160,14323,2,0,B|280:200|312:248,1,80
376,272,14680,1,2
432,208,14859,1,0
384,144,15037,6,0,B|344:168|256:168|224:120,1,160,0|2
192,64,15573,1,2
112,80,15751,1,0
104,160,15930,1,2
176,192,16109,2,0,B|176:280,1,80,2|0
256,296,16466,5,8
304,232,16644,1,0
256,168,16823,1,8
96,168,17180,1,8
144,232,17359,1,0
96,296,17537,1,8
24,272,17716,1,0
24,192,17894,5,4
488,192,18430,1,0
296,104,18787,5,8
216,104,18965,1,8
184,256,19323,5,4
216,328,19501,1,0
296,328,19680,1,2
328,256,19859,1,0
328,32,20216,5,8
184,32,20395,1,8
72,144,20751,6,0,B|32:176|40:256|88:288,1,160,0|2
152,328,21287,1,2
208,272,21466,2,0,B|296:272,1,80,0|2
424,328,21823,2,0,B|336:328,1,80,0|2
344,208,22180,5,0
384,136,22359,1,2
424,208,22537,1,2
464,136,22716,1,0
423,67,22894,2,0,B|364:40|303:80|304:147,1,160,4|2
152,72,23609,5,0
128,152,23787,1,2
152,232,23966,2,0,B|168:280|136:312,1,80,0|2
64,336,24323,2,0,B|48:288|80:256,2,80,0|2|2
224,336,25037,6,0,B|320:336,1,80,0|2
384,352,25394,1,0
424,280,25573,1,2
368,224,25751,2,0,B|400:192|448:200,2,80,0|2|2
216,160,26466,5,0
288,128,26644,1,2
280,48,26823,1,0
200,32,27001,1,2
160,104,27180,2,0,B|80:104,1,80,0|2
56,184,27537,1,2
120,232,27716,1,0
120,232,27805,1,0
120,232,27894,6,0,B|120:288|176:336|232:328,1,160,0|2
296,288,28430,1,2
336,360,28609,2,0,B|432:360,1,80,0|2
456,288,28966,1,0
416,216,29144,1,2
376,144,29323,6,0,B|344:104|368:24|416:8,1,160,0|0
480,48,29859,1,2
448,120,30037,1,0
376,144,30216,1,2
304,120,30394,1,2
272,48,30573,1,0
200,16,30751,6,0,B|144:0|72:40|72:112,1,160
136,144,31287,1,2
192,208,31466,2,0,B|216:248|192:296,1,80,0|2
128,328,31823,2,0,B|104:288|128:240,1,80,2|0
136,144,32180,5,0
376,144,32537,5,4
376,144,32716,1,0
376,144,32894,1,0
176,72,33251,5,4
176,72,33430,1,0
336,72,33787,5,2
416,216,34144,1,2
376,288,34323,1,0
336,216,34501,1,2
336,216,34680,1,2
224,336,35037,6,0,B|184:360|144:336,1,80,0|2
184,216,35394,2,0,B|224:192|264:216,1,80,0|2
120,264,35751,1,0
56,216,35930,1,2
80,136,36109,1,2
160,136,36287,1,2
224,88,36466,6,0,B|280:96|344:72|368:16,1,160
440,8,37001,1,2
480,80,37180,2,0,B|480:184,1,80,0|2
464,240,37537,1,2
408,296,37716,1,0
336,328,37894,6,0,B|288:352|216:336|192:288,1,160,0|2
280,240,38430,1,2
232,152,38609,2,0,B|280:128|352:144|376:192,1,160,0|2
144,208,39323,6,0,B|40:208,1,80,0|2
8,88,39680,2,0,B|112:88,1,80,0|2
160,128,40037,1,0
232,88,40216,1,2
280,24,40394,2,0,B|320:0|376:24,1,80,2|0
432,48,40751,6,0,B|480:88|392:152|448:200,1,160,0|2
496,256,41287,1,2
456,328,41466,1,0
376,312,41644,1,2
368,232,41823,2,0,B|336:192|256:184|208:216,2,160,2|0|2
304,280,42716,5,2
232,312,42894,1,0
168,264,43073,1,0
144,192,43251,2,0,B|144:112,1,80,2|0
176,40,43609,5,0
256,8,43787,1,2
336,40,43966,1,4
336,328,44323,5,0
256,360,44501,1,2
176,328,44680,1,4
176,120,45037,5,0
208,208,45216,1,2
304,208,45394,1,0
336,120,45573,1,0
256,64,45751,2,0,B|256:248,1,160,0|4
104,288,46466,6,0,B|56:256|40:184|72:136,1,160,0|2
104,72,47001,1,0
184,96,47180,2,0,B|224:120|304:104|336:48,1,160,2|0
408,40,47716,1,2
472,184,48073,5,0
392,208,48251,2,0,B|376:312,1,80,2|0
296,296,48609,1,2
264,224,48787,1,10
264,224,48966,1,10
320,168,49144,1,0
320,168,49234,1,0
320,168,49323,6,0,B|288:128|208:112|152:144,1,160,0|2
104,176,49859,1,0
48,232,50037,2,0,B|80:272|160:288|216:256,1,160,2|0
264,224,50573,1,2
144,56,50930,5,0
224,40,51109,1,2
296,80,51287,1,0
320,160,51466,2,0,B|328:216|376:232,2,80,2|10|10
376,104,52001,1,0
456,88,52180,6,0,B|488:128|480:216|416:256,1,160,0|2
392,296,52716,1,0
312,288,52894,2,0,B|232:288,1,80,2|0
152,280,53251,1,0
88,232,53430,6,0,B|56:184|72:112|128:80,1,160,2|0
184,48,53966,1,2
240,104,54144,1,0
200,176,54323,1,2
312,288,54680,1,2
456,216,55037,6,0,B|432:120,1,80,0|2
320,96,55394,2,0,B|344:192,1,80,0|2
232,224,55751,2,0,B|208:128,1,80,0|2
96,104,56108,2,0,B|120:200,1,80,0|2
144,296,56466,5,4
144,296,57894,5,2
220,320,58073,1,0
264,256,58251,1,2
216,192,58430,1,0
144,224,58609,1,2
144,224,58966,5,2
216,192,59144,1,0
208,112,59323,1,2
136,96,59501,1,0
96,160,59680,1,2
280,80,60037,6,0,B|312:112|312:176|280:216,1,119.999996423721,4|0
232,232,60573,1,0
168,192,60751,6,0,B|136:160|136:96|168:56,1,119.999996423721,2|2
216,40,61287,1,0
280,80,61466,2,0,B|304:104|344:96,1,59.9999982118607,2|0
408,88,61823,2,0,B|448:80|472:104,1,59.9999982118607,0|2
424,168,62180,5,2
464,240,62359,1,0
408,296,62537,1,2
336,264,62716,1,0
344,184,62894,1,2
344,184,63608,5,2
336,264,63787,1,0
256,280,63966,1,2
216,208,64144,1,0
272,144,64323,1,2
272,144,64680,5,2
216,208,64859,1,0
144,176,65037,1,2
144,96,65216,1,0
224,72,65394,1,2
152,256,65751,6,0,B|120:280|56:272|32:248,1,119.999996423721,4|0
64,176,66287,1,0
104,104,66466,6,0,B|136:80|200:88|224:112,1,119.999996423721,2|2
192,184,67002,1,0
152,256,67180,2,0,B|184:280|232:256,1,59.9999982118607,2|0
288,256,67537,1,0
352,216,67716,1,2
368,136,67894,5,2
332,71,68073,1,0
384,21,68251,1,2
450,54,68430,1,2
437,126,68609,1,0
437,126,69323,5,2
456,200,69501,1,0
440,272,69680,1,2
384,320,69859,1,0
312,336,70037,1,2
312,336,70394,5,2
336,264,70573,1,0
336,192,70751,1,2
304,128,70930,1,0
240,88,71109,1,2
240,88,71466,6,0,B|200:104|184:168|208:200,1,119.999996423721,4|0
264,232,72001,1,0
272,160,72180,2,0,B|248:128|192:120|152:136,1,119.999996423721,2|2
96,168,72716,1,0
56,232,72894,2,0,B|40:272|64:304,1,59.9999982118607,2|0
128,328,73251,2,0,B|144:288|120:256,1,59.9999982118607,2|0
96,168,73609,5,2
32,128,73787,1,0
48,56,73966,1,2
120,48,74144,1,0
152,116,74323,1,2
152,116,75037,5,0
152,116,76109,6,0,B|192:244,1,119.999996423721
187,230,77180,1,0
187,230,77894,5,0
296,344,78251,1,0
440,296,78609,1,0
432,136,78966,1,0
280,96,79323,5,2
192,136,79501,1,0
344,168,79859,1,2
200,224,80216,1,2
288,248,80394,1,4
128,344,80751,6,0,B|72:344|16:288|16:216,1,160,0|8
80,192,81287,2,0,B|56:136|72:64|136:32,1,160,0|8
192,24,81823,1,0
240,88,82001,1,8
200,160,82180,6,0,B|200:248,1,80,0|0
264,296,82537,1,8
336,328,82716,1,0
408,296,82894,2,0,B|456:272|472:184|424:136,1,160,0|8
392,88,83430,1,8
320,56,83609,6,0,B|272:40|200:56|168:96,1,160,0|8
216,160,84144,2,0,B|176:184|160:264|192:312,1,160,0|8
264,336,84680,1,0
312,272,84859,1,8
280,200,85037,6,0,B|328:184|368:216,1,80,0|0
504,248,85394,2,0,B|456:264|416:232,1,80,8|0
472,168,85751,1,4
472,168,85930,2,0,B|472:64,2,80,2|2|2
392,128,86466,6,0,B|352:96|264:96|224:136,1,160,0|8
280,192,87001,2,0,B|240:224|160:224|112:184,1,160,0|8
72,136,87537,1,0
120,72,87716,1,8
192,112,87894,6,0,B|280:112,1,80
312,40,88251,1,8
352,112,88430,1,0
312,184,88609,1,0
352,256,88787,2,0,B|416:256,2,40,8|0|0
312,328,89144,1,8
272,256,89323,6,0,B|248:216|176:192|128:216,1,160,0|8
160,288,89859,2,0,B|112:304|32:288|8:232,1,160,0|8
56,176,90394,1,0
16,104,90573,1,0
72,48,90751,5,2
144,80,90930,1,0
136,160,91109,1,2
56,176,91287,1,0
136,160,91466,2,0,B|192:192|264:168,1,119.999996423721,4|4
352,24,92180,6,0,B|464:48,1,80,4|4
496,184,92716,5,4
496,184,92894,2,0,B|384:208,1,80,4|4
312,320,93430,5,4
312,320,93609,2,0,B|224:272,1,80,4|4
88,320,94144,5,4
88,320,94323,2,0,B|56:232,1,80,4|0
40,168,94680,2,0,B|72:80,1,80,4|0
96,16,95037,5,4
256,40,95394,1,0
376,144,95751,1,4
408,304,96109,1,0
264,240,96466,5,4
240,320,96644,1,4
168,352,96823,1,0
88,344,97001,1,4
32,288,97180,2,0,B|16:240|48:168|104:152,1,160,4|2
216,48,97894,6,0,B|256:128,1,80,4|4
408,88,98430,5,4
408,88,98609,2,0,B|376:192,1,80,4|4
464,304,99144,5,4
464,304,99323,2,0,B|368:336,1,80,4|4
232,296,99859,5,4
232,296,100037,2,0,B|144:248,1,80,4|4
96,216,100394,2,0,B|152:120,1,80,4|0
176,72,100751,5,2
336,72,101109,1,2
296,224,101466,1,2
216,224,101644,1,2
192,300,101823,1,0
256,348,102001,1,2
320,300,102180,1,4
320,304,106466,5,4
400,320,106644,1,0
440,248,106823,1,2
384,192,107001,1,0
312,224,107180,2,0,B|256:240|184:224|152:168,1,160,2|2
120,120,107716,5,2
168,56,107894,1,0
248,80,108073,1,0
240,160,108251,2,0,B|240:216|184:272|120:264,2,160,2|2|2
248,80,109144,1,2
312,32,109323,6,0,B|360:8|440:24|472:80,1,160,0|2
472,144,109859,1,2
480,224,110037,2,0,B|432:248|352:232|320:176,1,160,0|2
320,112,110573,1,2
248,80,110751,5,0
192,136,110930,1,2
120,104,111109,1,2
128,24,111287,1,0
208,8,111466,1,2
248,80,111644,2,0,B|344:80,2,80,2|2|2
192,136,112180,5,4
120,104,112359,1,0
64,160,112537,1,2
104,232,112716,1,0
184,216,112894,2,0,B|232:200|304:208|352:248,1,160,2|2
384,304,113430,5,2
336,368,113609,1,0
256,344,113787,1,0
248,264,113966,2,0,B|232:216|272:144|336:136,1,160,2|2
488,96,114680,1,2
416,56,114859,1,2
336,40,115037,6,0,B|280:32|216:56|184:112,1,160,0|2
160,168,115573,1,2
184,248,115751,2,0,B|184:336,1,80,0|2
80,272,116109,2,0,B|80:184,1,80,2|0
96,112,116466,5,2
160,168,116644,1,0
232,128,116823,1,2
216,48,117001,1,2
136,40,117180,1,0
96,112,117359,2,0,B|0:112,2,80,2|2|2
176,112,117894,5,4
256,128,118073,1,0
328,168,118251,1,2
384,224,118430,1,0
416,296,118609,2,0,B|384:352|320:368|248:336,1,160,2|2
200,320,119144,5,2
144,264,119323,1,0
120,184,119501,1,0
144,104,119680,2,0,B|168:56|232:32|288:56,2,160,2|2|2
200,168,120573,1,2
280,200,120751,6,0,B|328:224|400:200|424:136,1,160,0|2
432,72,121287,1,2
368,24,121466,2,0,B|264:56,1,80,0|2
256,120,121823,2,0,B|152:152,1,80,0|2
120,212,122180,5,0
48,248,122359,1,2
56,328,122537,1,2
136,340,122716,1,0
176,272,122894,2,0,B|208:240|288:224|344:256,1,160,2|2
472,312,123609,5,4
432,160,123966,1,2
408,80,124144,1,2
352,144,124323,1,0
240,24,124680,1,2
208,96,124859,1,2
160,32,125037,6,0,B|104:40|56:88|56:144,1,160,4|2
352,352,125751,2,0,B|408:344|456:296|456:240,1,160,4|2
360,120,126466,6,0,B|328:72|248:56|200:96,1,160,0|2
152,136,127001,1,2
128,216,127180,6,0,B|160:264|240:280|288:240,1,160,0|2
344,192,127715,1,2
376,104,127894,6,0,B|344:56|264:40|216:80,1,160,0|2
152,136,128429,1,2
112,232,128609,6,0,B|128:272|176:280,1,80,0|2
256,288,128966,2,0,B|304:296|336:264,1,80,2|2
392,208,129323,5,0
408,128,129501,1,0
384,48,129680,1,0
312,8,129859,1,0
384,48,130037,5,0
328,112,130216,1,0
248,128,130394,1,0
168,104,130573,1,0
248,128,130751,5,0
304,192,130930,1,0
320,272,131109,1,0
296,352,131287,1,0
296,352,131466,6,0,B|224:368|144:328|128:248|128:248|104:296|48:304,1,320,4|0
49,303,133028,1,0
