osu file format v9

[General]
AudioFilename: Koi Yomi Zakura.mp3
AudioLeadIn: 2000
PreviewTime: 106376
Countdown: 0
SampleSet: Soft
StackLeniency: 0.5
Mode: 0
LetterboxInBreaks: 1

[Editor]
DistanceSpacing: 1
BeatDivisor: 2
GridSize: 8

[Metadata]
Title:Koi Yomi Zakura
Artist:Loos
Creator:NatsumeRin
Version:Easy
Source:
Tags:omoiyoshino KanaRin c73

[Difficulty]
HPDrainRate:2
CircleSize:3
OverallDifficulty:2
ApproachRate:3
SliderMultiplier:0.8
SliderTickRate:1

[Events]
//Background and Video events
0,0,"BG.jpg"
Video,0,"Movie.avi"
//Break Periods
//Storyboard Layer 0 (Background)
//Storyboard Layer 1 (Fail)
//Storyboard Layer 2 (Pass)
//Storyboard Layer 3 (Foreground)
//Storyboard Sound Samples
//Background Colour Transformations
3,100,163,162,255

[TimingPoints]
752,357.142857142857,4,1,2,60,1,0
1109,-100,4,1,2,30,0,0
1466,-100,4,1,2,60,0,0
2537,-100,4,1,2,30,0,0
2894,-100,4,1,2,60,0,0
3609,-100,4,2,1,50,0,0
4323,-100,4,2,1,30,0,0
4680,-100,4,2,1,60,0,0
5037,-100,4,2,1,30,0,0
5751,-100,4,2,1,45,0,0
6466,-100,4,1,1,60,0,0
10751,-100,4,2,1,60,0,0
11466,-100,4,1,2,60,0,0
12180,-100,4,2,1,80,0,0
16466,-100,4,2,1,85,0,0
20751,-100,4,1,1,70,0,0
22894,-100,4,1,2,70,0,0
23609,-100,4,2,1,80,0,0
32180,-100,4,1,2,80,0,0
33787,-100,4,1,1,80,0,0
35037,-100,4,2,1,80,0,0
43966,-100,4,1,2,70,0,0
44501,-100,4,2,1,80,0,0
46109,-100,4,1,2,80,0,0
46466,-100,4,1,1,75,0,0
49323,-100,4,2,1,75,0,0
49680,-100,4,1,1,75,0,0
52180,-100,4,2,1,75,0,0
52537,-100,4,1,1,75,0,0
55037,-100,4,2,1,75,0,0
56466,-100,4,1,2,80,0,0
57894,-100,4,2,2,45,0,0
60037,-100,4,2,2,55,0,0
60394,-100,4,2,2,45,0,0
65751,-100,4,2,2,55,0,0
66109,-100,4,2,2,45,0,0
75037,-100,4,1,0,20,0,0
76466,-100,4,1,0,25,0,0
77180,-100,4,1,0,30,0,0
77894,-100,4,1,1,30,0,0
79323,-100,4,1,1,90,0,0
80394,-100,4,1,2,80,0,0
80751,-100,4,2,1,80,0,0
85751,-100,4,1,2,85,0,0
86466,-100,4,2,1,80,0,0
92180,-100,4,1,1,60,0,0
96823,-100,4,1,1,30,0,0
97180,-100,4,1,1,60,0,0
97359,-100,4,2,1,40,0,0
97894,-100,4,1,1,60,0,0
100751,-100,4,2,1,50,0,0
102180,-100,4,2,1,70,0,0
106466,-100,4,2,1,85,0,1
123609,-100,4,1,1,85,0,1
123787,-100,4,2,1,85,0,1
125037,-100,4,1,1,85,0,1
125216,-100,4,2,1,85,0,1
125751,-100,4,1,1,85,0,1
125930,-100,4,2,1,85,0,1
126466,-100,4,2,1,95,0,1
126555,-100,4,2,1,30,0,1
129323,-100,4,2,1,70,0,0
130037,-100,4,2,1,60,0,0
130751,-100,4,2,1,50,0,0
131466,-133.333333333333,4,2,1,40,0,0
131823,-133.333333333333,4,2,1,5,0,0
132894,-100,4,2,1,50,0,0

[Colours]
Combo1 : 128,128,255
Combo2 : 255,128,255
Combo3 : 255,0,128
SliderBorder : 240,240,240

[HitObjects]
240,248,752,2,0,B|272:280|368:280|400:232,1,160
472,104,2180,2,0,B|440:72|344:72|312:120,1,160
184,176,3609,2,0,B|16:176,2,160
344,176,5751,1,4
424,320,6466,5,4
264,320,7180,1,2
112,280,7894,2,0,B|88:328|120:368,2,80,4|0|2
160,128,9323,6,0,B|184:80|152:40,1,80,4|2
88,88,10037,2,0,B|64:136|96:176,1,80,4|2
160,208,10751,2,0,B|336:208,1,160,12|4
408,72,12180,5,0
496,208,12894,1,2
400,336,13609,1,0
248,280,14323,1,2
256,120,15037,6,0,B|200:104|136:136|120:192,1,160,0|2
176,244,16109,1,0
248,280,16466,2,0,B|304:296|368:264|384:208,1,160,0|2
256,120,17894,5,4
256,208,19323,5,4
256,296,20751,5,4
96,296,21466,1,2
72,216,21823,1,2
152,232,22180,2,0,B|184:192|192:128|160:64,1,160,0|2
320,40,23609,6,0,B|488:40,1,160,0|2
456,120,24680,1,2
480,200,25037,2,0,B|504:264|480:336|424:352,1,160,0|0
360,352,26109,1,2
288,312,26466,6,0,B|176:312,2,80,0|2|0
248,160,27894,1,2
136,272,28609,1,0
64,304,28966,1,2
16,240,29323,6,0,B|-8:192|8:112|56:80,1,160,0|2
112,56,30394,1,2
152,128,30751,2,0,B|320:128,2,160,0|2|0
112,200,32537,5,4
256,272,33251,1,4
400,200,33966,2,0,B|504:200,2,80,2|2|2
320,200,35037,6,0,B|272:168|272:88|328:56,1,160,4|2
400,200,36466,2,0,B|448:232|448:312|392:344,1,160,0|2
328,304,37537,1,2
256,336,37894,6,0,B|88:336,1,160,0|2
56,184,39323,1,0
136,184,39680,1,0
96,112,40037,1,2
256,112,40751,6,0,B|336:112,1,80
376,40,41466,1,2
416,112,41823,1,0
376,184,42180,2,0,B|344:224|368:312|432:328,2,160,0|2|0
416,112,43966,5,4
256,112,44680,1,4
296,264,45394,1,2
256,336,45751,1,0
216,264,46109,1,4
176,336,46466,5,0
32,264,47180,2,0,B|8:240|8:176|32:152,2,120,2|2|2
72,336,48609,1,8
112,264,48966,1,2
152,192,49323,5,4
312,192,50037,2,0,B|440:192,2,120,2|2|2
240,152,51466,1,8
240,232,51823,1,2
240,312,52180,5,4
392,352,52894,2,0,B|432:336|448:280|424:240,2,120,2|2|2
352,280,54323,1,0
312,208,54680,1,2
352,136,55037,6,0,B|432:136,1,80
432,56,55751,2,0,B|328:56,1,80
280,96,56466,1,4
280,96,57894,6,0,B|256:144|176:160|112:128,1,160,2|2
72,88,58966,2,0,B|24:120|16:200|56:240,1,160,2|2
104,288,60037,1,4
256,336,60751,6,0,B|304:360|376:344|416:296,1,160,0|2
448,240,61823,1,0
416,168,62180,2,0,B|384:80,2,80,2|0|2
360,16,63609,6,0,B|304:16|256:80|272:128,1,160,2|2
320,192,64680,2,0,B|296:240|216:264|160:224,1,160,2|2
112,192,65751,1,4
200,320,66466,6,0,B|248:328|320:312|360:264,1,160,0|2
384,200,67537,1,2
368,120,67894,2,0,B|448:64,2,80,0|2|0
232,40,69323,6,0,B|184:64|168:144|216:192,1,160,2|2
280,208,70394,2,0,B|320:256|304:336|240:368,1,160,2|2
192,312,71466,2,0,B|80:312,1,80,4|0
48,256,72180,5,2
72,176,72537,1,0
152,176,72894,2,0,B|240:176,1,80,2|0
296,128,73609,2,0,B|352:104|424:128|432:184,1,160,4|0
320,288,75037,5,0
320,288,76466,5,0
192,192,77180,1,0
256,192,77894,12,2,79323
320,312,79859,6,0,B|320:184,1,120,2|4
256,144,80751,6,0,B|280:112|344:96|384:144,2,120,0|2|2
192,192,82180,2,0,B|192:288,1,80,0|2
112,248,82894,2,0,B|112:168,1,80,0|2
152,96,83609,6,0,B|216:96|272:32,2,120,0|2|2
112,24,85037,1,0
72,96,85394,1,2
112,168,85751,1,4
168,320,86466,6,0,B|144:352|64:352|40:304,2,120,0|2|2
240,280,87894,2,0,B|328:280,1,80,0|2
344,200,88609,2,0,B|264:200,1,80,0|2
184,200,89323,6,0,B|144:184|128:128|152:80,2,120,0|2|2
224,128,90751,1,0
296,88,91109,1,2
368,128,91466,1,4
432,272,92180,5,4
296,352,92894,1,4
160,272,93609,1,4
296,192,94323,1,4
432,112,95037,6,0,B|432:16,2,80,4|4|4
296,192,96466,2,0,B|240:208|168:176|152:136,1,160,4|4
128,64,97537,1,2
48,80,97894,5,4
48,240,98609,1,4
192,312,99323,1,4
336,240,100037,1,4
336,80,100751,1,2
336,80,101109,2,0,B|376:104|424:56|456:80,2,120,2|2|4
336,80,106466,6,0,B|336:192,1,80,2|0
296,232,107180,1,2
224,200,107537,2,0,B|224:112,1,80,2|0
264,48,108251,1,2
184,48,108609,6,0,B|136:48|72:80|56:136,1,160,4|2
40,208,109680,1,0
88,272,110037,2,0,B|184:272,1,80,2|0
240,232,110751,2,0,B|264:272|232:328,2,80,2|0|2
376,152,112180,6,0,B|464:152,1,80,2|0
496,80,112894,1,2
432,32,113251,2,0,B|336:32,1,80,2|0
312,104,113966,1,2
272,176,114323,6,0,B|240:216|168:232|120:208,1,160,4|2
56,176,115394,1,0
0,232,115751,1,2
32,304,116109,1,0
112,296,116466,2,0,B|144:368,2,80,2|2|0
272,296,117894,5,2
328,352,118251,1,0
400,320,118609,1,2
392,240,118966,1,2
312,224,119323,1,0
272,296,119680,1,2
328,352,120037,6,0,B|376:368|448:336|464:264,1,160,4|2
480,208,121109,1,0
480,128,121466,2,0,B|480:80|440:48,1,80,2|0
368,40,122180,2,0,B|272:40,2,80,2|2|6
328,192,123609,6,0,B|296:232|208:232|184:192,1,160,4|0
136,344,125037,1,4
216,368,125394,1,0
256,296,125751,1,4
296,368,126108,1,0
376,344,126466,1,4
256,192,126644,12,4,129323
296,168,130037,6,0,B|320:120|280:64,1,80
215,91,130751,2,0,B|191:139|231:195,1,80,0|0
181,243,131466,2,0,B|197:307|256:329|256:329|328:303|339:224,1,239.999992847443,4|0
