osu file format v9

[General]
AudioFilename: 111-loona_-_bailando.mp3
AudioLeadIn: 0
PreviewTime: -1
Countdown: 1
SampleSet: Normal
StackLeniency: 0.7
Mode: 0
LetterboxInBreaks: 1

[Editor]
Bookmarks: 8336,22777,38571,52560,59780,66098,96114,182523,196513,211405
DistanceSpacing: 0.7
BeatDivisor: 4
GridSize: 32

[Metadata]
Title:Bailando
Artist:Loona
Creator:Aqua
Version:Insane
Source:
Tags:

[Difficulty]
HPDrainRate:7
CircleSize:5
OverallDifficulty:7
ApproachRate:7
SliderMultiplier:2.6
SliderTickRate:3

[Events]
//Background and Video events
0,0,"AIDAluna_Taufe-7967.jpg"
//Break Periods
2,16208,22554
2,35950,37671
2,81414,81903
2,83679,95440
2,138951,139671
2,141447,152743
//Storyboard Layer 0 (Background)
//Storyboard Layer 1 (Fail)
//Storyboard Layer 2 (Pass)
//Storyboard Layer 3 (Foreground)
//Storyboard Sound Samples
//Background Colour Transformations
3,100,0,0,0

[TimingPoints]
2019,451.263537906137,4,1,0,70,1,0
67008,-100,4,1,0,70,0,1
81448,-100,4,1,0,70,0,0
124762,-100,4,1,0,70,0,1
138879,-100,4,1,0,70,0,0
153643,-100,4,2,0,70,0,0
168083,-100,4,1,0,70,0,1
196626,-100,4,2,0,70,0,0
211292,-100,4,2,0,70,0,1
211405,-100,4,1,0,70,0,0

[Colours]
Combo1 : 0,0,0
Combo2 : 128,0,0
Combo3 : 255,255,0
Combo4 : 0,128,192
Combo5 : 255,128,64

[HitObjects]
208,128,2019,5,8
304,128,2244,1,0
256,224,2470,1,8
256,112,2695,2,0,B|240:144|240:144|272:160|272:160|240:176|240:176|272:192,1,130,0|8
176,240,3147,5,0
256,320,3372,1,8
336,240,3598,1,0
256,176,3824,2,8,B|272:128|272:128|240:128|240:128|272:64,1,130,8|0
256,176,4275,1,8
256,32,4500,5,0
208,128,4726,1,8
304,128,4952,1,0
256,224,5177,1,8
256,320,5403,2,0,B|256:144,1,130,0|8
256,80,5854,1,8
256,80,6080,1,8
256,176,6306,6,0,B|256:352,1,130,0|8
308,215,6757,1,8
204,215,6982,1,8
256,304,7208,6,0,B|224:288|224:288|272:288|272:288|224:256|224:256|272:256|272:256|224:224|224:224|272:224|272:224|224:192|224:192|304:160,1,390,0|8
320,96,8111,1,0
192,96,8337,1,8
256,224,8787,5,8
384,160,9239,5,8
320,240,9464,1,0
256,160,9690,1,8
192,240,9916,1,0
112,160,10141,1,8
208,160,10367,1,0
304,160,10593,1,8
256,64,10818,2,0,B|256:256,2,130,0|8|0
398,76,11721,6,0,B|350:26|350:26|298:81,1,130,0|8
309,69,12172,2,0,B|250:23|250:23|199:82,1,130,0|8
213,64,12623,2,0,B|156:19|156:19|90:85,1,130,0|8
208,112,13075,1,0
304,112,13300,1,8
256,208,13525,6,0,B|256:368,2,130,0|8|0
304,112,14203,1,8
208,112,14428,1,0
256,208,14654,1,8
304,112,14880,1,0
256,16,15105,1,10
256,112,15331,2,0,B|240:144|240:144|288:144|288:144|224:192,1,130,2|10
256,384,16008,1,14
256,32,23454,5,8
128,48,23679,5,2
80,144,23905,1,0
176,192,24130,1,2
96,272,24356,1,0
192,320,24582,1,2
192,272,24694,1,0
192,224,24807,1,0
192,176,24920,1,2
256,32,25259,5,8
384,48,25484,5,2
432,144,25710,1,0
336,192,25935,1,2
416,272,26161,1,0
320,320,26387,1,2
320,272,26500,1,0
320,224,26612,1,0
320,176,26725,1,2
256,32,27064,5,8
208,128,27289,5,2
304,128,27515,1,0
256,224,27741,1,2
256,320,27966,1,0
256,224,28192,1,2
256,176,28305,1,0
256,128,28417,1,0
256,80,28530,1,2
144,192,28869,5,8
224,144,29094,5,2
224,240,29320,1,0
144,192,29546,1,2
240,192,29771,1,0
336,192,29997,1,2
384,192,30110,1,0
432,192,30222,1,0
480,192,30335,1,2
384,192,30674,5,8
288,144,30899,5,2
288,240,31125,1,0
384,192,31351,1,2
272,192,31576,1,0
160,192,31802,1,2
112,192,31915,1,0
64,192,32028,1,0
16,192,32140,1,2
144,96,32479,5,8
256,96,32704,5,2
192,192,32930,1,0
320,192,33156,1,2
256,272,33381,1,0
256,160,33607,1,2
256,112,33720,1,8
256,64,33833,1,0
256,16,33945,1,2
368,96,34284,5,8
256,112,34509,5,2
320,192,34735,1,0
192,192,34961,1,2
256,272,35186,1,0
256,160,35412,1,2
256,112,35525,1,0
256,64,35638,1,0
256,16,35750,1,2
256,32,38571,5,0
176,112,38796,1,0
112,32,39022,2,0,B|-16:160|128:288,3,260
192,208,40602,5,0
256,288,40827,1,0
320,208,41053,1,0
256,128,41278,1,0
208,32,41504,1,0
304,32,41731,1,0
256,128,41955,1,0
256,224,42181,2,0,B|256:384,5,130
256,352,43535,5,0
208,256,43760,1,0
304,256,43986,1,0
256,160,44212,1,0
256,256,44437,1,0
256,208,44551,1,0
256,160,44663,1,0
256,112,44776,1,0
256,32,45791,5,0
320,112,46017,1,0
384,32,46242,2,0,B|480:160|368:320,3,260
320,208,47822,5,0
256,288,48047,1,0
192,208,48273,1,0
256,128,48499,1,0
304,48,48724,1,0
208,48,48950,1,0
256,144,49176,1,0
256,240,49401,2,0,B|256:384,5,130
256,352,50755,5,0
304,272,50981,1,0
208,272,51206,1,0
256,176,51432,1,0
256,272,51657,1,0
256,224,51770,1,0
256,176,51883,1,0
256,128,51996,1,0
464,48,52560,5,0
400,128,52786,1,0
320,48,53011,1,0
256,128,53237,1,0
192,48,53463,1,0
128,128,53688,1,0
48,48,53914,2,0,B|48:240,1,130
48,288,54365,2,0,B|208:288,5,130
208,192,55719,5,0
304,192,55944,1,0
256,288,56170,2,0,B|144:176,1,130
256,288,56621,2,0,B|368:208,1,130
256,288,57073,2,0,B|256:128,1,130
208,64,57524,5,0
304,64,57750,1,0
256,160,57975,1,0
336,240,58201,2,0,B|252:348,1,130
176,240,58652,2,0,B|296:388,1,130
256,342,59103,2,0,B|256:192,1,130
464,336,59780,5,0
400,256,60006,1,0
336,336,60232,1,0
272,256,60457,1,0
208,336,60683,1,0
144,256,60908,1,0
64,336,61134,2,0,B|64:192,1,130
64,96,61585,2,0,B|224:96,5,130
208,192,62939,5,0
304,192,63165,1,0
256,80,63390,2,0,B|160:208,1,130
256,80,63842,2,0,B|352:224,1,130
256,80,64293,2,0,B|256:240,1,130
256,210,64744,1,0
256,288,64970,5,0
320,352,65195,1,0
256,288,65421,1,0
192,352,65647,1,0
256,288,65872,1,0
256,224,66098,1,0
256,176,66210,1,0
256,128,66323,1,0
256,80,66436,1,0
256,32,66548,1,0
256,32,67000,5,0
176,112,67233,1,8
336,112,67459,1,0
256,176,67684,1,8
256,272,67910,2,0,B|240:224|240:224|272:224|272:224|240:176,1,130,0|8
208,80,68361,5,0
304,80,68587,1,8
256,176,68813,2,0,B|224:208|224:208|272:240|272:240|240:304,1,130,0|8
260,265,69264,1,0
320,336,69489,5,8
192,336,69715,1,0
256,256,69941,1,8
256,144,70166,2,0,B|256:0,2,130,0|8|0
320,224,70843,1,8
192,224,71069,1,8
256,304,71295,6,0,B|256:160,2,130,0|8|0
320,224,71971,1,8
192,224,72197,1,8
256,144,72423,1,8
320,48,72648,1,0
192,48,72874,1,8
256,144,73100,1,0
256,240,73325,2,8,B|224:272|224:272|288:272|288:272|256:304,2,130
144,240,74002,1,0
48,192,74228,5,8
128,144,74453,1,0
48,80,74679,1,8
128,16,74905,1,0
208,80,75130,1,8
256,96,75243,1,0
304,80,75356,1,8
352,96,75469,1,0
400,80,75582,1,8
432,176,75807,5,0
352,256,76033,1,8
272,176,76258,1,0
208,256,76484,1,8
128,176,76710,6,0,B|128:32,1,130,0|8
208,112,77161,1,0
288,48,77387,2,0,B|288:240,1,130,8|0
208,112,77838,1,8
128,176,78063,1,8
192,256,78289,2,0,B|368:256,1,130,8|0
400,176,78740,1,8
304,112,78966,1,8
256,208,79192,5,8
304,288,79417,1,0
208,288,79643,1,8
256,208,79869,2,0,B|256:48,1,130,0|8
320,160,80320,1,0
192,160,80545,5,8
224,112,80658,1,0
256,64,80771,1,0
320,160,80997,5,8
288,112,81102,1,0
256,64,81214,1,0
256,48,82803,5,0
256,144,83028,1,0
256,240,83254,1,0
256,336,83479,1,0
64,64,96340,5,0
128,144,96566,1,0
192,64,96792,2,0,B|256:176|256:176|336:32,3,260
368,160,98370,5,0
432,80,98596,1,0
496,160,98822,1,0
432,240,99047,1,0
496,320,99273,1,0
368,320,99498,1,0
288,240,99724,1,0
224,320,99950,1,0
160,240,100175,1,0
160,192,100288,1,0
176,144,100401,1,0
208,112,100514,1,0
256,96,100627,1,0
320,160,100852,5,0
192,160,101078,1,0
256,80,101304,1,0
256,288,101754,1,0
256,80,102205,1,0
256,288,102657,5,0
336,192,102883,1,0
176,192,103109,1,0
256,0,103560,6,0,B|256:160,1,130
256,240,104011,1,0
192,144,104237,2,0,B|256:112|352:160,3,130
320,240,105139,5,0
192,240,105365,1,0
256,320,105591,1,0
256,208,105816,2,0,B|256:64,1,130
320,80,106267,2,0,B|320:224,1,130
192,80,106719,2,0,B|192:224,1,130
256,208,107170,2,0,B|256:64,4,130
256,304,108298,1,0
256,192,108524,6,0,B|160:304,1,130
256,192,108974,2,0,B|256:336,1,130
256,192,109426,2,0,B|352:320,1,130
320,192,109878,1,0
192,192,110103,1,0
256,112,110329,5,0
336,32,110554,1,0
176,32,110780,1,0
256,112,111006,2,0,B|256:272,1,130
336,304,111457,1,0
256,368,111683,1,0
176,304,111908,1,0
256,240,112134,2,0,B|256:96,5,130
320,32,113488,5,0
192,32,113713,1,0
256,112,113939,2,0,B|160:272,1,130
256,112,114390,2,0,B|336:240,1,130
256,112,114841,2,0,B|256:272,1,130
176,304,115293,1,0
96,240,115518,5,0
176,192,115744,1,0
256,240,115970,1,0
336,192,116195,1,0
400,240,116421,1,0
336,304,116646,1,0
256,240,116872,6,0,B|256:96,2,130
256,336,117549,1,0
256,224,117775,2,0,B|160:112,1,130
256,224,118226,2,0,B|336:112,1,130
256,224,118677,2,0,B|256:80,1,130
304,176,119128,1,0
208,176,119354,1,0
256,80,119580,2,0,B|256:256,1,130
256,320,120031,5,0
256,320,120257,1,0
256,320,120482,1,0
320,240,120709,5,0
192,240,120933,1,0
256,160,121159,1,0
464,192,121610,1,0
48,192,122062,1,0
256,192,122513,1,0
336,192,122739,5,0
256,272,122965,1,0
176,192,123191,1,0
256,112,123416,1,0
336,192,123641,1,0
256,272,123866,1,0
256,224,123980,1,0
256,176,124092,1,0
256,128,124205,1,0
256,80,124318,1,0
48,96,124762,5,0
144,48,124987,1,8
144,144,125213,1,0
64,208,125438,1,8
144,272,125664,1,0
224,192,125890,1,8
288,272,126115,1,0
352,192,126341,2,0,B|352:48,1,130,8|0
256,112,126792,1,8
256,112,127018,1,0
256,208,127243,5,8
176,128,127469,1,0
256,208,127695,1,8
336,128,127920,1,0
256,208,128146,1,8
256,304,128372,2,0,B|256:144,1,130,0|8
352,176,128823,1,0
256,64,129049,2,0,B|256:256,1,130,8|0
160,176,129500,1,8
256,256,129725,1,0
256,112,129951,6,0,B|64:112|96:112,1,130,8|0
256,112,130401,2,0,B|400:112,1,130,8|0
256,112,130854,2,0,B|256:288,3,130,8|0|8|0
256,352,131756,1,8
336,288,131982,5,0
432,240,132207,1,8
336,176,132433,1,0
432,128,132659,1,8
336,64,132884,1,0
256,144,133110,1,8
256,240,133336,5,0
256,288,133448,1,0
256,336,133561,1,8
256,224,133786,2,0,B|256:64,1,130,0|8
144,96,134238,2,0,B|64:96|64:96|64:192,1,130,0|8
160,192,134689,1,0
64,240,134915,1,8
160,304,135141,2,0,B|320:304,1,130,0|8
400,304,135592,2,0,B|400:144,2,130,0|8|0
288,240,136269,2,0,B|128:240,2,130,8|0|8
256,144,136946,5,0
208,64,137171,1,8
304,64,137397,1,0
256,144,137623,2,0,B|256:320,2,130,8|0|8
256,32,138299,1,0
256,128,138525,1,8
256,176,138638,1,0
256,224,138751,1,8
256,48,140571,5,0
256,144,140796,1,0
256,240,141022,1,0
256,336,141247,1,0
256,32,153643,5,8
320,112,153868,1,0
192,112,154094,1,8
256,192,154319,2,0,B|224:144|224:144|272:160|272:160|256:112|256:112|256:96,1,130,0|8
256,240,154771,5,0
256,288,154883,1,0
256,336,154996,1,8
336,288,155222,1,0
176,288,155448,1,8
256,176,155674,1,0
304,96,155899,5,8
208,96,156124,1,0
256,16,156350,5,8
256,64,156463,1,0
256,112,156576,1,0
256,160,156689,1,0
256,208,156801,1,8
256,304,157027,1,0
320,224,157253,5,8
192,224,157478,1,0
256,160,157704,2,0,B|256:16,2,130,8|0|8
144,192,158381,1,0
368,192,158606,1,8
256,320,158832,1,0
256,272,158945,1,0
256,224,159058,1,8
256,176,159170,1,0
256,128,159283,1,0
256,32,159509,2,0,B|256:208,4,130,8|0|8|0|0
48,48,160863,5,8
112,144,161088,1,0
192,48,161314,1,8
256,144,161540,1,0
320,48,161765,1,8
384,144,161991,1,0
432,48,162217,2,0,B|432:208,1,130,8|0
432,304,162668,2,0,B|272:304,1,130,8|0
192,256,163119,1,8
320,256,163345,1,0
256,144,163570,5,8
256,192,163683,1,0
256,240,163796,1,0
256,288,163909,1,0
256,336,164022,1,8
320,272,164247,1,0
192,272,164473,1,8
256,192,164698,12,8,165375
256,32,165601,5,0
192,96,165827,1,8
320,96,166051,1,0
256,160,166278,2,0,B|256:320,1,130,8|0
304,208,166729,1,8
208,208,166954,1,0
256,128,167180,1,8
256,176,167294,1,0
256,224,167407,1,0
256,272,167520,1,0
256,320,167632,1,8
192,32,168083,5,0
320,32,168308,1,8
256,128,168534,1,0
256,32,168759,2,0,B|240:80|240:80|272:80|272:80|256:128,1,130,8|0
256,208,169211,1,8
304,272,169436,1,0
208,272,169662,1,8
256,352,169888,2,0,B|256:192,1,130,0|8
256,128,170339,1,0
256,32,170564,6,0,B|256:208,1,130,8|0
256,256,171016,1,8
192,176,171241,2,0,B|256:144|352:192,4,130,0|8|0|8|0
256,112,172370,2,0,B|256:288,1,130,8|0
304,320,172821,1,8
208,320,173046,1,0
256,240,173272,2,0,B|256:80,1,130,8|0
256,240,173723,2,0,B|144:112,1,130,8|0
256,240,174175,2,0,B|368:128,1,130,8|0
256,112,174626,1,8
256,208,174851,1,0
256,112,175077,1,8
368,192,175303,6,0,B|256:320,1,130,0|8
160,192,175754,2,0,B|256:304,1,130,0|8
256,208,176205,1,0
256,160,176318,1,0
256,112,176431,1,8
208,32,176657,5,0
304,32,176882,1,8
256,112,177108,1,0
256,160,177221,1,0
256,208,177333,1,8
256,192,177559,12,8,178687
208,96,178913,5,0
304,96,179138,1,8
256,176,179364,2,0,B|256:336,2,130,0|8|0
208,96,180041,1,8
304,96,180267,1,0
256,176,180492,2,0,B|240:224|240:224|272:224|272:224|240:256|240:256|272:256,1,130,8|0
192,320,180944,2,0,B|256:368|336:304,3,130,8|0|8|0
256,240,181846,1,8
256,144,182072,1,0
256,96,182184,1,0
256,48,182297,1,8
192,48,182523,5,0
320,48,182749,1,8
256,128,182974,1,0
256,224,183200,2,0,B|240:256|240:256|272:256|272:256|240:320,1,130,8|0
320,320,183651,5,8
384,240,183877,1,0
256,240,184102,1,8
192,320,184329,1,0
128,240,184554,1,8
192,176,184779,1,0
256,112,185005,5,8
320,176,185231,1,0
256,240,185456,1,8
256,144,185682,2,0,B|224:112|224:112|272:112|272:112|256:64,1,130,0|8
192,16,186133,1,0
320,16,186359,1,8
256,112,186584,1,0
256,208,186810,2,0,B|224:256|224:256|272:256|288:256|240:304,1,130,8|0
304,368,187261,1,8
208,368,187487,1,0
256,288,187712,5,8
256,240,187825,1,0
256,192,187938,1,0
256,96,188164,1,8
320,160,188389,1,0
192,160,188615,1,8
192,64,188841,2,0,B|336:64,3,130,0|8|0|8
256,160,189743,5,0
256,256,189969,1,8
320,192,190194,1,0
192,192,190420,1,8
256,128,190646,2,0,B|256:304,1,130,0|8
304,336,191097,1,0
208,336,191323,1,8
256,256,191548,2,0,B|256:112,1,130,0|8
256,126,191999,1,0
256,32,192226,6,0,B|224:80|224:80|272:80|272:80|256:128,1,130,8|0
256,192,192676,2,0,B|256:336,1,130,8|0
320,256,193128,2,0,B|160:256,3,130,8|0|8|0
256,160,194030,6,0,B|224:128|224:128|272:128|272:128|256:80,1,130,8|0
192,32,194481,2,0,B|336:32,1,130,8|0
256,128,194933,6,0,B|224:160|224:160|272:160|272:160|240:208,1,130,8|0
304,272,195384,1,8
208,272,195610,1,0
256,192,195835,2,0,B|256:352,3,130,8|0|8|8
32,192,196963,5,8
256,192,197414,1,8
480,192,197866,1,8
256,32,198318,1,8
256,128,198543,1,8
256,304,198994,1,8
112,192,199672,5,8
208,192,199897,1,0
304,192,200123,1,8
400,192,200348,1,8
256,32,201251,6,8,B|256:176,1,130
32,192,202153,5,8
80,192,202266,1,0
128,192,202379,1,8
176,192,202492,1,0
224,192,202605,1,8
272,192,202718,1,0
320,192,202830,1,8
368,192,202943,1,0
416,192,203056,1,8
464,192,203169,1,0
512,192,203282,1,2
256,32,203732,1,10
256,192,204184,12,0,206215
256,240,206440,5,8
256,144,206666,1,8
192,48,206892,6,8,B|256:80|256:80|320:48,1,130
320,144,207343,2,8,B|256:112|256:112|192:160,1,130
256,224,207794,2,0,B|256:80,1,130
192,160,208246,1,8
320,160,208471,1,8
256,224,208697,2,0,B|256:368,1,130,8|0
320,288,209148,1,8
192,288,209374,1,8
256,224,209599,2,0,B|256:64,4,130,8|0|8|0|8
256,320,210727,1,0
256,224,210953,1,8
256,176,211066,1,0
256,128,211179,1,8
256,80,211292,1,0
256,32,211404,1,0
