osu file format v14

[General]
AudioFilename: movr1DC8FRhZ.128.mp3
AudioLeadIn: 0
PreviewTime: 15000
Countdown: 0
SampleSet: Soft
StackLeniency: 0.7
Mode: 2
LetterboxInBreaks: 0
WidescreenStoryboard: 0

[Editor]
DistanceSpacing: 1.2
BeatDivisor: 4
GridSize: 16
TimelineZoom: 1

[Metadata]
Title:Daigaku no sotsugy seisaku toka mo shiranai neru!
TitleUnicode:大学の卒業制作とかもう知らない寝る!
Artist:Lone Wolf
ArtistUnicode:Lone Wolf
Creator:GAMI
Version:Neru!
Source:
Tags:future bass anime umaru mix
BeatmapID:933131
BeatmapSetID:432777

[Difficulty]
HPDrainRate:7
CircleSize:4
OverallDifficulty:9.6
ApproachRate:9.5
SliderMultiplier:1.8
SliderTickRate:3

[Events]
//Background and Video events
0,0,"314.jpg",0,0
//Break Periods
//Storyboard Layer 0 (Background)
//Storyboard Layer 1 (Fail)
//Storyboard Layer 2 (Pass)
//Storyboard Layer 3 (Foreground)
//Storyboard Sound Samples

[TimingPoints]
0,468.75,4,2,1,70,1,0
4453,-62.5,4,2,1,70,0,0
5156,-100,4,2,1,70,0,0
6328,-66.6666666666667,4,2,1,70,0,0
6796,-100,4,2,1,70,0,0
9375,-66.6666666666667,4,2,1,70,0,0
10312,-100,4,2,1,70,0,0
15000,-66.6666666666667,4,2,1,70,0,1
15937,-50,4,2,1,70,0,1
18281,-55.5555555555556,4,2,1,70,0,1
18750,-50,4,2,1,70,0,1
20156,-50,4,2,1,70,0,1
20625,-66.6666666666667,4,2,1,70,0,1
21562,-50,4,2,1,70,0,1
22500,-66.6666666666667,4,2,1,70,0,0

[Colours]
Combo1 : 196,64,0
Combo2 : 255,128,0
Combo3 : 255,128,64
Combo4 : 242,79,0

[HitObjects]
384,192,0,5,8,0:0:0:0:
64,112,468,1,0,0:0:0:0:
384,192,703,1,0,0:0:0:0:
64,256,937,1,0,0:0:0:0:
480,80,1172,1,0,0:0:0:0:
48,208,1406,2,0,L|144:208,1,90,8|0,0:0|0:0,0:0:0:0:
416,80,1875,5,8,0:0:0:0:
112,80,2109,1,0,0:0:0:0:
512,240,2343,1,8,0:0:0:0:
176,256,2578,1,0,0:0:0:0:
0,224,3046,1,0,0:0:0:0:
80,224,3164,1,0,0:0:0:0:
432,160,3281,6,0,L|400:48,1,90
208,64,3632,1,0,0:0:0:0:
16,64,3750,2,0,L|32:176,1,90,8|0,0:0|0:0,0:0:0:0:
464,144,4218,1,2,0:0:0:0:
96,240,4453,2,0,L|192:240,1,72
336,240,4687,2,0,L|432:240,1,72
0,240,4921,1,0,0:0:0:0:
416,144,5156,2,0,L|480:144,2,45,0|0|8,0:0|0:0|0:0,0:0:0:0:
32,144,5625,5,8,0:0:0:0:
336,144,5859,2,0,P|368:173|356:214,1,90,0|10,0:0|0:0,0:0:0:0:
48,160,6328,2,0,L|116:160,1,67.5000025749208
368,160,6562,2,0,L|480:160,1,67.5000025749208
176,128,6796,1,0,0:0:0:0:
512,128,7031,1,0,0:0:0:0:
160,208,7500,6,0,L|112:112,1,90,10|0,0:0|0:0,0:0:0:0:
176,96,7851,1,0,0:0:0:0:
240,64,7968,2,0,L|128:64,1,90
416,64,8437,2,0,L|512:64,2,90,2|0|8,0:0|0:0|0:0,0:0:0:0:
128,64,9140,1,0,0:0:0:0:
464,112,9375,6,0,L|496:272,1,135.000005149841
384,240,9726,1,0,0:0:0:0:
48,272,9843,2,0,L|16:112,1,135.000005149841
144,144,10194,1,0,0:0:0:0:
448,128,10312,1,2,0:0:0:0:
48,128,10546,1,0,0:0:0:0:
400,208,10781,1,8,0:0:0:0:
0,208,11015,1,0,0:0:0:0:
432,96,11250,6,0,P|432:144|384:176,1,90,8|0,0:0|0:0,0:0:0:0:
128,160,11718,1,0,0:0:0:0:
432,160,11953,1,8,0:0:0:0:
128,160,12187,1,10,0:0:0:0:
432,160,12421,2,0,P|448:240|432:256,1,90,8|0,0:0|0:0,0:0:0:0:
384,288,12773,1,0,0:0:0:0:
304,304,12890,1,8,0:0:0:0:
32,304,13125,5,8,0:0:0:0:
352,304,13359,1,0,0:0:0:0:
48,272,13593,2,0,L|32:176,1,90,8|0,0:0|0:0,0:0:0:0:
112,128,13945,1,0,0:0:0:0:
464,160,14062,2,0,L|480:64,1,90,10|0,0:0|0:0,0:0:0:0:
400,16,14414,1,0,0:0:0:0:
80,32,14531,2,0,L|192:32,1,90,8|0,0:0|0:0,0:0:0:0:
464,192,15000,6,4,L|496:336,1,135.000005149841
416,320,15351,1,0,0:0:0:0:
32,320,15468,2,4,L|61:188,1,135.000005149841,8|0,0:0|0:0,0:0:0:0:
400,64,15937,6,0,L|288:64,1,90,8|0,0:0|0:0,0:0:0:0:
80,112,16171,2,0,L|192:112,1,90,8|0,0:0|0:0,0:0:0:0:
32,192,16406,2,0,L|144:192,1,90
448,144,16640,2,0,L|336:144,1,90,8|0,0:0|0:0,0:0:0:0:
144,80,16875,2,0,L|48:112,3,90,8|0|0|0,0:0|0:0|0:0|0:0,0:0:0:0:
368,80,17343,6,0,L|464:112,3,90,8|0|0|0,0:0|0:0|0:0|0:0,0:0:0:0:
48,224,17812,2,0,L|16:128,1,90,8|0,0:0|0:0,0:0:0:0:
224,224,18046,2,0,L|192:128,1,90,8|0,0:0|0:0,0:0:0:0:
416,96,18281,2,0,L|528:96,1,80.9999975280763
80,96,18515,2,0,L|0:96,1,80.9999975280763,8|0,0:0|0:0,0:0:0:0:
240,96,18750,6,0,L|384:96,3,90,8|0|0|0,0:0|0:0|0:0|0:0,0:0:0:0:
512,176,19218,2,0,L|422:176,3,90,8|0|0|0,0:0|0:0|0:0|0:0,0:0:0:0:
64,64,19687,5,10,0:0:0:0:
144,112,19804,1,0,0:0:0:0:
32,176,19921,1,8,0:0:0:0:
112,224,20038,1,0,0:0:0:0:
416,64,20156,2,0,L|320:64,1,90
464,176,20390,2,0,L|368:176,1,90,8|0,0:0|0:0,0:0:0:0:
80,176,20625,6,0,L|64:96,1,67.5000025749208,10|0,0:0|0:0,0:0:0:0:
288,96,20859,1,8,0:0:0:0:
336,176,20976,1,0,0:0:0:0:
48,176,21093,2,0,L|32:96,1,67.5000025749208,10|0,0:0|0:0,0:0:0:0:
320,96,21327,1,8,0:0:0:0:
368,176,21444,1,0,0:0:0:0:
144,80,21562,6,0,L|32:80,1,90,8|0,0:0|0:0,0:0:0:0:
224,176,21796,2,0,L|112:176,1,90,8|0,0:0|0:0,0:0:0:0:
400,176,22031,2,0,L|512:176,1,90
320,272,22265,2,0,L|432:272,1,90,8|0,0:0|0:0,0:0:0:0:
48,192,22500,6,0,P|-16:240|48:320,1,202.500007724762,8|0,0:0|0:0,0:0:0:0:
464,192,22968,2,0,P|528:144|464:64,1,202.500007724762,8|0,0:0|0:0,0:0:0:0:
16,192,23437,1,2,0:0:0:0:
