osu file format v11

[General]
AudioFilename: Yuru Fuwa Jukai Girl.mp3
AudioLeadIn: 0
PreviewTime: 45483
Countdown: 0
SampleSet: Normal
StackLeniency: 0.4
Mode: 0
LetterboxInBreaks: 0

[Editor]
DistanceSpacing: 1
BeatDivisor: 4
GridSize: 4

[Metadata]
Title:Yuru Fuwa Jukai Girl
TitleUnicode:ゆるふわ樹海ガール
Artist:Lon
ArtistUnicode:ろん
Creator:phonic
Version:Hard
Source:
Tags:vocaloid Hatsune Miku Ishiburo-P Garven hoLysoup Beren
BeatmapID:157248
BeatmapSetID:50462

[Difficulty]
HPDrainRate:6
CircleSize:4
OverallDifficulty:6
ApproachRate:7
SliderMultiplier:1.5
SliderTickRate:1

[Events]
//Background and Video events
0,0,"BG.jpg"
//Break Periods
2,116940,129173
//Storyboard Layer 0 (Background)
//Storyboard Layer 1 (Fail)
//Storyboard Layer 2 (Pass)
//Storyboard Layer 3 (Foreground)
//Storyboard Sound Samples
//Background Colour Transformations
3,100,200,255,100

[TimingPoints]
10074,277.777777777778,4,1,1,60,1,0
17712,-100,4,1,1,40,0,0
18962,-100,4,2,1,30,0,0
27574,-133.333333333333,4,1,1,40,0,0
27851,-100,4,1,1,60,0,0
36740,-133.333333333333,4,1,1,60,0,0
45074,-100,4,1,1,30,0,0
45629,-100,4,1,1,80,0,1
45907,-100,4,1,1,70,0,1
53407,-100,4,1,1,60,0,0
54518,-100,4,1,1,80,0,1
54796,-100,4,1,1,70,0,1
63407,-100,4,1,1,60,0,0
90074,-133.333333333333,4,1,1,60,0,0
98407,-100,4,1,1,30,0,0
98962,-100,4,1,1,80,0,1
99240,-100,4,1,1,70,0,1
106740,-100,4,1,1,60,0,0
107851,-100,4,1,1,80,0,1
108129,-100,4,1,1,70,0,1
116740,-100,4,1,1,50,0,0
130074,-100,4,1,1,40,0,0
131185,-100,4,1,1,60,0,0
131324,-100,4,1,1,65,0,0
131459,-100,4,1,1,70,0,0
131601,-100,4,1,1,75,0,0
131740,-100,4,1,1,80,0,0
132296,-133.333333333333,4,2,1,40,0,0
139796,-133.333333333333,4,2,1,5,0,0
141185,-100,4,1,1,60,0,1
162990,-100,4,1,1,5,0,0
163407,-133.333333333333,4,1,1,50,0,0
163962,-100,4,1,1,60,0,0
165074,-100,4,1,1,40,0,0
165629,-100,4,1,1,60,0,0
182226,-100,4,1,1,30,0,0
184518,-100,4,1,1,60,0,0

[Colours]
Combo1 : 200,255,0
Combo2 : 0,200,100
Combo3 : 0,200,200
Combo4 : 200,100,100

[HitObjects]
108,76,10074,2,0,B|60:140|92:228,1,150,4|8,0:0|0:0,0:0:0
236,336,10629,2,0,B|284:272|252:184,1,150,0|8,0:0|0:0,0:0:0
192,156,11046,2,0,B|276:164|356:128,2,150
104,96,11740,2,0,B|80:128|80:168,1,75
84,248,12018,2,0,B|91:285|128:312,1,75,8|0,0:0|0:0,0:0:0
212,320,12296,6,0,B|292:344|380:328,1,150,0|8,0:0|0:0,0:0:0
448,176,12851,2,0,B|368:152|280:168,1,150,0|8,0:0|0:0,0:0:0
244,216,13268,2,0,B|272:136|264:48,2,150
192,304,13962,2,0,B|116:320,1,75,0|0,0:0|0:0,0:0:0
56,268,14240,2,0,B|76:236|92:200,1,75,8|0,0:0|0:0,0:0:0
168,212,14518,6,0,B|248:240|320:220,2,150,4|8|0,0:0|0:0|0:0,0:0:0
180,32,15351,2,0,B|172:72|188:108,1,75,8|0,0:0|0:0,0:0:0
260,88,15629,2,0,B|292:80|304:84|344:72,1,75
408,70,15907,2,0,B|424:104|412:144,1,75,8|0,0:0|0:0,0:0:0
336,196,16185,2,0,B|328:244|348:280,1,75
428,308,16462,2,0,B|436:260|416:224,1,75,8|0,0:0|0:0,0:0:0
356,348,16740,6,0,B|288:368|200:360,1,150,0|8,0:0|0:0,0:0:0
136,300,17157,2,0,B|112:272|104:232,1,75
188,228,17435,2,0,B|184:188|196:152,1,75,0|8,0:0|0:0,0:0:0
280,160,17712,1,0,0:0:0
396,92,18962,6,0,B|324:56|240:64,1,150,2|2,0:0|0:0,0:0:0
132,200,19518,2,0,B|204:236|288:228,1,150,0|2,0:0|0:0,0:0:0
340,272,19935,1,0,0:0:0
340,272,20074,2,0,B|376:256|396:220,1,75
420,152,20351,2,0,B|400:120|396:80,1,75,2|0,0:0|0:0,0:0:0
324,64,20629,6,0,B|248:88|160:80,2,150,0|2|0,0:0|0:0|0:0,0:0:0
400,228,21462,2,0,B|380:260|340:272,1,75,2|0,0:0|0:0,0:0:0
408,140,21740,2,0,B|445:141|476:169,2,75,0|0|2,0:0|0:0|0:0,0:0:0
324,180,22157,1,0,0:0:0
324,180,22296,2,0,B|296:112|316:32,2,150,0|2|0,0:0|0:0|0:0,0:0:0
252,312,23129,1,2,0:0:0
156,196,23407,6,0,B|132:192|116:208|116:208|132:268|80:304,1,150,0|2,0:0|0:0,0:0:0
44,232,23824,1,0,0:0:0
44,232,23962,2,0,B|36:192|36:192|60:132|120:124,1,150,0|2,0:0|0:0,0:0:0
192,124,24379,1,0,0:0:0
236,184,24518,2,0,B|228:108|256:32,2,150,0|2|0,0:0|0:0|0:0,0:0:0
340,292,25351,6,0,B|376:272|392:236,1,75,2|0,0:0|0:0,0:0:0
428,172,25629,2,0,B|368:116|364:32,2,150,0|2|0,0:0|0:0|0:0,0:0:0
412,248,26324,1,0,0:0:0
412,248,26462,2,0,B|408:288|380:320,1,75,2|0,0:0|0:0,0:0:0
328,252,26740,2,0,B|296:272|248:272,1,75
276,192,27018,2,0,B|240:172|224:136,2,75,2|0|0,0:0|0:0|0:0,0:0:0
136,344,27574,5,0,0:0:0
136,344,27851,6,0,B|92:272|96:180,1,150,4|8,0:0|0:0,0:0:0
204,64,28407,2,0,B|164:68|132:84,1,75
200,148,28685,2,0,B|240:144|272:128,1,75,8|0,0:0|0:0,0:0:0
316,60,28962,2,0,B|348:44|388:40,1,75
440,104,29240,2,0,B|456:176|452:256,2,150,8|0|8,0:0|0:0|0:0,0:0:0
376,280,30074,6,0,B|352:308|312:316,1,75
236,272,30351,2,0,B|260:244|300:236,1,75,8|0,0:0|0:0,0:0:0
372,196,30629,2,0,B|376:156|368:120,1,75
280,52,30907,2,0,B|276:92|284:128,1,75,8|0,0:0|0:0,0:0:0
284,128,31185,2,0,B|132:84,2,150,0|8|0,0:0|0:0|0:0,0:0:0
392,252,32018,5,8,0:0:0
276,360,32296,2,0,B|252:328|256:288,1,75
172,292,32574,2,0,B|172:252|196:224,1,75,8|0,0:0|0:0,0:0:0
284,212,32851,2,0,B|280:132|236:72,2,150,0|8|0,0:0|0:0|0:0,0:0:0
428,128,33685,2,0,B|432:208|476:268,2,150,8|0|8,0:0|0:0|0:0,0:0:0
344,264,34518,6,0,B|320:292|276:296,1,75
218,243,34796,2,0,B|242:215|284:212,1,75,8|0,0:0|0:0,0:0:0
204,320,35074,2,0,B|180:348|136:352,1,75
72,304,35351,2,0,B|96:276|137:272,1,75,8|0,0:0|0:0,0:0:0
216,244,35629,2,0,B|224:168|208:80,1,150,0|8,0:0|0:0,0:0:0
364,296,36185,2,0,B|356:220|372:132,1,150,0|8,0:0|0:0,0:0:0
248,312,36740,6,0,B|168:328|80:316,2,168.749994970858,4|8|0,0:0|0:0|0:0,0:0:0
332,160,37851,2,0,B|324:192|332:224,1,56.2499983236194,8|0,0:0|0:0,0:0:0
252,112,38129,2,0,B|260:80|252:48,1,56.2499983236194,8|0,0:0|0:0,0:0:0
248,196,38407,2,0,B|196:212|136:216,1,112.499996647239
340,320,38962,6,0,B|372:240|464:204,2,168.749994970858,8|8|0,0:0|0:0|0:0,0:0:0
232,260,40074,2,8,B|116:284,1,112.499996647239
44,188,40629,2,8,B|160:164,1,112.499996647239
276,188,41185,6,0,B|236:112|244:24,2,168.749994970858,4|8|0,0:0|0:0|0:0,0:0:0
352,336,42296,2,0,B|364:280|360:216,2,112.499996647239,8|8|0,0:0|0:0|0:0,0:0:0
236,292,43129,1,0,0:0:0
236,292,43407,2,0,B|180:312|120:312,2,112.499996647239,4|0|0,0:0|0:0|0:0,0:0:0
356,256,44240,1,0,0:0:0
256,208,44518,5,0,0:0:0
256,200,44796,1,0,0:0:0
256,192,45074,1,0,0:0:0
72,80,45629,6,0,B|108:103|108:103|92:152|124:224,1,150,4|8,0:0|0:0,0:0:0
60,268,46046,1,0,0:0:0
60,268,46185,2,0,B|118:222|202:234,1,150,0|8,0:0|0:0,0:0:0
260,292,46601,2,0,B|296:308|344:296,1,75
372,224,46879,2,0,B|336:208|288:220,1,75,0|8,0:0|0:0,0:0:0
420,292,47157,2,0,B|476:228|424:164|424:164|404:112|444:76,1,225,0|8,0:0|0:0,0:0:0
224,48,47851,6,0,B|148:44|72:76,1,150,0|8,0:0|0:0,0:0:0
56,156,48268,1,0,0:0:0
56,156,48407,2,0,B|132:160|208:128,1,150,0|8,0:0|0:0,0:0:0
284,136,48824,1,0,0:0:0
284,136,48962,2,0,B|288:216|328:284,1,150,0|8,0:0|0:0,0:0:0
256,312,49379,2,0,B|220:320|188:344,1,75
284,384,49657,2,8,B|320:376|352:352,1,75
408,292,49935,5,0,0:0:0
408,292,50074,2,0,B|456:216|460:136,1,150,0|8,0:0|0:0,0:0:0
432,84,50490,1,0,0:0:0
432,84,50629,2,0,B|376:48|312:72|312:72|264:68,1,150,0|8,0:0|0:0,0:0:0
204,52,51046,2,0,B|176:84|176:128,1,75
224,204,51324,2,0,B|252:172|251:135,1,75,0|8,0:0|0:0,0:0:0
96,144,51601,2,0,B|104:220|168:280,1,150
162,274,52018,1,8,0:0:0
336,296,52296,6,0,B|264:328|176:316,1,150,0|8,0:0|0:0,0:0:0
108,296,52712,1,0,0:0:0
108,296,52851,2,0,B|84:248|120:188|120:188|108:152,1,150,0|8,0:0|0:0,0:0:0
140,84,53268,1,0,0:0:0
220,64,53407,5,8,0:0:0
220,64,53546,1,8,0:0:0
288,224,53962,1,8,0:0:0
288,224,54101,1,8,0:0:0
152,348,54518,6,0,B|104:304|40:308|40:308|56:272,1,150,4|8,0:0|0:0,0:0:0
76,212,54935,1,0,0:0:0
76,212,55074,2,0,B|104:140|88:56,1,150,0|8,0:0|0:0,0:0:0
168,92,55490,1,0,0:0:0
168,92,55629,2,0,B|236:116|320:120,2,150,0|8|0,0:0|0:0|0:0,0:0:0
356,196,56462,6,0,B|332:264|328:344,2,150,8|0|8,0:0|0:0|0:0,0:0:0
428,152,57157,1,0,0:0:0
428,152,57296,2,0,B|440:112|432:72,1,75
360,40,57574,2,0,B|348:80|356:120,1,75,8|0,0:0|0:0,0:0:0
284,156,57851,2,0,B|212:180|120:180,2,150,0|8|0,0:0|0:0|0:0,0:0:0
196,296,58685,6,0,B|224:320|232:360,1,75,8|0,0:0|0:0,0:0:0
308,324,58962,2,0,B|380:300|472:300,2,150,4|8|0,0:0|0:0|0:0,0:0:0
132,288,59796,1,8,0:0:0
188,116,60074,2,0,B|184:152|200:192,1,75
276,160,60351,2,0,B|291:197|287:233,1,75,8|0,0:0|0:0,0:0:0
212,268,60629,2,0,B|140:296|52:288,2,150,0|8|0,0:0|0:0|0:0,0:0:0
300,116,61462,2,0,B|372:88|460:96,2,150,0|0|8,0:0|0:0|0:0,0:0:0
256,188,62157,2,0,B|260:220|252:227|256:268,2,75,0|8|8,0:0|0:0|0:0,0:0:0
256,192,63407,12,0,65351,0:0:0
256,128,65629,5,0,0:0:0
344,76,65907,1,0,0:0:0
392,168,66185,1,0,0:0:0
304,220,66462,1,0,0:0:0
256,128,66740,5,0,0:0:0
208,220,67018,1,0,0:0:0
120,168,67296,1,0,0:0:0
168,76,67574,1,0,0:0:0
172,316,67851,6,0,B|20:316,2,150,4|0|0,0:0|0:0|0:0,0:0:0
256,192,68685,1,0,0:0:0
340,68,68962,2,0,B|492:68,2,150
256,192,69796,1,0,0:0:0
152,80,70074,6,0,B|116:96|100:136,1,75
176,152,70351,2,0,B|160:184|164:224,1,75
236,204,70629,2,0,B|244:244|276:268,1,75
316,204,70907,2,0,B|352:220|392:208,1,75
404,316,72296,6,0,B|436:248|424:168,1,150,4|8,0:0|0:0,0:0:0
284,84,72851,2,0,B|252:152|264:232,1,150,0|8,0:0|0:0,0:0:0
220,300,73268,2,0,B|248:324|296:324,2,75
172,236,73685,2,0,B|92:244|12:272,2,150,8|0|8,0:0|0:0|0:0,0:0:0
316,160,74518,6,0,B|396:152|476:124,2,150,0|8|0,0:0|0:0|0:0,0:0:0
272,232,75212,2,0,B|240:208|224:168,1,75,0|8,0:0|0:0,0:0:0
216,48,75490,2,0,B|248:72|264:112,1,75
172,116,75768,1,0,0:0:0
172,116,75907,2,0,B|92:132|28:172,2,150,8|0|8,0:0|0:0|0:0,0:0:0
360,204,76740,6,0,B|392:136|388:48,1,150,0|8,0:0|0:0,0:0:0
220,92,77296,2,0,B|188:160|192:248,1,150,0|8,0:0|0:0,0:0:0
240,304,77712,2,0,B|268:328|308:336,2,75
156,304,78129,2,0,B|84:320|0:328,2,150,8|0|8,0:0|0:0|0:0,0:0:0
284,176,78962,6,0,B|312:152|352:152,1,75
344,236,79240,2,0,B|336:272|344:312,1,75,8|0,0:0|0:0,0:0:0
420,276,79518,2,0,B|428:240|420:200,1,75
500,172,79796,2,0,B|484:128|444:116,1,75,8|0,0:0|0:0,0:0:0
380,76,80073,2,0,B|224:76,1,150,0|8,0:0|0:0,0:0:0
136,212,80629,2,0,B|284:212,1,150,0|8,0:0|0:0,0:0:0
396,336,81185,6,0,B|432:344|456:300|444:248|444:248|468:216,1,150,0|8,0:0|0:0,0:0:0
400,168,81601,1,0,0:0:0
456,108,81740,2,0,B|372:144|304:144,1,150,0|8,0:0|0:0,0:0:0
232,172,82157,2,0,B|204:144|196:104,2,75
296,224,82573,2,0,B|296:260|280:300,1,75,8|0,0:0|0:0,0:0:0
204,268,82851,2,0,B|140:232|64:212,1,150,0|8,0:0|0:0,0:0:0
176,72,83407,6,0,B|240:108|316:128,1,150,0|8,0:0|0:0,0:0:0
460,208,83962,2,0,B|476:176|476:136,1,75
396,152,84240,2,0,B|380:184|380:224,1,75,8|0,0:0|0:0,0:0:0
428,356,84518,2,0,B|444:324|444:284,1,75
364,300,84796,2,0,B|284:312|204:304,2,150,8|0|8,0:0|0:0|0:0,0:0:0
464,168,85629,6,0,B|412:104|400:28,1,150,0|8,0:0|0:0,0:0:0
324,68,86046,1,0,0:0:0
324,68,86185,2,0,B|256:88|164:88,1,150,0|8,0:0|0:0,0:0:0
124,152,86601,2,0,B|92:124|84:84,2,75
208,160,87018,2,0,B|200:196|168:224,1,75,8|0,0:0|0:0,0:0:0
88,224,87296,2,0,B|68:296|88:376,2,150,0|8|0,0:0|0:0|0:0,0:0:0
236,328,88129,6,0,B|264:312|280:320|308:300,1,75,8|0,0:0|0:0,0:0:0
376,272,88407,2,0,B|395:195|375:123,1,150,0|8,0:0|0:0,0:0:0
308,76,88823,1,0,0:0:0
308,76,88962,2,0,B|272:104|196:56|160:84,2,150,0|8|0,0:0|0:0|0:0,0:0:0
432,188,89796,1,8,0:0:0
320,292,90073,6,0,B|144:324,2,168.750006437302,12|8|0,0:0|0:0|0:0,0:0:0
392,144,91185,2,0,B|408:88,1,56.2500021457673,8|0,0:0|0:0,0:0:0
328,196,91462,2,0,B|368:232|432:240,2,112.500004291535,8|0|0,0:0|0:0|0:0,0:0:0
192,64,92296,6,0,B|108:52|20:64,2,168.750006437302,8|8|0,0:0|0:0|0:0,0:0:0
296,132,93407,2,0,B|424:120,1,112.500004291535,8|8,0:0|0:0,0:0:0
364,236,93962,2,8,B|236:248,1,112.500004291535
140,196,94518,6,0,B|80:200|48:112|88:68,2,168.750006437302,12|8|0,0:0|0:0|0:0,0:0:0
340,224,95629,2,0,B|356:280|344:348,1,112.500004291535,8|8,0:0|0:0,0:0:0
232,384,96185,2,0,B|216:328|228:260,1,112.500004291535
148,120,96740,2,0,B|100:84|40:80,2,112.500004291535,4|0|0,0:0|0:0|0:0,0:0:0
228,68,97573,1,0,0:0:0
256,160,97851,5,0,0:0:0
256,176,98129,1,0,0:0:0
256,192,98407,1,0,0:0:0
412,328,98962,6,0,B|440:260|440:180,1,150,4|8,0:0|0:0,0:0:0
456,108,99379,1,0,0:0:0
396,64,99518,2,0,B|328:48|284:96|284:96|240:108,1,150,0|8,0:0|0:0,0:0:0
208,160,99935,1,0,0:0:0
136,184,100073,2,0,B|52:156|64:52,2,150,0|8|0,0:0|0:0|0:0,0:0:0
272,276,100907,2,0,B|268:312|276:352,1,75,8|0,0:0|0:0,0:0:0
348,328,101185,6,0,B|496:328,1,150,0|8,0:0|0:0,0:0:0
468,260,101601,1,0,0:0:0
432,196,101740,2,0,B|284:196,1,150,0|8,0:0|0:0,0:0:0
212,164,102157,1,0,0:0:0
144,196,102296,2,0,B|96:260|68:344,1,150,0|8,0:0|0:0,0:0:0
20,248,102712,2,0,B|68:184|96:100,1,150
90,116,103129,1,8,0:0:0
296,64,103407,6,0,B|376:72|440:120,1,150,4|8,0:0|0:0,0:0:0
476,180,103823,1,0,0:0:0
476,180,103962,2,0,B|492:220|492:220|448:248|448:320,1,150,0|8,0:0|0:0,0:0:0
376,328,104379,2,0,B|340:340|300:336,1,75
216,260,104657,2,0,B|252:248|292:252,1,75,0|8,0:0|0:0,0:0:0
220,344,104935,2,0,B|184:356|144:352,2,75
120,268,105351,6,0,B|104:232|104:188,1,75,8|0,0:0|0:0,0:0:0
120,120,105629,2,0,B|172:92|220:112|220:112|276:108,1,150,0|8,0:0|0:0,0:0:0
332,68,106046,1,0,0:0:0
392,112,106185,2,0,B|424:184|416:284,1,150,0|8,0:0|0:0,0:0:0
352,296,106601,1,0,0:0:0
276,288,106740,5,8,0:0:0
276,288,106879,1,8,0:0:0
220,120,107296,1,8,0:0:0
220,120,107435,1,8,0:0:0
96,300,107851,6,0,B|40:252|32:152,2,150,4|8|0,0:0|0:0|0:0,0:0:0
247,264,108685,1,8,0:0:0
220,120,108962,2,0,B|192:88|200:44,1,75
280,60,109240,2,0,B|432:60,2,150,8|0|8,0:0|0:0|0:0,0:0:0
176,228,110073,6,0,B|24:228,2,150,0|8|0,0:0|0:0|0:0,0:0:0
248,268,110768,1,0,0:0:0
248,268,110907,2,0,B|288:264|312:232,1,75,8|0,0:0|0:0,0:0:0
256,172,111185,2,0,B|244:136|248:96,1,75
324,68,111462,2,0,B|388:68|388:132|480:136,2,150,8|0|8,0:0|0:0|0:0,0:0:0
188,68,112296,6,0,B|124:68|124:132|32:136,2,150,4|8|0,0:0|0:0|0:0,0:0:0
260,92,112990,2,0,B|256:128|264:172,1,75,0|8,0:0|0:0,0:0:0
220,228,113268,1,0,0:0:0
252,296,113407,2,0,B|192:348|104:328,2,150,0|8|0,0:0|0:0|0:0,0:0:0
408,196,114240,1,8,0:0:0
284,56,114518,6,0,B|224:32|160:104|108:68,1,150,0|8,0:0|0:0,0:0:0
68,56,114935,1,0,0:0:0
28,120,115073,2,0,B|12:180|56:224|56:224|64:272,1,150,0|8,0:0|0:0,0:0:0
128,296,115490,2,0,B|200:316,2,75,0|8|8,0:0|0:0|0:0,0:0:0
256,192,116740,5,4,0:0:0
120,256,130073,6,0,B|100:220|100:184,1,75
172,132,130351,2,0,B|192:168|192:204,1,75
268,256,130629,2,0,B|268:292|288:328,1,75
392,244,130907,2,0,B|392:208|372:172,1,75
336,64,131185,6,0,B|304:80|260:88,1,75
172,132,131462,2,0,B|208:168|248:180,1,75
316,212,131740,2,0,B|312:256|288:284,1,75
200,288,132018,2,0,B|204:332|232:352,2,75
256,76,132851,5,2,0:0:0
440,240,133407,2,0,B|416:212|412:176,2,56.2500021457673,8|0|2,0:0|0:0|0:0,0:0:0
372,292,133823,2,0,B|396:320|400:356,2,56.2500021457673,8|0|0,0:0|0:0|0:0,0:0:0
340,220,134240,1,2,0:0:0
224,88,134518,6,0,B|176:120|120:128,1,112.500004291535,8|2,0:0|0:0,0:0:0
64,172,134935,1,10,0:0:0
64,172,135073,2,0,B|96:220|104:280,1,112.500004291535,0|2,0:0|0:0,0:0:0
168,304,135490,1,0,0:0:0
208,368,135629,2,0,B|197:310|225:258,1,112.500004291535,8|2,0:0|0:0,0:0:0
280,316,136046,2,0,B|308:264|297:206,1,112.500004291535,10|0,0:0|0:0,0:0:0
297,207,136462,1,10,0:0:0
256,68,136740,6,0,B|224:68|224:68|180:80|180:80|144:80,1,112.500004291535,10|2,0:0|0:0,0:0:0
72,80,137157,1,10,0:0:0
72,80,137296,2,0,B|48:132|68:192,1,112.500004291535,0|2,0:0|0:0,0:0:0
184,304,137851,6,0,B|300:304,1,112.500004291535,8|2,0:0|0:0,0:0:0
244,232,138268,2,0,B|360:232,1,112.500004291535,8|0,0:0|0:0,0:0:0
356,232,138685,1,2,0:0:0
412,80,138962,2,0,B|472:68,2,56.2500021457673,8|0|2,0:0|0:0|0:0,0:0:0
348,120,139379,2,0,B|296:140|232:104|232:104|184:120,1,168.750006437302,8|0,0:0|0:0,0:0:0
152,36,141185,6,0,B|104:80|40:76|40:76|52:116,1,150,4|8,0:0|0:0,0:0:0
76,172,141601,1,0,0:0:0
76,172,141740,2,0,B|104:244|88:328,1,150,0|8,0:0|0:0,0:0:0
168,292,142157,1,0,0:0:0
168,292,142296,2,0,B|236:268|320:264,2,150,0|8|0,0:0|0:0|0:0,0:0:0
152,144,143129,6,0,B|124:116|128:72,1,75,8|0,0:0|0:0,0:0:0
196,44,143407,2,0,B|248:24|324:84|368:60,1,150,0|8,0:0|0:0,0:0:0
408,104,143823,2,0,B|488:104,2,75
360,160,144240,2,0,B|280:160,1,75,8|0,0:0|0:0,0:0:0
208,160,144518,2,0,B|164:228|204:304,2,150,0|8|0,0:0|0:0|0:0,0:0:0
284,96,145212,2,0,B|280:60|292:48|280:16,2,75,0|8|0,0:0|0:0|0:0,0:0:0
376,136,145629,6,0,B|432:160|404:232|404:232|456:260,1,150,4|8,0:0|0:0,0:0:0
400,316,146046,1,0,0:0:0
464,356,146185,2,0,B|384:324|304:336,1,150,0|8,0:0|0:0,0:0:0
244,316,146601,1,0,0:0:0
180,280,146740,2,0,B|152:248|152:208,1,75
224,120,147018,2,0,B|252:152|252:192,1,75,8|0,0:0|0:0,0:0:0
312,232,147296,2,0,B|388:208|460:204,2,150,0|8|0,0:0|0:0|0:0,0:0:0
180,164,148129,5,8,0:0:0
228,24,148407,1,0,0:0:0
360,92,148685,1,8,0:0:0
312,232,148962,1,8,0:0:0
312,232,149101,1,8,0:0:0
256,192,150073,12,0,152018,0:0:0
364,268,152296,6,0,B|412:192|368:120,2,150
256,192,153129,1,0,0:0:0
148,268,153407,2,0,B|100:192|144:120,2,150
256,192,154240,1,0,0:0:0
336,100,154518,6,0,B|352:56|440:56|464:104,1,150
396,144,154935,1,0,0:0:0
456,188,155073,2,0,B|440:232|352:232|328:184,1,150
264,144,155490,1,0,0:0:0
208,92,155629,2,0,B|132:96,2,75
164,172,156046,2,0,B|88:176,2,75
200,252,156462,2,0,B|276:248,2,75
256,192,156879,12,0,158685,0:0:0
256,192,158962,12,0,162990,0:0:0
256,28,163407,6,0,B|244:84|268:96|256:144,2,112.500004291535
256,228,164240,1,0,0:0:0
256,228,164379,1,4,0:0:0
256,28,165073,5,0,0:0:0
256,28,165351,1,8,0:0:0
404,76,165629,6,0,B|452:140|420:228,1,150,4|8,0:0|0:0,0:0:0
276,336,166185,2,0,B|228:272|260:184,1,150,0|8,0:0|0:0,0:0:0
320,156,166601,2,0,B|236:164|156:128,2,150
424,144,167296,2,0,B|448:176|448:216,1,75,0|0,0:0|0:0,0:0:0
368,226,167573,2,0,B|368:264|392:296,1,75,8|0,0:0|0:0,0:0:0
300,320,167851,6,0,B|220:344|132:328,1,150,0|8,0:0|0:0,0:0:0
92,192,168407,2,0,B|172:168|260:184,1,150,0|8,0:0|0:0,0:0:0
312,204,168823,2,0,B|344:220|384:216,1,75
364,140,169101,2,0,B|352:104|364:64,1,75,0|8,0:0|0:0,0:0:0
436,32,169379,2,0,B|448:68|436:108,1,75
468,176,169657,2,0,B|456:212|468:252,1,75,0|8,0:0|0:0,0:0:0
428,316,169935,1,0,0:0:0
352,308,170073,6,0,B|296:292|244:324|244:324|204:300,1,150,4|8,0:0|0:0,0:0:0
88,172,170629,2,0,B|144:188|196:156|196:156|236:180,1,150,0|8,0:0|0:0,0:0:0
296,208,171046,2,0,B|332:216|376:212,1,75
372,136,171323,2,0,B|384:100|392:64,1,75,0|8,0:0|0:0,0:0:0
324,16,171601,2,0,B|312:52|304:88,1,75
224,80,171879,2,0,B|188:72|144:76,1,75,0|8,0:0|0:0,0:0:0
84,112,172157,1,0,0:0:0
40,172,172296,6,0,B|24:252|80:316,1,150,0|8,0:0|0:0,0:0:0
220,272,172851,2,0,B|236:192|180:128,1,150,0|8,0:0|0:0,0:0:0
140,68,173268,2,0,B|156:36|200:24,1,75
272,48,173546,2,0,B|304:64|344:64,1,75,0|8,0:0|0:0,0:0:0
416,92,173823,2,0,B|428:56|420:48|432:16,2,75
348,140,174240,2,0,B|336:176|336:220,1,75,8|0,0:0|0:0,0:0:0
352,288,174518,6,0,B|296:332|208:340,2,150,4|8|0,0:0|0:0|0:0,0:0:0
256,192,175351,1,8,0:0:0
160,96,175629,2,0,B|216:52|304:44,2,150,0|8|0,0:0|0:0|0:0,0:0:0
256,192,176462,1,8,0:0:0
352,96,176740,6,0,B|396:152|404:240,2,150,0|8|0,0:0|0:0|0:0,0:0:0
256,192,177573,1,8,0:0:0
160,288,177851,2,0,B|116:232|108:144,2,150,0|8|0,0:0|0:0|0:0,0:0:0
256,192,178685,6,0,B|236:156|240:112,2,75,8|0|4,0:0|0:0|0:0,0:0:0
340,316,179240,1,8,0:0:0
464,232,179518,1,0,0:0:0
380,108,179796,1,8,0:0:0
256,192,180073,5,0,0:0:0
172,316,180351,1,8,0:0:0
48,232,180629,1,0,0:0:0
132,108,180907,1,8,0:0:0
256,192,181185,6,0,B|249:232|279:265,1,75
334,209,181462,2,0,B|362:237|405:236,1,75
392,158,181740,2,0,B|432:156|463:130,1,75
400,80,182018,2,0,B|401:42|368:16,1,75,0|4,0:0|0:0,0:0:0
256,192,182296,12,2,184518,0:0:0
256,192,184796,5,2,0:0:0
