osu file format v9

[General]
AudioFilename: yurufuwa.mp3
AudioLeadIn: 1235
PreviewTime: 98867
Countdown: 0
SampleSet: Normal
StackLeniency: 0.7
Mode: 0
LetterboxInBreaks: 0

[Editor]
Bookmarks: 57547,116714,132270
DistanceSpacing: 1.8
BeatDivisor: 4
GridSize: 8

[Metadata]
Title:Yuru Fuwa Jukai Girl
Artist:Lon
Creator:Garven
Version:Insane
Source:
Tags:Dangaard Hatsune Miku Thite Star_Stream Mystica IshiburoP Tasha

[Difficulty]
HPDrainRate:7
CircleSize:4
OverallDifficulty:9
ApproachRate:9
SliderMultiplier:1.65
SliderTickRate:2

[Events]
//Background and Video events
Video,-9,"bideo2.avi"
0,0,"26180618.jpg"
//Break Periods
2,132330,139170
//Storyboard Layer 0 (Background)
//Storyboard Layer 1 (Fail)
//Storyboard Layer 2 (Pass)
//Storyboard Layer 3 (Foreground)
Sprite,Foreground,Centre,"dosido1.png",99,555 M,0,116575,116714,99,550,99,325 S,0,116575,132270,0.4 F,0,116991,,1,0
Animation,Foreground,Centre,"dosido.png",320,240,2,555,LoopForever M,0,116992,130047,99,325 S,0,116992,130047,0.4 F,0,130046,,1,0
Animation,Foreground,Centre,"dosido.png",320,240,2,277.5,LoopForever M,0,130047,132235,99,325 S,0,130047,132235,0.4 F,0,132131,132235,1,0
Sprite,Foreground,Centre,"kraash40dan.png",320,240 M,0,116575,116714,307,550,307,435 R,0,116575,129075,0 S,0,116714,130047,0.6 M,0,116714,132270,307,435 R,0,129075,130047,0,0.1 S,0,130047,130325,0.6,0.64 R,0,130047,131159,0.1,-0.2 S,0,130325,130603,0.62,0.67 S,0,130603,130881,0.65,0.7 S,0,130881,131159,0.68,0.73 S,0,131159,131436,0.71,0.77 R,0,131159,132270,-0.2,0.2 S,0,131436,131714,0.75,0.81 S,0,131714,131992,0.79,0.85 S,0,131992,132270,0.83,0.89 F,0,132131,132270,1,0
Sprite,Foreground,Centre,"kraash40dan.png",320,240 M,0,121020,121714,307,435 F,0,121020,121714,1,0 S,0,121020,121714,0.6,1 M,0,125603,126714,307,435 F,0,125603,126714,1,0 S,0,125603,126714,0.6,1
//Storyboard Sound Samples
//Background Colour Transformations
3,100,163,162,255

[TimingPoints]
1159,277.777777777778,4,1,0,85,1,0
1159,-133.333333333333,4,2,1,100,0,0
10047,-100,4,1,0,85,0,0
18936,-133.333333333333,4,2,1,75,0,0
27547,-100,4,1,0,85,0,0
44561,-100,4,1,0,5,0,0
44978,-100,4,1,0,65,0,0
45603,-76.9230769230769,4,1,0,85,0,1
62270,-83.3333333333333,4,1,0,85,0,0
71992,-100,4,1,0,85,0,0
97895,-100,4,1,0,5,0,0
98311,-100,4,1,0,65,0,0
98936,-76.9230769230769,4,1,0,85,0,1
115603,-100,4,1,0,85,0,0
116714,-83.3333333333333,4,1,0,85,0,1
125603,-83.3333333333333,4,1,0,60,0,1
127270,-83.3333333333333,4,1,0,80,0,1
127825,-83.3333333333333,4,1,0,85,0,1
129978,-83.3333333333333,4,1,0,60,0,1
131089,-83.3333333333333,4,1,0,85,0,1
132270,-100,4,1,0,65,0,0
139492,-100,4,2,1,100,0,0
141159,-76.9230769230769,4,1,0,85,0,1
148936,-83.3333333333333,4,1,0,85,0,0
150047,-83.3333333333333,4,1,0,85,0,1
156506,-83.3333333333333,4,2,1,100,0,1
156645,-83.3333333333333,4,1,0,85,0,1
159700,-83.3333333333333,4,2,1,100,0,1
159839,-83.3333333333333,4,1,0,85,0,1
164492,-83.3333333333333,4,2,1,100,0,0
165603,-83.3333333333333,4,1,0,85,0,1
184422,-83.3333333333333,4,1,0,85,0,0
184492,-83.3333333333333,4,1,0,85,0,1
184770,-83.3333333333333,4,1,0,85,0,0

[Colours]
Combo1 : 250,240,0
Combo2 : 230,0,140
Combo3 : 0,192,240
Combo4 : 255,95,0

[HitObjects]
128,80,1159,2,0,B|256:80,1,123.749996311963,0|2
256,304,1853,1,2
216,160,2131,2,0,B|200:224|144:272,1,123.749996311963,0|2
296,160,2686,2,0,B|312:224|368:272,1,123.749996311963,0|2
400,200,3103,1,0
400,128,3242,1,2
454,75,3381,6,0,B|428:43|367:40|342:82,1,123.749996311963,0|2
128,152,4075,1,2
128,304,4353,2,0,B|152:336|211:338|240:297,1,123.749996311963,0|0
288,248,4770,1,0
360,248,4909,1,2
360,64,5186,1,0
176,64,5464,1,0
104,64,5603,5,0
56,120,5742,1,0
56,128,5811,1,0
56,136,5881,1,2
104,192,6020,2,0,B|168:192,1,61.8749981559814
232,272,6297,2,0,B|160:272,1,61.8749981559814,2|0
64,288,6575,2,0,B|64:336|104:360|144:360|144:360|168:360,1,123.749996311963,2|0
448,288,7131,2,0,B|448:336|408:360|368:360|368:360|344:360,1,123.749996311963,2|0
292,344,7547,1,2
220,344,7686,1,0
256,280,7825,5,0
256,96,8103,1,2
96,192,8381,1,0
96,192,8520,1,2
280,192,8797,1,2
384,48,10047,6,0,B|440:40|488:96|472:160,1,165,4|8
464,256,10464,1,0
368,288,10603,2,0,B|352:368,2,82.5,0|0|8
384,192,11020,1,0
144,120,11297,1,0
64,184,11436,2,0,B|48:264,1,82.5,8|0
144,240,11714,2,0,B|144:328,1,82.5
224,184,11992,2,0,B|240:264,1,82.5,8|0
296,120,12270,5,0
392,96,12409,1,0
320,32,12547,2,0,B|224:32,1,82.5,8|0
168,104,12825,2,0,B|80:104,2,82.5,0|0|8
224,184,13242,1,0
472,184,13520,1,0
392,240,13659,2,0,B|368:320,1,82.5,8|0
288,264,13936,1,0
208,320,14075,1,0
112,304,14214,1,8
40,240,14353,1,0
72,144,14492,6,0,B|164:168|208:80,1,165,4|8
296,32,14909,1,0
368,104,15047,2,0,B|456:104,2,82.5,0|0|8
296,176,15464,1,0
72,288,15742,1,0
160,336,15881,1,8
256,360,16020,1,0
352,336,16159,1,0
440,288,16297,1,0
368,224,16436,2,0,B|448:181,1,82.5,8|0
416,88,16714,5,2
328,48,16853,1,0
232,64,16992,1,0
216,160,17131,1,0
296,224,17270,1,2
280,320,17409,1,0
184,336,17547,1,0
96,296,17686,1,2
160,64,18936,5,0
232,88,19075,2,0,B|292:112|352:88,1,123.749996311963,2|0
416,48,19492,1,0
476,92,19631,2,0,B|500:152|476:212,1,123.749996311963,2|0
432,272,20047,1,0
368,312,20186,1,2
184,312,20464,2,0,B|112:280|112:208,1,123.749996311963,2|0
112,144,20881,1,2
184,128,21020,1,0
224,192,21159,6,0,B|264:240|336:232,1,123.749996311963,0|2
344,160,21575,1,0
352,88,21714,2,0,B|424:80|464:128,1,123.749996311963,0|2
480,200,22131,1,0
448,264,22270,1,0
400,320,22409,2,0,B|432:344,2,30.9374990779907,0|0|2
328,336,22686,1,0
256,336,22825,1,0
104,328,23103,1,2
192,208,23381,6,0,B|272:200|312:136,1,123.749996311963,0|2
328,88,23797,1,0
344,16,23936,1,0
344,16,24075,1,2
488,136,24353,1,2
432,192,24492,1,0
408,264,24631,1,2
232,320,24909,2,0,B|232:352,2,30.9374990779907,0|0|2
168,280,25186,1,0
208,216,25325,2,0,B|200:184|168:160,1,61.8749981559814,2|0
104,144,25603,5,2
256,40,25881,1,2
408,144,26159,1,2
256,248,26436,1,2
256,192,26714,12,0,27547
152,64,27825,6,0,B|96:136|120:224,1,165,4|0
136,320,28242,1,0
232,296,28381,2,0,B|304:352,1,82.5
360,272,28659,2,0,B|448:304,1,82.5
424,200,28936,1,0
480,120,29075,1,0
392,72,29214,1,0
256,280,29492,1,0
120,72,29770,1,0
56,152,29909,1,0
144,192,30047,5,0
384,120,30325,1,0
184,264,30603,1,0
328,64,30881,1,0
256,136,31020,1,0
264,232,31159,2,0,B|281:275|322:292,1,82.5
336,192,31436,2,0,B|360:232|424:240,1,82.5
464,160,31714,1,2
248,40,31992,1,0
152,24,32131,1,0
112,112,32270,6,0,B|104:208|192:248,1,165
256,176,32686,1,0
400,112,32825,2,0,B|408:208|320:248,1,165
256,320,33242,1,0
160,344,33381,2,0,B|80:328,1,82.5
120,240,33659,2,0,B|40:224,1,82.5
80,136,33936,1,0
312,40,34214,5,0
448,248,34492,2,0,B|456:352|360:368,1,165
300,260,34909,1,0
176,280,35047,2,0,B|160:224|200:168|264:160,1,165
376,152,35464,1,0
464,112,35603,1,0
448,16,35742,1,0
352,0,35881,1,0
256,24,36020,1,0
160,0,36159,1,0
64,16,36297,1,0
48,112,36436,1,0
136,152,36575,1,0
68,224,36714,5,0
436,224,37131,1,0
176,88,37547,2,2,B|256:120|336:88,1,165,2|0
360,184,37964,1,0
152,184,38242,1,0
184,384,38520,2,2,B|212:348|256:344|300:348|328:384,1,165,2|0
400,320,38936,5,0
112,320,39353,1,0
160,128,39631,2,2,B|208:120|208:120|232:128|232:128|256:84|256:84|280:128|280:128|304:120|304:120|352:128,1,247.5,2|0
440,168,40186,1,0
360,224,40325,2,0,B|328:304,1,82.5
256,240,40603,1,0
182,300,40742,2,0,B|152:224,1,82.5
72,168,41020,1,0
96,72,41159,5,4
416,72,41575,1,0
200,272,41992,1,0
256,80,42270,1,0
256,80,42409,1,0
312,272,42686,1,0
40,160,43103,1,0
120,336,43381,5,0
320,352,43659,1,0
296,160,43936,1,0
96,144,44214,1,0
256,264,44492,2,0,B|424:224|424:224|448:56,1,330
36,120,45603,6,2,B|76:40|164:4|252:40|292:120,1,321.749994246662,4|10
168,152,46159,2,2,B|208:232|296:268|384:232|424:152,1,321.749994246662,0|10
480,40,46714,1,8
352,40,46853,1,0
168,304,47131,1,8
288,352,47270,1,0
416,352,47409,1,0
488,248,47547,2,8,B|488:200|488:200|488:168|456:144,1,107.249998082221,8|8
368,64,47825,6,2,B|300:-5|221:83|247:107|273:132|195:220|128:192,1,321.749994246662,4|10
144,64,48381,2,2,B|211:-5|290:83|264:107|238:132|316:220|384:192,1,321.749994246662,0|10
432,312,48936,1,8
80,312,49214,1,0
80,312,49353,1,8
432,312,49631,1,8
328,240,49770,1,0
208,280,49909,1,0
113,192,50047,6,2,B|60:151|62:88|98:30|163:10|224:23|251:83,1,321.749994246662,4|10
390,192,50603,2,2,B|442:151|440:88|404:30|339:10|278:23|251:83,1,321.749994246662,0|10
192,200,51159,1,8
256,312,51297,1,0
384,312,51436,1,0
480,224,51575,2,0,B|512:176|509:120,1,107.249998082221,8|0
384,112,51853,2,0,B|336:144|280:141,1,107.249998082221,0|8
160,96,52131,1,8
72,192,52270,6,0,B|56:248|96:296,1,107.249998082221
216,336,52547,1,8
336,280,52686,1,0
488,264,52825,2,0,B|504:208|464:160,1,107.249998082221
432,40,53102,1,8
304,72,53241,1,8
184,32,53381,5,4
184,32,53520,1,0
328,352,53936,1,4
328,352,54075,1,0
24,312,54492,6,0,B|128:352|216:256,1,214.499996164441,6|8
168,136,54909,1,0
296,128,55047,2,0,B|384:31|488:71,1,214.499996164441,2|8
416,184,55464,1,0
488,288,55603,2,0,B|392:344,1,107.249998082221
320,240,55881,2,0,B|208:240,1,107.249998082221,8|0
88,200,56159,1,0
376,48,56436,1,8
252,340,56714,6,0,B|212:236,1,107.249998082221
252,44,56992,2,0,B|212:148,1,107.249998082221,8|0
24,192,57270,2,0,B|144:192,1,107.249998082221
403,192,57547,2,0,B|296:192,1,107.249998082221,8|0
136,80,57825,1,0
256,24,57964,1,0
376,80,58103,1,8
432,352,58381,1,0
80,352,58659,1,8
144,240,58797,1,0
64,144,58936,6,0,B|136:48|256:72,1,214.499996164441,6|8
304,192,59353,1,0
259,312,59492,2,0,B|376:336|448:240,1,214.499996164441,2|8
480,112,59909,1,0
376,40,60047,2,0,B|264:40,1,107.249998082221
96,128,60325,2,0,B|208:128,1,107.249998082221,8|0
376,216,60603,1,0
80,336,60881,1,8
16,32,61159,5,0
288,352,61436,1,0
280,32,61714,1,0
16,352,61992,1,0
400,192,62270,5,4
400,192,62409,1,0
56,32,63381,6,0,B|32:112|80:176|152:184,1,198.000004720688,4|8
256,216,63798,1,0
368,248,63937,2,0,B|464:272,2,99.000002360344,0|0|8
256,296,64354,1,0
40,360,64631,1,0
24,264,64770,2,0,B|0:168,1,99.000002360344,8|0
96,40,65048,2,0,B|120:136,1,99.000002360344
264,200,65326,2,0,B|240:104,1,99.000002360344,8|0
328,24,65604,5,0
440,64,65743,1,0
480,176,65881,2,0,B|480:280,1,99.000002360344,8|0
368,236,66159,2,0,B|344:352,2,99.000002360344,0|0|8
344,120,66576,1,0
152,256,66854,1,0
48,200,66993,2,0,B|69:103,1,99.000002360344,8|0
152,16,67270,1,0
224,112,67409,1,0
320,40,67548,1,8
440,32,67687,1,0
496,136,67826,6,0,B|520:248|400:296,1,198.000004720688,4|8
296,256,68243,1,0
192,304,68381,2,0,B|88:304,2,99.000002360344,0|0|8
296,352,68798,1,0
496,224,69076,1,0
440,120,69215,1,8
328,96,69354,1,0
256,192,69493,1,0
184,288,69631,1,0
72,320,69770,2,0,B|24:296|8:240,1,99.000002360344,8|0
48,136,70048,5,2
128,48,70187,1,0
248,44,70326,1,0
300,152,70465,1,0
212,232,70603,1,2
264,340,70742,1,0
384,336,70881,1,0
464,248,71020,1,2
80,320,72270,6,0,B|152:312|128:224|192:208,1,165,4|0
256,128,72686,1,0
320,208,72825,2,0,B|384:224|360:312|432:320,1,165
480,232,73242,1,0
408,168,73381,2,0,B|456:96,1,82.5
384,24,73659,1,0
128,24,73936,1,0
56,96,74075,1,0
112,176,74214,1,0
48,256,74353,1,0
88,344,74492,6,0,B|168:360,1,82.5
192,264,74770,1,0
424,40,75047,1,0
328,24,75186,1,0
320,120,75325,1,0
224,104,75464,1,0
168,184,75603,2,0,B|248:208|248:208|257:253|309:269,2,165
96,120,76297,1,0
112,24,76436,1,0
208,24,76575,1,0
304,48,76714,6,0,B|342:59|358:88|350:119|350:119|330:188,1,165,4|0
232,208,77131,1,0
304,280,77270,2,0,B|283:346|283:346|274:377|244:393|205:381,1,165
112,360,77686,1,0
32,304,77825,1,0
16,208,77964,1,0
40,112,78103,2,0,B|27:56|64:1|135:10,2,165
104,184,78797,1,0
152,96,78936,6,0,B|224:64|224:64|256:96|304:88,1,165
232,192,79353,1,0
152,288,79492,2,0,B|224:320|224:320|256:288|304:296,1,165
384,240,79909,1,0
424,152,80047,2,0,B|448:112|448:72,1,82.5
356,32,80325,1,0
156,32,80603,1,0
64,74,80742,2,0,B|64:112|88:152,1,82.5
128,240,81020,1,0
208,296,81159,6,0,B|275:318|343:296|366:228|343:160,1,247.5,4|0
224,176,81714,2,0,B|201:108|224:40|291:17|359:40,1,247.5
432,104,82270,1,0
472,192,82409,1,0
488,288,82547,2,0,B|504:336|504:376,2,82.5
256,192,83103,5,0
168,240,83242,1,0
96,312,83381,2,0,B|56:280|56:240,1,82.5
120,168,83659,1,0
208,120,83798,1,0
280,48,83936,2,0,B|320:80|320:120,1,82.5
344,216,84214,1,0
408,296,84353,1,0
472,216,84492,2,0,B|504:136|472:56,1,165
376,32,84909,1,0
280,48,85047,2,0,B|208:88,1,82.5
288,144,85325,2,0,B|216:184,1,82.5
272,272,85603,6,0,B|224:344|152:344|96:304,1,165
48,264,86020,1,0
16,168,86159,2,0,B|24:88|104:24|200:48,1,247.5
184,144,86714,1,0
280,120,86853,1,0
360,64,86992,2,0,B|448:56,2,82.5
168,216,87547,5,0
80,264,87686,1,0
128,352,87825,2,0,B|224:352|224:352|296:352|344:272,1,247.5
224,264,88381,2,0,B|272:183|344:183|344:183|440:183,1,247.5
416,304,88936,2,0,B|480:368,2,82.5
440,184,89353,2,0,B|392:112|304:72,1,165
224,40,89770,1,0
136,80,89909,1,0
104,176,90047,5,0
408,176,90464,1,0
256,352,90881,2,2,B|256:328|232:304|232:304|280:288|280:288|256:264|256:232,1,165,2|0
156,200,91297,1,0
356,200,91575,1,0
304,8,91853,2,2,B|304:16|304:16|304:56|256:88|208:56|208:16|208:16|208:8,1,165,2|0
112,16,92270,5,0
400,16,92686,1,0
328,200,92964,2,2,B|296:232|256:252|216:232|184:200,1,165,2|0
96,160,93381,2,0,B|64:240,1,82.5
120,320,93659,1,0
208,368,93797,1,0
304,368,93936,1,0
392,320,94074,1,0
446,236,94214,2,0,B|416:160,1,82.5
440,64,94492,5,0
256,296,94909,1,0
72,64,95325,1,0
208,208,95603,1,0
304,208,95742,1,0
256,16,96020,1,0
104,144,96297,1,0
104,240,96436,1,0
256,368,96714,5,0
336,184,96992,1,0
432,352,97270,1,0
512,168,97547,1,0
408,0,97825,2,0,B|240:16|240:16|168:168,1,330
384,152,98936,6,2,B|384:264|384:264|384:312|320:376|256:312|256:264|256:264|256:248,1,321.749994246662,4|10
256,128,99492,2,2,B|256:119|256:119|256:71|192:7|128:71|128:119|128:119|128:231,1,321.749994246662,0|10
192,344,100047,1,8
64,344,100186,1,0
32,112,100464,1,8
128,32,100603,1,0
256,0,100742,1,0
380,32,100881,1,8
480,112,101020,1,8
416,224,101159,6,2,B|409:310|310:384|211:310|205:224,1,321.749994246662,4|10
312,160,101714,2,2,B|305:73|206:0|107:73|101:160,1,321.749994246662,0|10
56,280,102270,1,0
456,280,102547,1,0
456,280,102686,1,8
56,280,102964,1,8
168,344,103103,1,0
296,320,103242,1,0
392,232,103381,6,2,B|344:147|256:192|256:192|168:237|120:152,1,321.749994246662,0|10
8,80,103936,2,2,B|32:24|88:-8|144:8|184:48,1,214.499996164441,0|2
304,96,104353,1,0
424,48,104492,1,8
472,168,104631,1,0
440,296,104770,1,0
320,344,104909,2,0,B|272:312|216:312,1,107.249998082221,8|0
96,280,105186,1,0
64,152,105325,1,8
160,72,105464,1,8
200,192,105603,6,0,B|216:256|272:272,1,107.249998082221
392,272,105881,1,8
440,152,106020,1,0
328,40,106159,2,0,B|296:88|224:80,1,107.249998082221
112,56,106436,1,8
24,152,106575,1,0
48,280,106714,5,4
48,280,106853,1,0
464,104,107270,1,4
464,104,107409,1,0
64,40,107825,6,0,B|24:88|64:136,1,107.249998082221,4|0
192,152,108103,1,8
320,152,108242,1,0
448,152,108381,2,0,B|488:200|448:248,1,107.249998082221,0|0
320,264,108659,1,8
192,264,108797,1,0
64,272,108936,2,0,B|24:320|64:368,1,107.249998082221,0|0
200,360,109214,2,0,B|312:360,1,107.249998082221,8|0
408,280,109492,1,0
256,72,109770,5,8
176,312,110047,2,0,B|216:208,1,107.249998082221
416,96,110325,2,0,B|296:144,1,107.249998082221,8|0
96,96,110603,2,0,B|216:144,1,107.249998082221,0|0
336,312,110881,2,0,B|296:208,1,107.249998082221,8|0
192,24,111159,1,0
320,24,111297,1,0
400,128,111436,1,8
112,128,111714,1,0
148,252,111853,1,0
256,320,111992,1,8
364,252,112131,1,0
456,176,112270,6,0,B|504:128|488:40|432:16|368:32,1,214.499996164441,4|8
256,120,112686,1,0
124,28,112825,2,0,B|80:16|24:40|8:128|56:176,1,214.499996164441,0|8
96,296,113242,1,0
224,312,113381,2,0,B|320:256,1,107.249998082221
400,88,113659,2,0,B|400:200,1,107.249998082221,8|0
224,144,113936,2,0,B|144:72,1,107.249998082221
16,72,114214,1,8
0,200,114353,1,0
32,328,114492,6,0,B|144:328|144:328|216:328|264:296,1,214.499996164441,0|8
360,256,114909,1,0
472,192,115047,1,0
40,192,115325,1,0
256,24,115603,1,4
256,24,115742,1,0
192,96,116714,5,4
256,192,116853,1,0
192,288,116992,2,0,B|136:368,2,99.000002360344,8|0|0
320,288,117409,2,0,B|376:368,2,99.000002360344,0|8|0
400,112,117825,2,2,B|466:148|466:236|400:272,1,198.000004720688,10|0
112,272,118242,2,2,B|46:236|46:148|112:112,1,198.000004720688,10|2
352,192,118659,1,8
256,240,118797,1,8
160,192,118936,5,6
120,40,119075,2,0,B|174:49|185:105,1,99.000002360344,0|10
448,48,119353,2,2,B|352:8|256:48,1,198.000004720688,10|0
440,216,119770,2,0,B|494:207|505:151,1,99.000002360344,10|0
360,216,120047,5,10
488,280,120186,1,0
432,144,120325,2,0,B|394:106|337:117,1,99.000002360344,2|10
192,120,120603,1,0
64,184,120742,2,0,B|96:232,2,49.500001180172,10|0|10
120,48,121020,2,0,B|162:-13|250:-4|279:64,1,198.000004720688,6|0
472,312,121436,6,0,B|444:355|384:344,1,99.000002360344,8|0
160,384,121714,2,0,B|168:328|224:312,1,99.000002360344
336,144,121992,2,0,B|356:192|336:240,1,99.000002360344,8|0
256,192,122270,1,10
256,96,122409,1,0
336,48,122547,1,8
416,96,122686,2,0,B|456:192|416:288,1,198.000004720688,10|0
176,144,123103,2,0,B|156:192|176:240,1,99.000002360344,8|0
256,192,123381,5,0
256,96,123520,1,0
176,48,123659,2,0,B|167:23|144:8,2,49.500001180172,8|0|0
96,192,123936,1,0
96,96,124075,1,0
176,48,124214,1,8
256,96,124353,2,0,B|216:192|296:192|256:288,2,198.000004720688,0|2|2
160,336,125047,1,0
256,384,125186,1,8
352,336,125325,2,8,B|440:264,1,99.000002360344,8|0
336,160,125603,6,0,B|376:128,7,49.500001180172,6|0|0|0|0|0|0|0
296,88,126159,6,0,B|320:40,7,49.500001180172,2|0|0|0|0|0|0|0
216,88,126714,6,0,B|192:40,7,49.500001180172,2|0|0|0|0|0|0|0
176,160,127270,6,0,B|124:118,5,66.0000015735627,2|0|0|0|0|0
256,192,127825,6,0,B|220:258|132:258|96:192,1,198.000004720688,0|10
256,16,128242,1,0
416,192,128381,2,0,B|389:239|334:242,1,99.000002360344,0|2
176,160,128659,1,8
336,160,128798,1,10
128,368,129075,5,2
152,288,129214,1,8
216,240,129353,1,2
296,240,129492,1,0
360,288,129631,2,0,B|317:321,2,49.500001180172,0|0|8
384,368,129909,1,8
460,336,130047,5,0
436,256,130186,1,0
380,192,130325,1,0
300,160,130464,1,0
212,160,130603,1,0
132,192,130742,1,0
76,256,130881,1,0
52,336,131020,1,0
0,272,131159,5,0
40,184,131297,1,0
112,112,131436,1,0
208,80,131575,1,0
304,80,131714,1,0
400,112,131853,1,0
472,184,131992,1,0
512,272,132130,1,0
256,56,139770,5,2
256,56,139909,1,2
64,208,140186,1,2
152,256,140325,1,2
176,352,140464,2,0,B|308:409|408:304,1,247.5,2|2
416,24,141159,6,2,B|296:24|304:144|136:176,1,321.749994246662,6|8
96,24,141714,2,2,B|216:24|208:144|376:176,1,321.749994246662,2|8
464,264,142270,1,0
360,344,142409,1,0
256,272,142547,1,8
152,344,142686,1,0
48,264,142825,1,8
176,40,143103,5,8
328,248,143381,1,0
416,152,143520,1,0
456,32,143659,1,8
184,248,143936,1,0
96,152,144075,1,0
56,32,144214,1,8
184,64,144353,1,0
312,32,144492,2,0,B|352:72|416:80,1,107.249998082221,8|0
488,184,144770,1,0
296,336,145047,1,0
168,312,145186,1,0
72,224,145325,1,8
32,104,145464,1,8
136,24,145603,6,0,B|264:24|352:128|360:216,1,321.749994246662,6|8
376,24,146159,2,0,B|248:24|160:128|152:216,1,321.749994246662,2|8
216,328,146714,1,0
344,352,146853,1,0
400,240,146992,1,8
368,120,147131,2,0,B|472:64,1,107.249998082221,0|8
144,40,147547,5,0
32,344,147825,1,0
480,344,148103,1,0
368,40,148381,1,0
256,344,148659,1,0
256,48,148936,5,4
256,48,149075,1,0
48,56,150047,6,0,B|8:168|104:232,1,198.000004720688,6|8
216,208,150464,1,0
256,320,150603,1,8
360,264,150742,2,0,B|392:360,2,99.000002360344,0|0|10
464,48,151297,1,0
392,144,151436,1,8
440,256,151575,1,0
360,344,151714,2,0,B|256:352,1,99.000002360344,10|0
192,256,151992,2,0,B|88:264,1,99.000002360344,8|0
24,168,152270,6,0,B|80:16|256:-44|432:16|488:168,1,594.000014162064,2|8
392,240,153242,2,0,B|384:184|328:144,1,99.000002360344,6|0
168,156,153520,2,0,B|128:184|120:240,1,99.000002360344,0|8
384,320,153797,2,0,B|448:320|464:264,1,99.000002360344,0|2
256,144,154075,2,0,B|256:248,1,99.000002360344,0|8
128,320,154353,1,8
40,240,154492,6,2,B|120:184|40:72|232:16,1,297.000007081032,6|10
472,240,155047,2,2,B|392:184|472:72|280:16,1,297.000007081032,2|10
184,120,155603,1,8
336,120,155742,1,0
224,312,156020,2,0,B|156:248|224:184|224:184|292:120|224:56,1,297.000007081032,10|0
112,16,156575,1,4
256,192,156714,12,4,157825
88,56,158381,6,0,B|192:144|280:112,1,198.000004720688,2|0
344,24,158797,2,0,B|448:80|488:240|408:320,1,297.000007081032,6|0
352,360,159353,1,0
264,280,159492,1,0
152,328,159631,1,0
64,248,159770,1,4
256,192,159909,12,4,163381
136,72,163659,5,0
376,72,163936,1,0
256,280,164214,1,0
256,280,164353,1,4
256,48,165047,5,2
256,48,165325,1,2
48,160,165603,6,0,B|64:272|160:320,1,198.000004720688,6|8
240,240,166020,1,0
304,344,166159,2,0,B|400:312,1,99.000002360344,2|0
456,208,166436,1,8
488,96,166575,1,10
192,48,166853,1,2
128,152,166992,2,0,B|88:208|96:264,1,99.000002360344,8|0
184,320,167270,1,8
296,280,167409,1,0
248,176,167547,1,8
368,152,167686,1,8
416,256,167825,6,0,B|520:200|464:88,1,198.000004720688,2|8
360,40,168242,1,0
264,112,168381,1,2
160,56,168520,1,0
72,136,168659,1,8
56,256,168797,1,2
344,328,169075,1,2
280,232,169214,1,8
392,200,169353,1,0
472,112,169492,2,0,B|400:40,1,99.000002360344,8|0
320,128,169770,2,0,B|208:128,1,99.000002360344,8|8
128,200,170047,6,0,B|104:280|168:344|248:352,1,198.000004720688,6|8
328,280,170464,1,0
448,284,170603,1,2
480,176,170742,1,0
392,104,170881,1,8
296,168,171020,1,10
32,32,171297,1,10
136,88,171436,1,0
48,168,171575,1,0
24,288,171714,2,0,B|120:256,1,99.000002360344,8|0
208,336,171992,2,0,B|304:304,1,99.000002360344,8|8
384,216,172270,6,0,B|384:168|384:168|384:128|352:96|312:96|312:96|256:96,1,198.000004720688,2|8
224,200,172686,1,0
120,256,172825,2,0,B|80:256|80:256|48:256|16:224,1,99.000002360344,2|0
8,112,173103,1,8
72,8,173242,1,2
368,16,173520,1,2
440,112,173659,1,8
352,192,173797,1,0
240,160,173936,2,0,B|216:216|264:280,1,99.000002360344,8|0
360,288,174214,2,0,B|336:352|264:368,1,99.000002360344,8|8
176,344,174492,6,0,B|96:352|48:288|80:216,1,198.000004720688,6|8
104,112,174909,1,0
192,32,175047,1,2
280,112,175186,1,0
192,192,175325,1,8
280,272,175464,1,10
456,32,175742,1,2
368,112,175881,1,8
456,192,176020,1,0
456,312,176159,2,0,B|352:312,1,99.000002360344,8|0
256,248,176436,2,0,B|152:248,1,99.000002360344,8|8
56,176,176714,6,0,B|104:80|224:64,1,198.000004720688,2|8
256,176,177131,1,0
360,240,177270,1,2
440,152,177409,1,0
368,56,177547,1,8
256,16,177686,1,2
40,224,177964,1,2
144,288,178103,1,8
232,208,178242,1,0
172,104,178381,1,8
256,16,178520,1,0
368,56,178659,2,0,B|456:104,1,99.000002360344,8|8
472,224,178936,6,0,B|360:208|320:328,1,198.000004720688,2|8
208,352,179353,1,0
112,288,179492,2,0,B|24:352,2,99.000002360344,2|0|8
208,216,179909,1,10
456,56,180186,1,2
432,176,180325,1,8
328,240,180464,1,0
288,128,180603,2,0,B|168:144,1,99.000002360344,8|0
200,24,180881,2,0,B|80:40,1,99.000002360344,8|8
24,128,181159,5,2
40,248,181297,1,0
136,320,181436,1,0
232,248,181575,1,0
280,136,181714,1,2
376,64,181853,1,0
472,136,181992,1,0
488,256,182131,1,6
256,192,182270,12,4,184492
256,192,184770,5,4
