osu file format v9

[General]
AudioFilename: yurufuwa.mp3
AudioLeadIn: 1235
PreviewTime: 98867
Countdown: 0
SampleSet: Soft
StackLeniency: 0.7
Mode: 0
LetterboxInBreaks: 0

[Editor]
Bookmarks: 57547,116714,132270
DistanceSpacing: 1.2
BeatDivisor: 4
GridSize: 8

[Metadata]
Title:Yuru Fuwa Jukai Girl
Artist:Lon
Creator:Garven
Version:Easy
Source:
Tags:Dangaard Hatsune Miku Thite Star_Stream Mystica IshiburoP Tasha

[Difficulty]
HPDrainRate:2
CircleSize:3
OverallDifficulty:3
ApproachRate:3
SliderMultiplier:0.8
SliderTickRate:2

[Events]
//Background and Video events
Video,-9,"bideo2.avi"
0,0,"26180618.jpg"
//Break Periods
2,68025,70830
2,132270,139719
//Storyboard Layer 0 (Background)
//Storyboard Layer 1 (Fail)
//Storyboard Layer 2 (Pass)
//Storyboard Layer 3 (Foreground)
Sprite,Foreground,Centre,"dosido1.png",99,555 M,0,116575,116714,99,550,99,325 S,0,116575,132270,0.4 F,0,116991,,1,0
Animation,Foreground,Centre,"dosido.png",320,240,2,555,LoopForever M,0,116992,130047,99,325 S,0,116992,130047,0.4 F,0,130046,,1,0
Animation,Foreground,Centre,"dosido.png",320,240,2,277.5,LoopForever M,0,130047,132235,99,325 S,0,130047,132235,0.4 F,0,132131,132235,1,0
//Storyboard Sound Samples
//Background Colour Transformations
3,100,163,162,255

[TimingPoints]
1159,277.777777777778,4,2,1,100,1,0
1159,-111.111111111111,4,2,1,100,0,0
2200,-111.111111111111,4,2,1,5,0,0
2339,-111.111111111111,4,2,1,100,0,0
2478,-111.111111111111,4,2,1,5,0,0
2617,-111.111111111111,4,2,1,100,0,0
4422,-111.111111111111,4,2,1,5,0,0
4561,-111.111111111111,4,2,1,100,0,0
6645,-111.111111111111,4,2,1,5,0,0
6784,-111.111111111111,4,2,1,100,0,0
6922,-111.111111111111,4,2,1,5,0,0
7061,-111.111111111111,4,2,1,100,0,0
8172,-111.111111111111,4,2,1,5,0,0
8450,-111.111111111111,4,2,1,100,0,0
8589,-111.111111111111,4,2,1,5,0,0
8728,-111.111111111111,4,2,1,100,0,0
10047,-100,4,1,1,85,0,0
18936,-111.111111111111,4,2,1,75,0,0
27825,-100,4,1,1,85,0,0
36784,-100,4,1,1,5,0,0
37061,-100,4,1,1,85,0,0
37339,-100,4,1,1,5,0,0
37478,-100,4,1,1,85,0,0
37617,-100,4,1,1,5,0,0
37756,-100,4,1,1,85,0,0
39006,-100,4,1,1,5,0,0
39284,-100,4,1,1,85,0,0
39839,-100,4,1,1,5,0,0
39978,-100,4,1,1,85,0,0
44561,-100,4,1,1,5,0,0
45047,-100,4,1,1,65,0,0
45603,-90.9090909090909,4,1,1,85,0,1
62270,-100,4,1,1,85,0,0
71992,-100,4,1,1,85,0,0
90117,-100,4,1,1,5,0,0
90395,-100,4,1,1,85,0,0
90742,-100,4,1,1,5,0,0
90811,-100,4,1,1,85,0,0
90950,-100,4,1,1,5,0,0
91089,-100,4,1,1,85,0,0
92339,-100,4,1,1,5,0,0
92617,-100,4,1,1,85,0,0
93172,-100,4,1,1,5,0,0
93311,-100,4,1,1,85,0,0
97895,-100,4,1,1,5,0,0
98381,-100,4,1,1,65,0,0
98936,-90.9090909090909,4,1,1,85,0,1
115603,-100,4,1,1,85,0,0
116714,-100,4,1,1,85,0,1
131159,-100,4,1,1,85,0,1
132270,-100,4,1,1,65,0,0
141159,-90.9090909090909,4,1,1,85,0,1
148936,-100,4,1,1,85,0,0
150047,-100,4,1,1,85,0,1
152270,-83.3333333333333,4,1,1,85,0,1
153936,-100,4,1,1,85,0,1
164492,-100,4,2,1,85,0,0
165603,-100,4,1,1,85,0,1
184422,-100,4,1,1,85,0,0
184492,-100,4,1,1,85,0,1
184561,-100,4,1,1,85,0,0

[Colours]
Combo1 : 250,240,0
Combo2 : 230,0,140
Combo3 : 0,192,240
Combo4 : 255,95,0

[HitObjects]
128,80,1159,5,0
376,32,2131,2,0,B|408:56|424:92|408:128|376:152,1,143.999993133545
128,200,3659,5,0
296,288,4353,2,0,B|456:288,1,143.999993133545
472,110,5603,5,0
224,176,6575,2,0,B|152:176|152:176|132:216|72:216,1,143.999993133545
280,32,8103,6,0,B|320:56|320:56|320:160|392:188,1,179.999991416932
120,312,10047,6,0,B|64:272|33:192|64:112|120:72,1,280,4|0
208,296,11714,1,0
296,336,11992,1,8
392,312,12270,6,0,B|448:272|479:192|448:112|392:72,1,280,0|0
216,240,13936,1,8
128,200,14214,1,8
56,144,14492,6,0,B|91:66|165:46|239:66|274:144,1,280,4|0
472,280,16159,1,0
392,336,16436,1,8
296,352,16714,6,0,B|200:376|136:328|136:328|168:264|152:216,1,280,4|0
432,64,18936,6,0,B|432:120|432:120|432:168|384:200,1,143.999993133545
216,192,20047,1,0
160,256,20325,1,2
216,320,20603,1,2
384,344,21159,5,0
504,224,21714,2,0,B|504:152|432:104,1,143.999993133545,2|0
360,64,22547,1,2
280,40,22825,1,0
136,128,23381,6,0,B|160:168|208:168|208:168|272:168,1,143.999993133545,2|0
420,244,24492,2,0,B|396:284|348:284|348:284|284:284,1,143.999993133545,0|0
216,328,25325,1,0
136,312,25603,6,0,B|80:240,1,71.9999965667726,2|0
176,224,26159,2,0,B|120:152,1,71.9999965667726,0|2
208,128,26714,1,2
448,336,27825,6,0,B|280:336,1,160,4|0
64,256,28936,2,0,B|152:256|152:256|200:256|248:208,1,160
304,184,29770,1,0
400,184,30047,6,0,B|440:136|400:64|328:80,1,160
168,176,31159,2,0,B|136:200|72:200,2,80
336,80,32270,6,0,B|393:124|393:182|393:182|393:220,1,160
226,318,33381,2,0,B|168:273|168:215|168:215|168:177,1,160
32,40,34492,5,0
32,232,35047,1,0
184,352,35603,1,0
424,48,36714,6,0,B|424:208,2,160
88,336,38936,2,0,B|88:176,2,160
400,48,41159,5,4
112,336,42270,1,0
48,48,43381,5,4
236,88,43936,1,4
424,120,44492,2,0,B|471:191|448:274,1,160
240,312,45603,6,2,B|144:296|96:208,1,175.999994754791,6|2
240,56,46714,2,0,B|310:33|384:56,2,131.999996066094,0|8|0
136,80,47825,6,2,B|48:136|64:232,1,175.999994754791,2|2
232,360,48936,2,0,B|368:360,2,131.999996066094,0|8|0
136,320,50047,6,2,B|64:240|96:152,1,175.999994754791,6|2
280,56,51159,2,0,B|352:24|424:24,2,131.999996066094,0|8|0
184,104,52270,6,2,B|163:192|144:240|224:288,1,175.999994754791,2|0
400,336,53381,1,4
400,336,53936,1,0
200,264,54492,6,0,B|152:312|88:312|88:312|24:312,1,175.999994754791,4|0
32,104,55603,2,0,B|83:33|83:33|134:52|172:33,1,175.999994754791
272,24,56436,1,8
376,56,56714,6,0,B|382:100|420:132|420:132|382:158|376:203,1,175.999994754791
224,344,57825,1,0
112,344,58103,1,8
16,288,58381,1,8
136,120,58936,6,0,B|166:30|272:30,1,175.999994754791,4|0
272,240,60047,2,0,B|360:208|360:102,1,175.999994754791,0|8
160,40,61159,5,0
16,192,61714,1,0
54,290,61992,1,0
120,360,62270,1,0
480,192,63381,5,4
256,192,63659,12,4,67825
72,240,72270,6,0,B|72:297|72:297|72:336|97:361|136:361,1,160,4|0
328,368,73381,1,0
420,328,73659,1,0
480,248,73936,1,0
356,104,74492,5,0
156,104,75047,1,0
256,268,75603,2,0,B|256:356,2,80
255,71,76714,6,0,B|242:29|204:3|157:5|126:31,1,160,4|0
144,224,77825,2,0,B|110:312,2,80
256,71,78936,6,0,B|269:29|307:3|354:5|385:31,1,160,0|0
480,200,80047,1,0
432,288,80325,1,0
344,336,80603,1,0
152,304,81159,5,4
41,147,81714,2,0,B|66:191|117:191|117:191|188:191,1,160
280,191,82547,1,0
376,191,82825,1,0
280,24,83381,5,0
185,191,83936,1,0
280,360,84492,2,0,B|360:360,2,80,0|0|0
96,312,85603,5,0
16,136,86159,2,0,B|88:136|88:136|128:136|176:104,1,160
256,64,86992,1,0
352,64,87270,1,0
333,255,87825,6,0,B|256:293|179:255,2,160
144,48,90047,6,0,B|72:120|72:192,2,160
368,336,92270,2,0,B|440:264|440:192,2,160
64,72,94492,5,4
448,72,95603,1,0
56,16,96714,5,4
240,64,97270,1,4
416,128,97825,2,0,B|467:147|467:192|467:192|467:268,1,160,4|0
256,296,98936,6,2,B|211:302|172:328|172:328|128:328|89:296,1,175.999994754791,6|2
96,88,100047,2,0,B|153:62|153:62|192:75|224:62,2,131.999996066094,0|8|0
64,192,101159,6,2,B|121:211|192:166|256:185,1,175.999994754791,6|2
448,200,102270,2,0,B|454:276|390:308,2,131.999996066094,0|8|0
376,120,103381,6,2,B|324:88|260:75|203:88,1,175.999994754791,6|2
48,224,104492,2,0,B|55:299|124:319,2,131.999996066094,0|8|0
48,120,105603,6,2,B|48:56|104:16|171:25,1,175.999994754791,2|0
376,72,106714,1,4
376,72,107270,1,0
352,280,107825,6,0,B|307:312|268:312|268:312|179:312,1,175.999994754791,4|0
32,168,108936,2,0,B|76:136|115:136|115:136|204:136,1,175.999994754791,0|0
304,136,109770,1,8
384,64,110047,6,0,B|419:83|444:137|419:192|384:211,1,175.999994754791
176,240,111159,1,0
96,312,111436,1,8
16,240,111714,1,8
104,48,112270,6,0,B|148:15|187:48|225:80|270:48,1,175.999994754791,4|0
432,184,113381,1,0
336,224,113659,1,0
240,184,113936,1,8
32,192,114492,6,0,B|12:256|57:313|121:313,1,175.999994754791
224,312,115325,1,0
320,312,115603,1,0
147,41,116714,6,0,B|191:85|255:95|319:85|364:41,1,240,4|8
352,232,118103,1,8
160,232,118659,1,8
105,310,118936,6,0,B|156:354|213:310,2,120,0|2|8
64,224,120047,2,0,B|70:160|112:104|180:94|239:118,1,240,0|8
336,136,121159,5,4
432,304,121714,1,8
240,280,122270,2,0,B|124:331,2,120,0|8|0
320,232,123381,6,0,B|369:199|368:132|312:88,1,160,0|8
192,232,124492,2,0,B|142:199|143:132|200:88,1,160,0|8
256,176,125325,1,8
256,280,125603,6,0,B|236:350|160:356|128:331,2,160,4|8|0
256,88,127270,1,8
447,88,127825,6,0,B|528:184|496:352|341:347,1,360,0|2
256,304,129353,1,2
358,87,130047,6,0,B|313:33|256:14|198:33|153:87,1,240
152,192,131159,2,0,B|197:246|255:265|312:246|357:192,1,240
344,64,141159,6,0,B|396:141|396:141|376:167|383:237,1,175.999994754791,4|0
192,312,142270,1,0
104,248,142547,1,0
72,152,142825,1,8
280,120,143381,6,0,B|280:216|376:254,1,175.999994754791,0|0
440,48,144492,1,0
336,24,144770,1,8
232,24,145047,1,8
104,192,145603,6,0,B|155:186|187:218|187:218|175:263|194:307,1,175.999994754791,4|0
400,288,146714,1,0
464,200,146992,1,0
424,104,147270,1,8
256,216,147825,6,0,B|166:216,1,87.9999973773957
120,120,148381,2,0,B|210:120,1,87.9999973773957
256,40,148936,1,2
396,329,150047,6,0,B|256:329|115:329,2,280,0|0|2
424,240,152270,6,0,B|448:102|256:-93|64:102|88:240,1,576.00001373291,2|0
256,328,154492,6,0,B|256:168,1,160,6|0
104,48,155603,2,0,B|59:105|72:169,1,120,2|8
256,312,156714,6,0,B|378:274|422:191|381:56,1,320,0|0
192,64,158381,2,0,B|211:128|189:169|128:188,1,160,0|4
256,192,159214,12,4,163381
256,307,164353,5,4
256,64,165047,2,0,B|256:154,1,80,2|2
312,224,165603,6,0,B|427:288|512:176|424:88,1,280,4|0
184,88,167270,1,0
112,144,167547,1,8
48,216,167825,6,0,B|-16:332|99:402|195:344,1,280,0|0
256,112,169492,1,8
352,112,169769,1,8
416,40,170047,6,0,B|496:128|416:248|304:200,1,280,4|0
104,72,171714,1,0
104,168,171992,1,8
13,136,172270,6,0,B|-10:252|120:314|191:215,1,280,0|0
368,56,173936,1,8
424,136,174214,1,8
360,208,174492,6,0,B|341:336|264:381|168:361,1,280,4|0
0,192,176159,1,0
96,192,176436,1,8
144,104,176714,6,0,B|176:40|256:-1|336:40|368:104,1,280,0|0
304,336,178381,1,8
208,336,178658,1,8
144,264,178936,6,0,B|144:104|144:104|208:96|253:60,1,280,4|0
480,152,180603,1,0
480,248,180881,1,8
416,320,181159,6,0,B|339:301|256:326|256:326|211:275|218:205,1,280,0|4
256,192,182270,12,4,184492
