osu file format v12

[General]
AudioFilename: Lon - Tomur.mp3
AudioLeadIn: 2000
PreviewTime: 56573
Countdown: 0
SampleSet: Soft
StackLeniency: 0.9
Mode: 0
LetterboxInBreaks: 0
WidescreenStoryboard: 0

[Editor]
Bookmarks: 11515,34103,56691,96220
DistanceSpacing: 0.3
BeatDivisor: 3
GridSize: 4

[Metadata]
Title:Tomur
TitleUnicode:
Artist:Lon
ArtistUnicode:
Creator:Fuuko
Version:Hard
Source:newP
Tags:Hatsune Miku VOCALOID Cover
BeatmapID:162218
BeatmapSetID:53175

[Difficulty]
HPDrainRate:5
CircleSize:3
OverallDifficulty:6
ApproachRate:8
SliderMultiplier:0.9
SliderTickRate:0.5

[Events]
//Background and Video events
0,0,"Background.png",0,0
//Break Periods
2,89362,95470
//Storyboard Layer 0 (Background)
//Storyboard Layer 1 (Fail)
//Storyboard Layer 2 (Pass)
//Storyboard Layer 3 (Foreground)
//Storyboard Sound Samples
//Background Colour Transformations
3,100,163,162,255

[TimingPoints]
221,352.941176470588,4,2,1,20,1,0
34103,-83.3333333333333,4,2,1,35,0,0
34691,-83.3333333333333,4,1,1,20,0,0
34926,-83.3333333333333,4,2,1,35,0,0
36103,-83.3333333333333,4,1,1,20,0,0
36338,-83.3333333333333,4,2,1,35,0,0
37515,-83.3333333333333,4,1,1,20,0,0
37750,-83.3333333333333,4,2,1,35,0,0
38926,-83.3333333333333,4,2,1,35,0,0
39162,-83.3333333333333,4,2,1,35,0,0
56691,-76.9230769230769,4,2,1,50,0,1
89162,-83.3333333333333,4,2,1,50,0,0

[HitObjects]
400,248,221,2,0,B|380:204|396:132,1,90,2|0,0:0|0:0,0:0:0:0:
440,68,809,1,2,0:0:0:0:
440,68,926,1,0,0:0:0:0:
316,120,1279,6,0,B|280:204|328:312,1,180,0|2,0:0|0:0,0:0:0:0:
436,356,2338,1,0,0:0:0:0:
484,272,2573,1,2,0:0:0:0:
484,272,2691,1,0,0:0:0:0:
428,156,3044,6,0,B|420:112|440:68,1,90,2|0,0:0|0:0,0:0:0:0:
428,156,3632,1,2,0:0:0:0:
428,156,3750,1,0,0:0:0:0:
328,92,4103,2,0,B|228:60|136:64,1,180,0|2,0:0|0:0,0:0:0:0:
52,136,5162,2,0,B|24:92|24:64,1,60,0|2,0:0|0:0,0:0:0:0:
20,60,5515,1,0,0:0:0:0:
20,228,5868,6,0,B|8:272|16:324,1,90,0|0,0:0|0:0,0:0:0:0:
100,356,6456,1,2,0:0:0:0:
100,356,6573,1,0,0:0:0:0:
164,228,6926,2,0,B|228:204|232:124|288:84,1,180,0|2,0:0|0:0,0:0:0:0:
388,48,7985,2,0,B|464:40,1,60,0|2,0:0|0:0,0:0:0:0:
472,52,8338,1,0,0:0:0:0:
404,192,8691,6,0,B|392:244|408:300,1,90,0|0,0:0|0:0,0:0:0:0:
488,240,9279,1,2,0:0:0:0:
488,240,9397,1,0,0:0:0:0:
312,284,9750,2,0,B|208:296|132:332,1,180,0|2,0:0|0:0,0:0:0:0:
8,292,10809,1,0,0:0:0:0:
40,200,11044,1,2,0:0:0:0:
40,200,11162,2,0,B|44:108,1,90,0|0,0:0|0:0,0:0:0:0:
168,140,11868,5,0,0:0:0:0:
284,168,12220,1,0,0:0:0:0:
392,124,12573,2,0,B|420:96|468:72,1,90,2|0,0:0|0:0,0:0:0:0:
476,244,13279,6,0,B|481:295|468:333,1,90,2|0,0:0|0:0,0:0:0:0:
360,320,13868,1,2,0:0:0:0:
360,320,13985,2,0,B|354:268|367:230,1,90,0|0,0:0|0:0,0:0:0:0:
392,124,14691,6,0,B|396:72|380:32,1,90,0|0,0:0|0:0,0:0:0:0:
280,108,15397,2,0,B|252:168|248:232|200:272,1,180,0|2,0:0|0:0,0:0:0:0:
104,356,16456,1,0,0:0:0:0:
16,320,16691,1,2,0:0:0:0:
16,320,16809,1,0,0:0:0:0:
107,225,17162,6,0,B|115:177|104:136,2,90,2|0|0,0:0|0:0|0:0,0:0:0:0:
192,284,18220,2,0,B|220:216|191:99,1,180,2|2,0:0|0:0,0:0:0:0:
308,68,19279,2,0,B|384:32,1,60,0|2,0:0|0:0,0:0:0:0:
384,28,19632,1,0,0:0:0:0:
472,108,19985,6,0,B|480:156|472:212,1,90,0|0,0:0|0:0,0:0:0:0:
380,296,20691,2,0,B|372:248|380:192,1,90,0|2,0:0|0:0,0:0:0:0:
184,72,21750,2,0,B|96:52,1,90,2|0,0:0|0:0,0:0:0:0:
16,112,22338,1,2,0:0:0:0:
16,112,22456,1,0,0:0:0:0:
36,248,22809,6,0,B|24:300|32:348,2,90,0|0|0,0:0|0:0|0:0,0:0:0:0:
124,172,23868,2,0,B|200:132|300:128,1,180,2|2,0:0|0:0,0:0:0:0:
297,128,24926,1,0,0:0:0:0:
376,200,25162,1,2,0:0:0:0:
376,200,25279,2,0,B|372:316,1,90,0|2,0:0|0:0,0:0:0:0:
216,344,25985,6,0,B|305:347,1,90,0|0,0:0|0:0,0:0:0:0:
412,296,26691,2,0,B|440:204|416:112,1,180,0|2,0:0|0:0,0:0:0:0:
417,118,27750,1,0,0:0:0:0:
320,160,27985,1,2,0:0:0:0:
320,160,28103,2,0,B|312:208|320:264,1,90,0|0,0:0|0:0,0:0:0:0:
412,296,28809,1,0,0:0:0:0:
472,200,29162,5,2,0:0:0:0:
417,118,29397,1,0,0:0:0:0:
417,118,29515,2,0,B|432:20,1,90,2|0,0:0|0:0,0:0:0:0:
320,160,30220,5,2,0:0:0:0:
236,120,30456,1,0,0:0:0:0:
236,120,30573,1,0,0:0:0:0:
152,80,30809,1,2,0:0:0:0:
152,80,30926,1,0,0:0:0:0:
40,152,31279,6,0,B|32:200|39:240,2,90,2|0|0,0:0|0:0|0:0,0:0:0:0:
40,152,32338,1,2,0:0:0:0:
94,356,33044,2,0,B|184:344,1,90,2|2,0:0|0:0,0:0:0:0:
184,344,33632,2,0,B|180:224,1,120,2|4,0:0|0:0,0:0:0:0:
304,328,34456,5,0,0:0:0:0:
304,328,34809,1,0,0:0:0:0:
372,220,35162,2,0,B|388:152|380:84,1,108.000002574921
348,28,35750,1,0,0:0:0:0:
348,28,35868,1,0,0:0:0:0:
252,132,36220,2,0,B|152:132,1,72.0000017166138
84,32,36809,5,0,0:0:0:0:
84,32,36926,2,0,B|80:88|84:172,1,108.000002574921
4,280,37632,2,0,B|8:224|1:172,1,108.000002574921
28,296,38338,6,0,B|160:296,1,108.000002574921,0|2,0:0|0:0,0:0:0:0:
224,364,39044,2,0,B|308:364,1,72.0000017166138,0|0,0:0|0:0,0:0:0:0:
256,256,39632,1,0,0:0:0:0:
256,256,39750,1,0,0:0:0:0:
196,152,40103,6,0,B|204:40,1,108.000002574921
328,52,40809,2,0,B|320:159,1,108.000002574921
256,256,41515,1,0,0:0:0:0:
324,348,41868,2,0,B|412:348,1,72.0000017166138
476,260,42456,1,0,0:0:0:0:
476,260,42573,6,0,B|488:124,1,108.000002574921
384,256,43279,2,0,B|372:120,1,108.000002574921
432,40,43985,1,0,0:0:0:0:
432,40,44338,1,0,0:0:0:0:
304,72,44691,2,0,B|232:72,1,71.9999978027344
96,32,45279,1,0,0:0:0:0:
96,32,45397,1,0,0:0:0:0:
64,152,45750,1,0,0:0:0:0:
160,224,46103,6,0,B|136:276|160:340,1,108.000002574921
256,375,46809,2,0,B|304:348|309:221|256:180,1,216.000005149841
163,118,47868,2,0,B|140:168|160:224,2,107.999996704102
232,40,48809,1,0,0:0:0:0:
232,40,48926,1,0,0:0:0:0:
349,118,49279,6,0,B|373:170|352:224,1,108.000002574921
284,292,49868,1,0,0:0:0:0:
284,292,49985,1,0,0:0:0:0:
256,172,50338,1,0,0:0:0:0:
256,192,50691,12,0,53162,0:0:0:0:
196,304,53515,5,0,0:0:0:0:
144,132,53868,1,0,0:0:0:0:
316,80,54220,1,0,0:0:0:0:
368,252,54573,1,0,0:0:0:0:
256,192,54926,1,0,0:0:0:0:
256,192,56691,6,0,B|256:320,1,116.999997907877,4|0,0:0|0:0,0:0:0:0:
160,236,57279,1,0,0:0:0:0:
160,236,57397,2,0,B|160:88,1,116.999997907877
112,36,57985,5,0,0:0:0:0:
112,36,58103,1,0,0:0:0:0:
8,132,58456,2,0,B|8:268,1,116.999997907877
84,376,59162,2,0,B|152:336,1,77.9999986052513
172,351,59515,6,0,B|148:287|176:227,1,116.999997907877
308,236,60220,2,0,B|332:287|308:351,1,116.999997907877
172,351,60926,2,0,B|148:287|176:227,1,116.999997907877
308,236,61632,2,0,B|332:287|308:351,2,116.999997907877
308,235,62691,5,0,0:0:0:0:
256,139,63044,1,0,0:0:0:0:
204,43,63397,1,0,0:0:0:0:
204,44,63632,6,0,L|248:24,1,38.9999982147218
344,84,64103,2,0,L|464:36,1,116.999994644165
480,168,64809,2,0,B|479:245,1,77.9999964294435
456,256,65162,6,0,B|451:298|468:328|448:376,1,116.999994644165
348,256,65868,2,0,B|343:298|360:328|340:376,1,116.999994644165,0|0,0:0|0:0,0:0:0:0:
240,256,66573,2,0,B|235:298|252:328|232:376,1,116.999994644165
132,256,67279,2,0,B|127:298|144:328|124:376,2,116.999994644165,0|0|4,0:0|0:0|0:0,0:0:0:0:
28,316,68338,6,0,P|16:254|28:200,1,116.999994644165,0|0,0:0|0:0,0:0:0:0:
60,60,69044,1,0,0:0:0:0:
136,120,69279,1,0,0:0:0:0:
136,120,69397,2,0,B|172:64|136:-4,2,116.999994644165
184,328,70809,6,0,B|300:360,1,116.999994644165
296,248,71515,2,0,B|416:248,1,116.999994644165
320,144,72220,2,0,B|424:76,1,116.999994644165
236,112,72926,2,0,B|232:-8,2,116.999994644165,0|0|0,0:0|0:0|0:0,0:0:0:0:
108,192,73985,5,0,0:0:0:0:
108,320,74338,1,0,0:0:0:0:
108,192,74691,1,0,0:0:0:0:
184,252,74926,5,0,0:0:0:0:
184,252,75044,1,0,0:0:0:0:
448,124,76103,2,0,B|445:202,1,77.9999986052513
428,212,76456,6,0,B|372:180|288:192,1,116.999997907877
256,368,77162,2,0,B|269:308|253:252,1,116.999997907877
80,192,77868,2,0,B|139:205|195:189,1,116.999997907877
256,16,78573,2,0,B|242:75|258:131,1,116.999997907877
328,208,79162,1,0,0:0:0:0:
328,208,79279,6,0,B|340:272|320:344,1,116.999997907877,4|0,0:0|0:0,0:0:0:0:
204,224,79868,1,0,0:0:0:0:
204,224,79985,2,0,B|189:172|201:108,1,116.999997907877,0|0,0:0|0:0,0:0:0:0:
404,56,80573,1,0,0:0:0:0:
404,56,80690,2,0,B|416:120|396:192,1,116.999997907877
376,176,81162,1,0,0:0:0:0:
352,192,81279,1,0,0:0:0:0:
328,208,81397,2,0,B|300:268|328:320,1,116.999997907877
436,272,82103,5,4,0:0:0:0:
480,152,82456,1,0,0:0:0:0:
424,32,82809,2,0,B|296:32,1,116.999994644165
248,112,83397,5,0,0:0:0:0:
248,112,83515,1,4,0:0:0:0:
200,248,83868,2,0,B|220:316|192:384,1,116.999997907877,0|4,0:0|0:0,0:0:0:0:
256,192,84926,8,0,89162,0:0:0:0:
64,336,96220,6,0,B|57:279|49:228,1,107.999996704102,4|0,0:0|0:0,0:0:0:0:
64,336,96926,1,0,0:0:0:0:
172,280,97279,2,0,B|246:273|298:277,1,107.999996704102
376,304,97868,1,0,0:0:0:0:
376,304,97985,1,0,0:0:0:0:
320,196,98338,1,0,0:0:0:0:
428,112,98691,6,0,B|426:169|406:217,1,107.999996704102
428,112,99397,1,0,0:0:0:0:
316,196,99750,2,0,B|316:108|300:76,1,107.999996704102
