osu file format v9

[General]
AudioFilename: Sweet Magic.mp3
AudioLeadIn: 0
PreviewTime: 26509
Countdown: 0
SampleSet: Soft
StackLeniency: 0.7
Mode: 0
LetterboxInBreaks: 1

[Editor]
Bookmarks: 57509
DistanceSpacing: 1
BeatDivisor: 2
GridSize: 8

[Metadata]
Title:Sweet Magic
Artist:Lon
Creator:Hakurei Reimu
Version:Normal
Source:
Tags:Touhou nico MMD Alice Margatroid Kirisame Marisa

[Difficulty]
HPDrainRate:3
CircleSize:3
OverallDifficulty:2
ApproachRate:2
SliderMultiplier:1.2
SliderTickRate:2

[Events]
//Background and Video events
0,0,"bg.jpg"
Video,0,"SweetMagic.flv"
//Break Periods
2,92587,98876
//Storyboard Layer 0 (Background)
//Storyboard Layer 1 (Fail)
//Storyboard Layer 2 (Pass)
//Storyboard Layer 3 (Foreground)
//Storyboard Sound Samples
//Background Colour Transformations
3,100,163,162,255

[TimingPoints]
924,487.80487804878,4,2,0,100,1,0
2851,-100,4,1,0,38,0,0
77017,-100,4,2,0,100,0,1
92631,-100,4,2,0,100,0,0
116509,-100,4,2,0,100,0,0
155046,-100,4,2,0,100,0,1
180290,-100,4,2,0,100,0,0

[Colours]
Combo1 : 255,0,255
Combo2 : 255,128,0
Combo3 : 227,227,0
Combo4 : 255,0,0

[HitObjects]
72,296,10680,2,0,B|192:296,1,120
312,296,11655,1,0
424,264,12143,1,0
440,144,12631,2,0,B|384:88|320:72,1,120
224,80,13606,2,0,B|176:136,1,60
88,56,14338,1,0
72,152,15070,5,0
104,272,15558,1,0
216,320,16045,1,0
336,312,16533,2,0,B|408:296|456:248,1,120
448,136,17509,2,0,B|392:72|328:64,1,120
232,88,18484,1,0
112,88,18972,1,0
32,176,19460,2,0,B|48:248|104:296|224:296,1,240
336,272,20923,5,0
424,192,21411,2,0,B|448:136|416:64,1,120
256,192,22387,12,0,24826
64,48,26777,5,0
184,48,27265,2,0,B|320:48,1,120
416,88,28241,2,0,B|464:136|472:200|472:216,1,120
392,304,29216,1,0
272,304,29704,2,0,B|144:304,1,120
64,216,30680,6,0,B|32:152|88:96,1,120
136,80,31411,1,0
248,56,31899,1,0
312,56,32143,2,0,B|440:56,1,120
432,120,32875,2,0,B|432:200,3,60
432,304,34094,1,0
312,304,34582,1,0
192,304,35070,6,0,B|112:288|56:224|56:120,1,240
160,72,36533,1,0
272,32,37021,1,0
376,88,37509,2,0,B|448:128|456:192,1,120
368,256,38484,1,0
320,288,38728,1,0
264,304,38972,1,0
152,264,39460,6,0,B|72:240|56:168,1,120
88,72,40436,1,0
152,72,40680,1,0
208,72,40923,2,0,B|336:72,1,120
448,104,41899,5,0
416,224,42387,1,0
328,288,42875,2,0,B|192:288,1,120
96,240,43850,2,0,B|48:192,2,60
208,248,44826,2,0,B|336:248,1,120
384,224,45558,1,0
424,184,45802,1,0
408,64,46289,5,0
288,64,46777,2,0,B|160:64,1,120
104,64,47509,2,0,B|64:120|56:192|80:248,1,180
128,320,48728,1,0
248,320,49216,2,0,B|328:320,1,60
368,320,49704,1,0
416,208,50192,6,0,B|440:128|400:80,1,120
296,64,51167,1,0
176,56,51655,2,0,B|96:56|64:128|48:192|48:248,1,240
160,272,53119,2,0,B|296:320,1,120
360,232,54094,2,0,B|456:152,1,120
368,72,55070,2,0,B|240:48,1,120
128,64,56045,1,0
88,104,56289,1,0
72,160,56533,5,0
144,256,57021,1,0
200,280,57265,1,0
256,288,57509,2,0,B|384:288,1,120
448,184,58484,2,0,B|448:64,1,120
288,64,59460,2,0,B|40:64,1,240
48,184,60923,1,0
40,304,61411,6,0,B|424:304,1,360
400,184,63363,2,0,B|400:64,1,120
344,56,64094,1,0
288,56,64338,1,0
168,56,64826,1,0
48,64,65314,6,0,B|48:208,1,120
184,280,66289,2,0,B|368:280,1,180
416,256,67265,2,0,B|472:200,1,60
344,64,68241,2,0,B|248:160,1,120
176,64,69216,2,0,B|48:64,1,120
56,184,70192,2,0,B|192:184,1,120
240,184,71167,1,0
360,184,71655,6,0,B|360:104,1,60
240,184,72631,6,0,B|240:112,1,60
256,192,73119,12,0,76533
256,192,77021,5,0
336,280,77509,1,0
432,208,77997,2,0,B|424:136|360:88,1,120
264,64,78972,1,0
144,80,79460,1,0
48,152,79948,6,0,B|48:224|96:264,1,120
208,288,80923,1,0
328,288,81411,1,0
328,168,81899,2,0,B|192:168,1,120
88,168,82875,1,0
88,112,83119,1,0
256,56,83850,2,0,B|320:56|400:80|440:104|464:160,1,240
400,256,85314,1,0
280,256,85802,6,0,B|280:184|336:128,1,120
312,88,86533,1,0
256,56,86777,1,0
136,56,87265,1,0
56,144,87753,2,0,B|56:224|104:256|160:296|208:320,1,240
320,328,89216,1,0
400,240,89704,5,0
280,216,90192,1,0
160,208,90680,2,0,B|160:136,1,60
280,88,91655,2,0,B|352:88,1,60
400,88,92143,1,0
376,144,92387,1,0
256,192,100436,5,0
160,264,100923,1,0
272,304,101411,2,0,B|352:304|400:280|448:240,1,180
440,184,102387,2,0,B|440:48,2,120
440,304,103850,1,0
320,304,104338,2,0,B|184:304,2,120
440,304,105802,1,0
440,184,106289,2,0,B|440:64,1,120
320,64,107265,2,0,B|320:200,1,120
200,184,108241,5,0
200,64,108728,2,0,B|72:64,2,120
320,64,110192,1,0
320,184,110680,1,0
320,304,111167,2,0,B|248:304|200:240|208:168,1,180
256,192,112143,12,0,115558
88,80,116533,6,0,B|192:80,1,60
