osu file format v14

[General]
AudioFilename: fukkireta.mp3
AudioLeadIn: 0
PreviewTime: 5986
Countdown: 1
SampleSet: Soft
StackLeniency: 0.6
Mode: 0
LetterboxInBreaks: 1
WidescreenStoryboard: 1

[Editor]
Bookmarks: 22586,35386,48386
DistanceSpacing: 0.8
BeatDivisor: 2
GridSize: 8
TimelineZoom: 1

[Metadata]
Title:Ochame Kinou
TitleUnicode:おちゃめ機能
Artist:Lon
ArtistUnicode:Lon
Creator:nookls
Version:Normal
Source:
Tags:fukkireta mischievous function kasane teto itsudemo love you nico nico douga
BeatmapID:633951
BeatmapSetID:202435

[Difficulty]
HPDrainRate:3
CircleSize:3
OverallDifficulty:4
ApproachRate:5.5
SliderMultiplier:1.4
SliderTickRate:1

[Events]
//Background and Video events
0,0,"Teto007.jpg",0,0
//Break Periods
//Storyboard Layer 0 (Background)
//Storyboard Layer 1 (Fail)
//Storyboard Layer 2 (Pass)
//Storyboard Layer 3 (Foreground)
//Storyboard Sound Samples

[TimingPoints]
186,400,4,2,0,100,1,0
6586,-100,4,2,0,100,0,1
19386,-100,4,2,0,100,0,0
60986,-100,4,2,0,100,0,1
73786,-100,4,2,0,100,0,0

[Colours]
Combo1 : 255,128,255
Combo2 : 255,128,192
Combo3 : 255,0,128
Combo4 : 242,24,57

[HitObjects]
72,336,186,6,0,L|72:192,1,140,2|8,0:0|0:0,0:0:0:0:
160,208,886,2,0,L|224:240|280:216,1,105
264,312,1386,1,8,0:0:0:0:
440,344,1786,6,0,L|440:192,1,140,2|8,0:0|0:0,0:0:0:0:
432,120,2486,2,0,B|360:144|360:144|328:120,1,105
336,40,2986,1,8,0:0:0:0:
64,48,3386,6,0,L|64:192,1,140,2|8,0:0|0:0,0:0:0:0:
152,200,4086,2,0,B|224:176|224:176|256:200,1,105
248,280,4586,1,0,0:0:0:0:
248,192,4986,1,4,0:0:0:0:
64,168,5986,6,0,L|64:248,2,70
64,64,6586,2,0,L|216:64,1,140,4|8,0:0|0:0,0:0:0:0:
304,64,7386,1,2,0:0:0:0:
448,64,7786,1,8,0:0:0:0:
448,184,8186,6,0,L|304:184,1,140,4|8,0:0|0:0,0:0:0:0:
208,184,8986,1,2,0:0:0:0:
64,184,9386,1,8,0:0:0:0:
64,304,9786,6,0,L|208:304,1,140,4|8,0:0|0:0,0:0:0:0:
304,304,10586,1,2,0:0:0:0:
448,304,10986,1,8,0:0:0:0:
448,200,11386,1,2,0:0:0:0:
448,200,11786,2,0,L|448:56|312:56,1,280,8|8,0:0|0:0,0:0:0:0:
80,192,12986,6,0,B|80:104|80:104|136:64,1,140,4|8,0:0|0:0,0:0:0:0:
184,136,13786,1,2,0:0:0:0:
184,136,14186,1,8,0:0:0:0:
432,192,14586,6,0,B|432:96|432:96|376:56,1,140,4|8,0:0|0:0,0:0:0:0:
328,136,15386,1,2,0:0:0:0:
328,136,15786,1,8,0:0:0:0:
184,304,16186,6,0,L|384:304,2,140,4|8|2,0:0|0:0|0:0,0:0:0:0:
184,304,17386,1,8,0:0:0:0:
256,184,17786,1,4,0:0:0:0:
344,184,18186,2,0,P|256:96|168:192,1,280,8|8,0:0|0:0,0:0:0:0:
160,272,19386,6,0,L|136:352,2,70,2|0|8,0:0|0:0|0:0,0:0:0:0:
256,336,20186,2,0,L|256:256,2,70,2|0|8,0:0|0:0|0:0,0:0:0:0:
344,272,20986,2,0,L|392:376,2,70,2|0|8,0:0|0:0|0:0,0:0:0:0:
256,112,21786,1,2,0:0:0:0:
256,112,21986,2,0,L|256:208,1,70,0|8,0:0|0:0,0:0:0:0:
80,104,22586,6,0,L|240:104,1,140,0|8,0:0|0:0,0:0:0:0:
208,192,23186,1,0,0:0:0:0:
208,192,23386,2,0,L|400:192,1,140,0|8,0:0|0:0,0:0:0:0:
432,192,23986,1,0,0:0:0:0:
432,192,24186,2,0,L|432:40,2,140,0|8|0,0:0|0:0|0:0,0:0:0:0:
432,304,25786,6,0,L|232:304,1,140,0|8,0:0|0:0,0:0:0:0:
328,216,26386,1,0,0:0:0:0:
328,216,26586,2,0,L|160:216,1,140,0|8,0:0|0:0,0:0:0:0:
96,208,27186,1,0,0:0:0:0:
96,208,27386,2,0,L|96:56,2,140,0|8|0,0:0|0:0|0:0,0:0:0:0:
96,312,28986,5,2,0:0:0:0:
192,312,29386,1,8,0:0:0:0:
192,312,29586,1,0,0:0:0:0:
192,312,29786,2,0,L|384:312,2,140,0|8|0,0:0|0:0|0:0,0:0:0:0:
192,216,30986,2,0,L|192:64,1,140,8|0,0:0|0:0,0:0:0:0:
320,72,32186,6,0,L|320:224,1,140,2|8,0:0|0:0,0:0:0:0:
320,320,32986,2,0,L|152:320,1,140,0|8,0:0|0:0,0:0:0:0:
80,320,33586,1,0,0:0:0:0:
80,320,33786,2,0,L|80:176,1,140,2|8,0:0|0:0,0:0:0:0:
152,88,34586,2,0,L|56:88,2,70,2|0|8,0:0|0:0|0:0,0:0:0:0:
256,88,35386,6,0,L|416:88,1,140,2|8,0:0|0:0,0:0:0:0:
312,208,36186,2,0,L|136:208,1,140,0|8,0:0|0:0,0:0:0:0:
88,336,36786,1,0,0:0:0:0:
88,336,36986,2,0,L|184:336,1,70
240,336,37386,2,0,L|344:336,2,70,8|0|0,0:0|0:0|0:0,0:0:0:0:
400,336,38186,1,8,0:0:0:0:
456,168,38586,6,0,L|288:168,1,140,2|8,0:0|0:0,0:0:0:0:
192,168,39386,2,0,L|24:168,1,140,0|8,0:0|0:0,0:0:0:0:
64,64,39986,2,0,L|168:64,1,70
224,64,40386,2,0,L|304:64,1,70,0|8,0:0|0:0,0:0:0:0:
384,64,40786,2,0,L|456:64,1,70
456,240,41786,6,0,B|456:328|456:328|392:328,1,140,2|8,0:0|0:0,0:0:0:0:
312,328,42586,2,0,L|160:328,1,140,0|8,0:0|0:0,0:0:0:0:
80,328,43186,1,0,0:0:0:0:
80,328,43386,2,0,L|80:176,2,140,0|8|0,0:0|0:0|0:0,0:0:0:0:
80,96,44986,6,0,L|232:96,1,140,2|8,0:0|0:0,0:0:0:0:
192,192,45586,1,0,0:0:0:0:
192,192,45786,2,0,L|376:192,1,140,0|8,0:0|0:0,0:0:0:0:
416,288,46386,1,0,0:0:0:0:
416,288,46586,2,0,L|232:288,1,140,0|8,0:0|0:0,0:0:0:0:
88,272,47386,2,0,L|88:376,2,70,0|0|8,0:0|0:0|0:0,0:0:0:0:
96,152,48186,6,0,P|104:56|136:72,1,140,4|8,0:0|0:0,0:0:0:0:
192,56,48986,1,0,0:0:0:0:
192,152,49386,1,8,0:0:0:0:
320,56,49786,2,0,L|464:56,1,140,0|8,0:0|0:0,0:0:0:0:
320,152,50586,2,0,L|496:152,1,140,0|8,0:0|0:0,0:0:0:0:
464,304,51386,6,0,L|312:304,1,140,0|8,0:0|0:0,0:0:0:0:
240,304,52186,2,0,L|168:304,2,70,0|0|8,0:0|0:0|0:0,0:0:0:0:
80,304,52986,2,0,L|80:144,1,140,0|8,0:0|0:0,0:0:0:0:
224,160,53786,2,0,L|312:160,1,70,2|2,0:0|0:0,0:0:0:0:
432,160,54586,6,0,L|432:320,1,140,2|8,0:0|0:0,0:0:0:0:
320,296,55386,2,0,P|224:288|120:320,1,140,0|8,0:0|0:0,0:0:0:0:
72,296,56186,1,0,0:0:0:0:
72,168,56586,2,0,P|136:152|248:192,1,140,8|0,0:0|0:0,0:0:0:0:
328,160,57386,1,8,0:0:0:0:
328,160,57586,1,0,0:0:0:0:
328,160,57786,6,0,L|328:48,1,70
424,88,58186,1,8,0:0:0:0:
424,224,58586,2,0,L|424:312,1,70
336,296,58986,2,0,L|272:296,1,35,8|0,0:0|0:0,0:0:0:0:
168,328,59386,5,4,0:0:0:0:
168,328,59686,5,4,0:0:0:0:
168,328,59986,5,4,0:0:0:0:
64,168,60386,6,0,L|64:248,2,70
64,64,60986,2,0,L|216:64,1,140,4|8,0:0|0:0,0:0:0:0:
304,64,61786,1,2,0:0:0:0:
448,64,62186,1,8,0:0:0:0:
448,184,62586,6,0,L|304:184,1,140,4|8,0:0|0:0,0:0:0:0:
208,184,63386,1,2,0:0:0:0:
64,184,63786,1,8,0:0:0:0:
64,304,64186,6,0,L|208:304,1,140,4|8,0:0|0:0,0:0:0:0:
304,304,64986,1,2,0:0:0:0:
448,304,65386,1,8,0:0:0:0:
448,200,65786,1,2,0:0:0:0:
448,200,66186,2,0,L|448:56|312:56,1,280,8|8,0:0|0:0,0:0:0:0:
80,192,67386,6,0,B|80:104|80:104|136:64,1,140,4|8,0:0|0:0,0:0:0:0:
184,136,68186,1,2,0:0:0:0:
184,136,68586,1,8,0:0:0:0:
432,192,68986,6,0,B|432:96|432:96|376:56,1,140,4|8,0:0|0:0,0:0:0:0:
328,136,69786,1,2,0:0:0:0:
328,136,70186,1,8,0:0:0:0:
184,304,70586,6,0,L|384:304,2,140,4|8|2,0:0|0:0|0:0,0:0:0:0:
184,304,71786,1,8,0:0:0:0:
256,184,72186,1,4,0:0:0:0:
344,184,72586,2,0,P|256:96|168:192,1,280,8|8,0:0|0:0,0:0:0:0:
256,184,73786,1,4,0:0:0:0:
120,312,74386,5,0,0:0:0:0:
120,312,74586,2,0,L|264:312,1,140,0|8,0:0|0:0,0:0:0:0:
360,312,75386,2,0,L|432:176,1,140,0|8,0:0|0:0,0:0:0:0:
392,96,76186,2,0,L|224:96,1,140,0|8,0:0|0:0,0:0:0:0:
160,96,76786,1,4,0:0:0:0:
88,304,77986,5,0,0:0:0:0:
88,304,78186,2,0,L|248:304,1,140,8|0,0:0|0:0,0:0:0:0:
360,296,78986,2,0,P|368:192|408:144,1,140,8|0,0:0|0:0,0:0:0:0:
464,104,79786,2,0,P|352:80|280:104,1,140,8|0,0:0|0:0,0:0:0:0:
256,184,80586,6,0,L|80:232,1,140,8|0,0:0|0:0,0:0:0:0:
104,312,81186,1,0,0:0:0:0:
104,312,81386,2,0,L|272:312,2,140,8|0|8,0:0|0:0|0:0,0:0:0:0:
168,224,82586,1,0,0:0:0:0:
168,224,82986,1,8,0:0:0:0:
368,224,83386,1,0,0:0:0:0:
464,288,83786,2,0,P|456:192|280:144,1,280,8|8,0:0|0:0,0:0:0:0:
296,224,84786,5,0,0:0:0:0:
296,224,84986,2,0,L|152:224,1,140,0|8,0:0|0:0,0:0:0:0:
72,224,85786,2,0,L|72:136,2,70,0|0|8,0:0|0:0|0:0,0:0:0:0:
256,192,86586,12,4,89386,0:0:0:0:
