osu file format v14

[General]
AudioFilename: fukkireta.mp3
AudioLeadIn: 0
PreviewTime: 5986
Countdown: 1
SampleSet: None
StackLeniency: 0.6
Mode: 0
LetterboxInBreaks: 1
WidescreenStoryboard: 1

[Editor]
Bookmarks: 22586,35386,48386
DistanceSpacing: 0.8
BeatDivisor: 12
GridSize: 8
TimelineZoom: 1

[Metadata]
Title:Ochame Kinou
TitleUnicode:おちゃめ機能
Artist:Lon
ArtistUnicode:Lon
Creator:nookls
Version:New And Improved Mapping Style!!!
Source:
Tags:fukkireta mischievous function kasane teto itsudemo love you nico nico douga
BeatmapID:643987
BeatmapSetID:202435

[Difficulty]
HPDrainRate:6.7
CircleSize:4.2
OverallDifficulty:9
ApproachRate:9.3
SliderMultiplier:2.6
SliderTickRate:2

[Events]
//Background and Video events
0,0,"Teto007.jpg",0,0
//Break Periods
//Storyboard Layer 0 (Background)
//Storyboard Layer 1 (Fail)
//Storyboard Layer 2 (Pass)
//Storyboard Layer 3 (Foreground)
//Storyboard Sound Samples

[TimingPoints]
186,400,4,2,0,100,1,0
19386,-100,4,2,0,100,0,0
60986,-100,4,2,0,100,0,1
73786,-100,4,2,0,100,0,0

[Colours]
Combo1 : 255,128,255
Combo2 : 255,128,192
Combo3 : 255,0,128
Combo4 : 242,24,57

[HitObjects]
120,48,186,5,14,0:3:0:0:
208,184,286,1,14,0:3:0:0:
40,112,386,1,14,0:3:0:0:
208,80,486,1,14,0:3:0:0:
168,88,586,1,14,0:3:0:0:
224,56,686,1,14,0:3:0:0:
160,168,786,1,14,0:3:0:0:
248,304,886,1,14,0:3:0:0:
80,232,986,1,14,0:3:0:0:
248,200,1086,1,14,0:3:0:0:
120,48,1186,1,14,0:3:0:0:
208,184,1286,1,14,0:3:0:0:
40,112,1386,1,14,0:3:0:0:
208,80,1486,1,14,0:3:0:0:
80,208,1586,1,14,0:3:0:0:
320,80,1786,1,14,0:3:0:0:
408,264,1836,1,14,0:3:0:0:
216,160,1886,1,14,0:3:0:0:
448,120,1936,1,14,0:3:0:0:
272,272,1986,1,14,0:3:0:0:
320,80,2036,1,14,0:3:0:0:
408,264,2086,1,14,0:3:0:0:
160,240,2136,1,14,0:3:0:0:
448,120,2186,1,14,0:3:0:0:
272,272,2236,1,14,0:3:0:0:
176,80,2286,1,14,0:3:0:0:
264,264,2336,1,14,0:3:0:0:
72,160,2386,1,14,0:3:0:0:
304,120,2436,1,14,0:3:0:0:
128,272,2486,1,14,0:3:0:0:
256,192,2952,12,0,2985,0:0:0:0:
256,192,2985,8,0,3218,0:0:0:0:
256,192,3336,12,0,4236,0:0:0:0:
208,168,3618,5,8,0:0:0:0:
216,144,4986,6,0,B|488:160|208:24|208:24|248:136|-8:304|376:352,1,800
152,97,6418,2,0,B|184:304|152:80,3,216.666666666667
256,192,6818,8,8,7018,0:0:0:0:
256,192,7386,12,0,7419,0:0:0:0:
256,192,7419,8,0,7652,0:0:0:0:
224,120,7918,5,0,0:0:0:0:
160,56,7943,1,0,0:0:0:0:
96,136,7968,1,0,0:0:0:0:
120,96,8018,1,0,0:0:0:0:
80,184,8043,1,0,0:0:0:0:
304,168,8052,1,8,0:0:0:0:
72,224,8068,1,0,0:0:0:0:
80,288,8093,1,0,0:0:0:0:
104,320,8118,1,0,0:0:0:0:
128,344,8143,1,0,0:0:0:0:
168,360,8168,1,0,0:0:0:0:
224,360,8193,1,0,0:0:0:0:
288,352,8218,1,0,0:0:0:0:
384,344,8243,1,0,0:0:0:0:
400,280,8268,1,0,0:0:0:0:
400,168,8293,1,0,0:0:0:0:
384,96,8318,1,0,0:0:0:0:
336,168,8343,1,0,0:0:0:0:
272,256,8368,1,0,0:0:0:0:
224,280,8393,1,0,0:0:0:0:
152,280,8418,1,0,0:0:0:0:
128,240,8443,1,0,0:0:0:0:
136,200,8468,1,0,0:0:0:0:
168,96,8493,1,0,0:0:0:0:
288,96,8518,1,0,0:0:0:0:
384,88,8543,1,0,0:0:0:0:
416,128,8593,5,0,0:0:0:0:
272,296,8618,5,0,0:0:0:0:
328,288,8643,1,0,0:0:0:0:
112,216,8668,1,0,0:0:0:0:
112,128,8693,1,0,0:0:0:0:
120,96,8718,1,0,0:0:0:0:
208,48,8743,1,0,0:0:0:0:
272,48,8768,1,0,0:0:0:0:
312,48,8793,1,0,0:0:0:0:
344,80,8818,1,0,0:0:0:0:
352,128,8843,1,0,0:0:0:0:
352,184,8868,1,0,0:0:0:0:
336,232,8893,1,0,0:0:0:0:
320,272,8918,1,0,0:0:0:0:
264,208,8943,1,0,0:0:0:0:
248,112,8968,1,0,0:0:0:0:
192,88,8993,1,0,0:0:0:0:
160,136,9018,1,0,0:0:0:0:
128,168,9043,1,0,0:0:0:0:
96,216,9068,1,0,0:0:0:0:
96,248,9093,1,0,0:0:0:0:
88,280,9118,1,0,0:0:0:0:
112,312,9143,1,0,0:0:0:0:
176,320,9168,1,0,0:0:0:0:
144,320,9218,1,0,0:0:0:0:
224,320,9243,1,0,0:0:0:0:
272,328,9268,1,0,0:0:0:0:
288,344,9293,1,0,0:0:0:0:
336,344,9318,1,0,0:0:0:0:
368,352,9343,1,0,0:0:0:0:
416,328,9368,1,0,0:0:0:0:
400,280,9393,1,0,0:0:0:0:
416,232,9418,1,0,0:0:0:0:
408,176,9443,1,0,0:0:0:0:
384,136,9468,1,0,0:0:0:0:
352,104,9493,1,0,0:0:0:0:
304,64,9518,1,0,0:0:0:0:
224,48,9543,1,0,0:0:0:0:
168,56,9568,1,0,0:0:0:0:
128,64,9593,1,0,0:0:0:0:
104,80,9618,1,0,0:0:0:0:
200,192,9786,2,0,B|256:80|192:272,1,162.5
329,274,10318,2,0,P|177:313|48:224,1,325
144,112,10336,1,0,0:0:0:0:
168,256,10386,1,0,0:0:0:0:
224,200,10418,1,0,0:0:0:0:
328,72,10436,1,0,0:0:0:0:
416,288,10486,1,0,0:0:0:0:
32,280,10536,1,0,0:0:0:0:
48,48,10586,1,0,0:0:0:0:
240,336,10636,1,0,0:0:0:0:
424,88,10686,1,0,0:0:0:0:
280,272,10736,1,0,0:0:0:0:
240,64,10786,1,0,0:0:0:0:
416,368,10836,1,0,0:0:0:0:
359,97,10852,2,0,B|328:304|360:80,3,216.666666666667
448,176,10886,1,0,0:0:0:0:
304,192,10936,1,0,0:0:0:0:
80,336,10986,1,0,0:0:0:0:
96,48,11036,1,0,0:0:0:0:
432,296,11086,1,0,0:0:0:0:
184,320,11136,1,0,0:0:0:0:
224,96,11186,1,0,0:0:0:0:
344,196,11218,2,0,P|265:102|144:128,1,260,8|6,0:0|0:0,0:0:0:0:
296,272,11236,1,0,0:0:0:0:
256,192,11252,8,8,11452,0:0:0:0:
104,184,11286,5,0,0:0:0:0:
296,136,11336,1,0,0:0:0:0:
168,304,11386,1,0,0:0:0:0:
424,64,11436,1,0,0:0:0:0:
464,240,11486,1,0,0:0:0:0:
256,176,11536,1,0,0:0:0:0:
464,136,11586,1,0,0:0:0:0:
352,296,11636,1,0,0:0:0:0:
128,56,11786,1,0,0:0:0:0:
117,72,11836,1,0,0:0:0:0:
108,90,11886,1,0,0:0:0:0:
102,109,11936,1,0,0:0:0:0:
98,128,11986,1,0,0:0:0:0:
96,148,12036,1,0,0:0:0:0:
96,168,12086,1,0,0:0:0:0:
99,187,12136,1,0,0:0:0:0:
104,207,12186,1,0,0:0:0:0:
111,225,12236,1,0,0:0:0:0:
121,243,12286,1,0,0:0:0:0:
132,259,12336,1,0,0:0:0:0:
288,120,12352,1,0,0:0:0:0:
352,56,12377,1,0,0:0:0:0:
145,274,12386,1,0,0:0:0:0:
416,136,12402,1,0,0:0:0:0:
159,287,12436,1,0,0:0:0:0:
392,96,12452,1,0,0:0:0:0:
432,184,12477,1,0,0:0:0:0:
176,299,12486,1,0,0:0:0:0:
440,224,12502,1,0,0:0:0:0:
432,288,12527,1,0,0:0:0:0:
193,308,12536,1,0,0:0:0:0:
408,320,12552,1,0,0:0:0:0:
384,344,12577,1,0,0:0:0:0:
211,316,12586,1,0,0:0:0:0:
344,360,12602,1,0,0:0:0:0:
288,360,12627,1,0,0:0:0:0:
230,321,12636,1,0,0:0:0:0:
224,352,12652,1,0,0:0:0:0:
128,344,12677,1,0,0:0:0:0:
250,324,12686,1,0,0:0:0:0:
112,280,12702,1,0,0:0:0:0:
112,168,12727,1,0,0:0:0:0:
270,325,12736,1,0,0:0:0:0:
128,96,12752,1,0,0:0:0:0:
176,168,12777,1,0,0:0:0:0:
289,323,12786,1,0,0:0:0:0:
240,256,12802,1,0,0:0:0:0:
280,200,12818,1,0,0:0:0:0:
288,280,12827,1,0,0:0:0:0:
309,320,12836,1,0,0:0:0:0:
360,280,12852,1,0,0:0:0:0:
384,240,12877,1,0,0:0:0:0:
168,280,12885,1,0,0:0:0:0:
328,314,12886,1,0,0:0:0:0:
376,200,12902,1,0,0:0:0:0:
344,96,12927,1,0,0:0:0:0:
346,305,12936,1,0,0:0:0:0:
448,224,12952,1,0,0:0:0:0:
224,96,12952,1,0,0:0:0:0:
128,88,12977,1,0,0:0:0:0:
363,295,12986,1,0,0:0:0:0:
400,56,13018,1,0,0:0:0:0:
96,128,13027,5,0,0:0:0:0:
378,283,13036,1,0,0:0:0:0:
240,296,13052,5,0,0:0:0:0:
184,288,13077,1,0,0:0:0:0:
192,80,13085,1,0,0:0:0:0:
393,269,13086,1,0,0:0:0:0:
400,216,13102,1,0,0:0:0:0:
400,128,13127,1,0,0:0:0:0:
405,254,13136,1,0,0:0:0:0:
256,344,13152,1,0,0:0:0:0:
392,96,13152,1,0,0:0:0:0:
304,48,13177,1,0,0:0:0:0:
416,237,13186,1,0,0:0:0:0:
240,48,13202,1,0,0:0:0:0:
424,152,13218,1,0,0:0:0:0:
200,48,13227,1,0,0:0:0:0:
424,219,13236,1,0,0:0:0:0:
168,80,13252,1,0,0:0:0:0:
160,128,13277,1,0,0:0:0:0:
80,152,13285,1,0,0:0:0:0:
120,48,13286,5,14,0:3:0:0:
160,184,13302,1,0,0:0:0:0:
176,232,13327,1,0,0:0:0:0:
435,181,13336,1,0,0:0:0:0:
344,368,13352,1,0,0:0:0:0:
192,272,13352,1,0,0:0:0:0:
248,208,13377,1,0,0:0:0:0:
208,184,13386,1,14,0:3:0:0:
264,112,13402,1,0,0:0:0:0:
296,136,13418,1,0,0:0:0:0:
320,88,13427,1,0,0:0:0:0:
437,142,13436,1,0,0:0:0:0:
352,136,13452,1,0,0:0:0:0:
384,168,13477,1,0,0:0:0:0:
144,344,13485,1,0,0:0:0:0:
40,112,13486,1,14,0:3:0:0:
416,216,13502,1,0,0:0:0:0:
416,248,13527,1,0,0:0:0:0:
429,103,13536,1,0,0:0:0:0:
392,160,13552,1,0,0:0:0:0:
424,280,13552,1,0,0:0:0:0:
400,312,13577,1,0,0:0:0:0:
208,80,13586,1,14,0:3:0:0:
336,320,13602,1,0,0:0:0:0:
160,56,13618,1,0,0:0:0:0:
120,48,13619,5,14,0:3:0:0:
413,67,13636,1,0,0:0:0:0:
368,320,13652,1,0,0:0:0:0:
288,320,13677,1,0,0:0:0:0:
416,320,13685,1,0,0:0:0:0:
168,88,13686,1,14,0:3:0:0:
240,328,13702,1,0,0:0:0:0:
208,184,13719,1,14,0:3:0:0:
224,344,13727,1,0,0:0:0:0:
432,48,13752,1,0,0:0:0:0:
176,344,13752,1,0,0:0:0:0:
144,352,13777,1,0,0:0:0:0:
224,56,13786,1,14,0:3:0:0:
96,328,13802,1,0,0:0:0:0:
80,40,13818,1,0,0:0:0:0:
40,112,13819,1,14,0:3:0:0:
112,280,13827,1,0,0:0:0:0:
96,232,13852,1,0,0:0:0:0:
104,176,13877,1,0,0:0:0:0:
248,288,13885,1,0,0:0:0:0:
160,168,13886,1,14,0:3:0:0:
128,136,13902,1,0,0:0:0:0:
208,80,13919,1,14,0:3:0:0:
160,104,13927,1,0,0:0:0:0:
352,104,13952,1,0,0:0:0:0:
208,64,13952,1,0,0:0:0:0:
288,48,13977,1,0,0:0:0:0:
248,304,13986,1,14,0:3:0:0:
344,56,14002,1,0,0:0:0:0:
184,112,14018,1,0,0:0:0:0:
168,88,14019,1,14,0:3:0:0:
384,64,14027,1,0,0:0:0:0:
408,80,14052,1,0,0:0:0:0:
80,232,14086,1,14,0:3:0:0:
224,56,14119,1,14,0:3:0:0:
248,200,14186,1,14,0:3:0:0:
160,168,14219,1,14,0:3:0:0:
120,48,14286,1,14,0:3:0:0:
248,304,14319,1,14,0:3:0:0:
208,184,14386,1,14,0:3:0:0:
256,184,14418,1,8,0:0:0:0:
80,232,14419,1,14,0:3:0:0:
40,112,14486,1,14,0:3:0:0:
248,200,14519,1,14,0:3:0:0:
208,80,14586,1,14,0:3:0:0:
120,48,14619,1,14,0:3:0:0:
80,208,14686,1,14,0:3:0:0:
208,184,14719,1,14,0:3:0:0:
182,274,14752,2,0,P|334:313|464:224,1,325
40,112,14819,1,14,0:3:0:0:
288,200,14852,1,0,0:0:0:0:
320,80,14886,1,14,0:3:0:0:
208,80,14919,1,14,0:3:0:0:
408,264,14936,1,14,0:3:0:0:
216,160,14986,1,14,0:3:0:0:
80,208,15019,1,14,0:3:0:0:
448,120,15036,1,14,0:3:0:0:
352,104,15052,1,0,0:0:0:0:
272,272,15086,1,14,0:3:0:0:
264,240,15119,1,14,0:3:0:0:
320,80,15136,1,14,0:3:0:0:
408,264,15186,1,14,0:3:0:0:
320,80,15219,1,14,0:3:0:0:
160,240,15236,1,14,0:3:0:0:
432,48,15252,1,0,0:0:0:0:
408,264,15269,1,14,0:3:0:0:
448,120,15286,1,14,0:3:0:0:
216,160,15319,1,14,0:3:0:0:
272,272,15336,1,14,0:3:0:0:
413,67,15368,1,0,0:0:0:0:
448,120,15369,1,14,0:3:0:0:
176,80,15386,1,14,0:3:0:0:
422,84,15418,1,0,0:0:0:0:
272,272,15419,1,14,0:3:0:0:
264,264,15436,1,14,0:3:0:0:
392,160,15452,1,0,0:0:0:0:
429,103,15468,1,0,0:0:0:0:
320,80,15469,1,14,0:3:0:0:
72,160,15486,1,14,0:3:0:0:
434,122,15518,1,0,0:0:0:0:
408,264,15519,1,14,0:3:0:0:
304,120,15536,1,14,0:3:0:0:
437,142,15568,1,0,0:0:0:0:
160,240,15569,1,14,0:3:0:0:
128,272,15586,1,14,0:3:0:0:
437,161,15618,1,0,0:0:0:0:
448,120,15619,1,14,0:3:0:0:
344,368,15652,1,0,0:0:0:0:
167,196,15652,2,0,P|246:102|368:128,1,260,8|6,0:0|0:0,0:0:0:0:
435,181,15668,1,0,0:0:0:0:
272,272,15669,1,14,0:3:0:0:
431,201,15718,1,0,0:0:0:0:
176,80,15719,1,14,0:3:0:0:
424,219,15768,1,0,0:0:0:0:
264,264,15769,1,14,0:3:0:0:
424,152,15786,1,0,0:0:0:0:
416,237,15818,1,0,0:0:0:0:
72,160,15819,1,14,0:3:0:0:
256,344,15852,1,0,0:0:0:0:
405,254,15868,1,0,0:0:0:0:
304,120,15869,1,14,0:3:0:0:
393,269,15918,1,0,0:0:0:0:
128,272,15919,1,14,0:3:0:0:
378,283,15968,1,0,0:0:0:0:
208,288,15969,1,14,0:3:0:0:
400,56,15986,1,0,0:0:0:0:
363,295,16018,1,0,0:0:0:0:
328,0,16019,1,14,0:3:0:0:
256,192,16052,12,0,16085,0:0:0:0:
346,305,16068,5,0,0:0:0:0:
176,176,16069,1,14,0:3:0:0:
256,192,16085,8,0,16318,0:0:0:0:
328,314,16118,5,0,0:0:0:0:
368,272,16119,1,14,0:3:0:0:
309,320,16168,1,0,0:0:0:0:
184,184,16169,1,14,0:3:0:0:
280,200,16186,1,0,0:0:0:0:
289,323,16218,1,0,0:0:0:0:
288,376,16219,1,14,0:3:0:0:
270,325,16268,1,0,0:0:0:0:
328,144,16269,1,14,0:3:0:0:
250,324,16318,1,0,0:0:0:0:
176,320,16319,1,14,0:3:0:0:
230,321,16368,1,0,0:0:0:0:
256,192,16385,12,0,16418,0:0:0:0:
256,192,16418,8,0,16651,0:0:0:0:
256,192,16436,12,0,17336,0:0:0:0:
193,308,16468,5,0,0:0:0:0:
176,299,16518,1,0,0:0:0:0:
159,287,16568,1,0,0:0:0:0:
145,274,16618,1,0,0:0:0:0:
132,259,16668,1,0,0:0:0:0:
121,243,16718,1,0,0:0:0:0:
208,168,16718,1,8,0:0:0:0:
111,225,16768,1,0,0:0:0:0:
256,192,16769,12,0,17669,0:0:0:0:
256,192,16785,12,0,16818,0:0:0:0:
256,192,16818,8,0,17051,0:0:0:0:
99,187,16868,5,0,0:0:0:0:
96,168,16918,1,0,0:0:0:0:
96,148,16968,1,0,0:0:0:0:
98,128,17018,1,0,0:0:0:0:
208,168,17051,1,8,0:0:0:0:
102,109,17068,1,0,0:0:0:0:
108,90,17118,1,0,0:0:0:0:
117,72,17168,1,0,0:0:0:0:
256,192,17169,12,0,18069,0:0:0:0:
128,56,17218,5,0,0:0:0:0:
232,200,17252,1,0,0:0:0:0:
344,280,17319,1,0,0:0:0:0:
352,296,17368,1,0,0:0:0:0:
64,224,17386,1,0,0:0:0:0:
464,136,17418,1,0,0:0:0:0:
280,240,17451,1,8,0:0:0:0:
112,56,17452,1,0,0:0:0:0:
256,176,17468,1,0,0:0:0:0:
464,240,17518,1,0,0:0:0:0:
320,80,17519,1,0,0:0:0:0:
424,64,17568,1,0,0:0:0:0:
256,344,17586,1,0,0:0:0:0:
168,304,17618,1,0,0:0:0:0:
88,152,17652,1,0,0:0:0:0:
296,136,17668,1,0,0:0:0:0:
104,184,17718,1,0,0:0:0:0:
432,152,17719,1,0,0:0:0:0:
296,272,17768,1,0,0:0:0:0:
144,128,17786,2,0,P|344:192|344:240,1,260,8|6,0:0|0:0,0:0:0:0:
168,368,17786,1,0,0:0:0:0:
224,96,17818,1,0,0:0:0:0:
216,136,17852,1,0,0:0:0:0:
184,320,17868,1,0,0:0:0:0:
432,296,17918,1,0,0:0:0:0:
368,344,17919,1,0,0:0:0:0:
96,48,17968,1,0,0:0:0:0:
120,160,17986,1,0,0:0:0:0:
80,336,18018,1,0,0:0:0:0:
352,56,18052,1,0,0:0:0:0:
304,192,18068,1,0,0:0:0:0:
216,144,18086,6,0,B|488:160|208:24|208:24|248:136|-8:304|376:352,1,800
448,176,18118,1,0,0:0:0:0:
96,320,18119,1,0,0:0:0:0:
416,368,18168,1,0,0:0:0:0:
80,48,18186,1,0,0:0:0:0:
240,64,18218,1,0,0:0:0:0:
432,40,18252,1,0,0:0:0:0:
280,272,18268,1,0,0:0:0:0:
424,88,18318,1,0,0:0:0:0:
264,288,18319,1,0,0:0:0:0:
240,336,18368,1,0,0:0:0:0:
160,104,18386,1,0,0:0:0:0:
48,48,18418,1,0,0:0:0:0:
216,144,18419,6,0,B|488:160|208:24|208:24|248:136|-8:304|376:352,1,800
328,112,18452,1,0,0:0:0:0:
32,280,18468,1,0,0:0:0:0:
416,288,18518,1,0,0:0:0:0:
328,72,18568,1,0,0:0:0:0:
224,200,18586,1,0,0:0:0:0:
168,256,18618,1,0,0:0:0:0:
144,112,18668,1,0,0:0:0:0:
48,224,18686,2,0,P|168:312|368:232,1,325
304,232,18819,6,0,B|288:-40|424:240|424:240|312:200|144:456|96:72,1,800
256,184,18852,1,8,0:0:0:0:
196,259,19218,2,0,B|256:80|200:192,1,162.5
104,80,19386,1,0,0:0:0:0:
128,64,19411,1,0,0:0:0:0:
168,56,19436,1,0,0:0:0:0:
224,48,19461,1,0,0:0:0:0:
304,64,19486,1,0,0:0:0:0:
352,104,19511,1,0,0:0:0:0:
152,97,19518,2,0,B|184:304|152:80,3,216.666666666667
384,136,19536,1,0,0:0:0:0:
408,176,19561,1,0,0:0:0:0:
416,232,19586,1,0,0:0:0:0:
400,280,19611,1,0,0:0:0:0:
416,328,19636,1,0,0:0:0:0:
368,352,19661,1,0,0:0:0:0:
336,344,19686,1,0,0:0:0:0:
288,344,19711,1,0,0:0:0:0:
272,328,19736,1,0,0:0:0:0:
224,320,19761,1,0,0:0:0:0:
144,320,19786,1,0,0:0:0:0:
99,67,19802,1,0,0:0:0:0:
176,320,19836,1,0,0:0:0:0:
152,97,19851,2,0,B|184:304|152:80,3,216.666666666667
90,84,19852,1,0,0:0:0:0:
112,312,19861,1,0,0:0:0:0:
88,280,19886,1,0,0:0:0:0:
83,103,19902,1,0,0:0:0:0:
96,248,19911,1,0,0:0:0:0:
256,192,19918,8,8,20118,0:0:0:0:
96,216,19936,5,0,0:0:0:0:
78,122,19952,1,0,0:0:0:0:
128,168,19961,1,0,0:0:0:0:
160,136,19986,1,0,0:0:0:0:
75,142,20002,1,0,0:0:0:0:
192,88,20011,1,0,0:0:0:0:
248,112,20036,1,0,0:0:0:0:
75,161,20052,1,0,0:0:0:0:
264,208,20061,1,0,0:0:0:0:
320,272,20086,1,0,0:0:0:0:
77,181,20102,1,0,0:0:0:0:
336,232,20111,1,0,0:0:0:0:
352,184,20136,1,0,0:0:0:0:
81,201,20152,1,0,0:0:0:0:
352,128,20161,1,0,0:0:0:0:
344,80,20186,1,0,0:0:0:0:
88,219,20202,1,0,0:0:0:0:
312,48,20211,1,0,0:0:0:0:
272,48,20236,1,0,0:0:0:0:
350,295,20251,2,0,B|144:264|368:296,3,216.666666666667
256,192,20251,8,8,20451,0:0:0:0:
96,237,20252,5,0,0:0:0:0:
208,48,20261,1,0,0:0:0:0:
120,96,20286,1,0,0:0:0:0:
107,254,20302,1,0,0:0:0:0:
112,128,20311,1,0,0:0:0:0:
112,216,20336,1,0,0:0:0:0:
119,269,20352,1,0,0:0:0:0:
328,288,20361,1,0,0:0:0:0:
272,296,20386,1,0,0:0:0:0:
134,283,20402,1,0,0:0:0:0:
416,128,20411,1,0,0:0:0:0:
149,295,20452,1,0,0:0:0:0:
384,88,20461,1,0,0:0:0:0:
256,192,20486,12,0,20519,0:0:0:0:
288,96,20486,5,0,0:0:0:0:
166,305,20502,1,0,0:0:0:0:
168,96,20511,1,0,0:0:0:0:
256,192,20519,8,0,20752,0:0:0:0:
136,200,20536,5,0,0:0:0:0:
184,314,20552,1,0,0:0:0:0:
128,240,20561,1,0,0:0:0:0:
152,280,20586,1,0,0:0:0:0:
203,320,20602,1,0,0:0:0:0:
224,280,20611,1,0,0:0:0:0:
272,256,20636,1,0,0:0:0:0:
256,192,20651,8,8,20851,0:0:0:0:
223,323,20652,5,0,0:0:0:0:
336,168,20661,1,0,0:0:0:0:
384,96,20686,1,0,0:0:0:0:
242,325,20702,1,0,0:0:0:0:
400,168,20711,1,0,0:0:0:0:
400,280,20736,1,0,0:0:0:0:
262,324,20752,1,0,0:0:0:0:
384,344,20761,1,0,0:0:0:0:
288,352,20786,1,0,0:0:0:0:
282,321,20802,1,0,0:0:0:0:
224,360,20811,1,0,0:0:0:0:
256,192,20819,12,0,20852,0:0:0:0:
168,360,20836,5,0,0:0:0:0:
301,316,20852,1,0,0:0:0:0:
256,192,20852,8,0,21085,0:0:0:0:
128,344,20861,5,0,0:0:0:0:
104,320,20886,1,0,0:0:0:0:
319,308,20902,1,0,0:0:0:0:
80,288,20911,1,0,0:0:0:0:
72,224,20936,1,0,0:0:0:0:
336,299,20952,1,0,0:0:0:0:
80,184,20961,1,0,0:0:0:0:
120,96,20986,1,0,0:0:0:0:
353,287,21002,1,0,0:0:0:0:
224,120,21018,1,0,0:0:0:0:
96,136,21036,1,0,0:0:0:0:
160,56,21043,1,0,0:0:0:0:
367,274,21052,1,0,0:0:0:0:
160,56,21061,1,0,0:0:0:0:
96,136,21068,1,0,0:0:0:0:
224,120,21086,1,0,0:0:0:0:
380,259,21102,1,0,0:0:0:0:
120,96,21118,1,0,0:0:0:0:
80,184,21143,1,0,0:0:0:0:
391,243,21152,1,0,0:0:0:0:
304,168,21152,1,8,0:0:0:0:
72,224,21168,1,0,0:0:0:0:
80,288,21193,1,0,0:0:0:0:
401,225,21202,1,0,0:0:0:0:
104,320,21218,1,0,0:0:0:0:
256,192,21219,12,0,21252,0:0:0:0:
128,344,21243,5,0,0:0:0:0:
408,207,21252,1,0,0:0:0:0:
256,192,21252,8,0,21485,0:0:0:0:
168,360,21268,5,0,0:0:0:0:
224,360,21293,1,0,0:0:0:0:
413,187,21302,1,0,0:0:0:0:
288,352,21318,1,0,0:0:0:0:
384,344,21343,1,0,0:0:0:0:
224,120,21351,1,0,0:0:0:0:
416,168,21352,1,0,0:0:0:0:
400,280,21368,1,0,0:0:0:0:
160,56,21376,1,0,0:0:0:0:
400,168,21393,1,0,0:0:0:0:
96,136,21401,1,0,0:0:0:0:
416,148,21402,1,0,0:0:0:0:
384,96,21418,1,0,0:0:0:0:
336,168,21443,1,0,0:0:0:0:
120,96,21451,1,0,0:0:0:0:
414,128,21452,1,0,0:0:0:0:
272,256,21468,1,0,0:0:0:0:
80,184,21476,1,0,0:0:0:0:
304,168,21485,1,8,0:0:0:0:
224,280,21493,1,0,0:0:0:0:
72,224,21501,1,0,0:0:0:0:
410,109,21502,1,0,0:0:0:0:
152,280,21518,1,0,0:0:0:0:
80,288,21526,1,0,0:0:0:0:
128,240,21543,1,0,0:0:0:0:
104,320,21551,1,0,0:0:0:0:
404,90,21552,1,0,0:0:0:0:
136,200,21568,1,0,0:0:0:0:
128,344,21576,1,0,0:0:0:0:
168,96,21593,1,0,0:0:0:0:
168,360,21601,1,0,0:0:0:0:
395,72,21602,1,0,0:0:0:0:
288,96,21618,1,0,0:0:0:0:
224,360,21626,1,0,0:0:0:0:
384,88,21643,1,0,0:0:0:0:
288,352,21651,1,0,0:0:0:0:
384,56,21652,1,0,0:0:0:0:
384,344,21676,1,0,0:0:0:0:
416,128,21693,5,0,0:0:0:0:
400,280,21701,1,0,0:0:0:0:
272,296,21718,5,0,0:0:0:0:
400,168,21726,1,0,0:0:0:0:
328,288,21743,1,0,0:0:0:0:
328,224,21751,1,0,0:0:0:0:
384,96,21751,1,0,0:0:0:0:
112,216,21768,1,0,0:0:0:0:
392,288,21776,1,0,0:0:0:0:
336,168,21776,1,0,0:0:0:0:
112,128,21793,1,0,0:0:0:0:
312,352,21801,1,0,0:0:0:0:
272,256,21801,1,0,0:0:0:0:
160,296,21802,1,0,0:0:0:0:
120,96,21818,1,0,0:0:0:0:
224,280,21826,1,0,0:0:0:0:
208,48,21843,1,0,0:0:0:0:
352,328,21851,1,0,0:0:0:0:
152,280,21851,1,0,0:0:0:0:
48,136,21852,1,0,0:0:0:0:
272,48,21868,1,0,0:0:0:0:
264,368,21876,1,0,0:0:0:0:
128,240,21876,1,0,0:0:0:0:
280,144,21885,1,8,0:0:0:0:
312,48,21893,1,0,0:0:0:0:
224,376,21901,1,0,0:0:0:0:
136,200,21901,1,0,0:0:0:0:
256,176,21902,1,0,0:0:0:0:
344,80,21918,1,0,0:0:0:0:
160,368,21926,1,0,0:0:0:0:
168,96,21926,1,0,0:0:0:0:
352,128,21943,1,0,0:0:0:0:
128,344,21951,1,0,0:0:0:0:
288,96,21951,1,0,0:0:0:0:
48,240,21952,1,0,0:0:0:0:
352,184,21968,1,0,0:0:0:0:
104,320,21976,1,0,0:0:0:0:
384,88,21976,1,0,0:0:0:0:
256,192,21986,12,8,22186,0:0:0:0:
336,232,21993,5,0,0:0:0:0:
88,280,22001,1,0,0:0:0:0:
88,64,22002,1,0,0:0:0:0:
320,272,22018,1,0,0:0:0:0:
416,128,22026,5,0,0:0:0:0:
88,224,22026,1,0,0:0:0:0:
264,208,22043,1,0,0:0:0:0:
272,296,22051,5,0,0:0:0:0:
96,160,22051,1,0,0:0:0:0:
344,304,22052,1,0,0:0:0:0:
248,112,22068,1,0,0:0:0:0:
104,64,22076,1,0,0:0:0:0:
328,288,22076,1,0,0:0:0:0:
192,88,22093,1,0,0:0:0:0:
168,48,22101,1,0,0:0:0:0:
112,216,22101,1,0,0:0:0:0:
216,136,22102,1,0,0:0:0:0:
160,136,22118,1,0,0:0:0:0:
280,48,22126,1,0,0:0:0:0:
112,128,22126,1,0,0:0:0:0:
128,168,22143,1,0,0:0:0:0:
352,64,22151,1,0,0:0:0:0:
120,96,22151,1,0,0:0:0:0:
408,184,22152,1,0,0:0:0:0:
96,216,22168,1,0,0:0:0:0:
280,112,22176,1,0,0:0:0:0:
208,48,22176,1,0,0:0:0:0:
96,248,22193,1,0,0:0:0:0:
192,176,22201,1,0,0:0:0:0:
272,48,22201,1,0,0:0:0:0:
216,272,22202,1,0,0:0:0:0:
88,280,22218,1,0,0:0:0:0:
168,224,22226,1,0,0:0:0:0:
312,48,22226,1,0,0:0:0:0:
112,312,22243,1,0,0:0:0:0:
168,296,22251,1,0,0:0:0:0:
344,80,22251,1,0,0:0:0:0:
288,96,22252,1,0,0:0:0:0:
176,320,22268,1,0,0:0:0:0:
208,320,22276,1,0,0:0:0:0:
352,128,22276,1,0,0:0:0:0:
248,312,22301,1,0,0:0:0:0:
352,184,22301,1,0,0:0:0:0:
328,320,22302,1,0,0:0:0:0:
144,320,22318,1,0,0:0:0:0:
352,280,22326,1,0,0:0:0:0:
336,232,22326,1,0,0:0:0:0:
224,320,22343,1,0,0:0:0:0:
352,160,22351,1,0,0:0:0:0:
320,272,22351,1,0,0:0:0:0:
80,296,22352,1,0,0:0:0:0:
272,328,22368,1,0,0:0:0:0:
360,64,22376,1,0,0:0:0:0:
264,208,22376,1,0,0:0:0:0:
288,344,22393,1,0,0:0:0:0:
248,112,22401,1,0,0:0:0:0:
416,48,22402,1,0,0:0:0:0:
336,344,22418,1,0,0:0:0:0:
320,32,22426,5,0,0:0:0:0:
192,88,22426,1,0,0:0:0:0:
368,352,22443,1,0,0:0:0:0:
152,176,22451,5,0,0:0:0:0:
160,136,22451,1,0,0:0:0:0:
432,336,22452,1,0,0:0:0:0:
416,328,22468,1,0,0:0:0:0:
160,120,22476,1,0,0:0:0:0:
128,168,22476,1,0,0:0:0:0:
400,280,22493,1,0,0:0:0:0:
232,336,22501,1,0,0:0:0:0:
96,216,22501,1,0,0:0:0:0:
208,192,22502,1,0,0:0:0:0:
416,232,22518,1,0,0:0:0:0:
320,336,22526,1,0,0:0:0:0:
96,248,22526,1,0,0:0:0:0:
408,176,22543,1,0,0:0:0:0:
352,328,22551,1,0,0:0:0:0:
88,280,22551,1,0,0:0:0:0:
64,176,22552,1,0,0:0:0:0:
384,136,22568,1,0,0:0:0:0:
400,240,22576,1,0,0:0:0:0:
112,312,22576,1,0,0:0:0:0:
152,80,22586,6,0,B|184:304|152:96,3,216.666666666667
352,104,22593,1,0,0:0:0:0:
400,176,22601,1,0,0:0:0:0:
176,320,22601,1,0,0:0:0:0:
96,368,22602,1,0,0:0:0:0:
304,64,22618,1,0,0:0:0:0:
400,136,22626,1,0,0:0:0:0:
224,48,22643,1,0,0:0:0:0:
368,104,22651,1,0,0:0:0:0:
144,320,22651,1,0,0:0:0:0:
272,64,22652,1,0,0:0:0:0:
168,56,22668,1,0,0:0:0:0:
320,96,22676,1,0,0:0:0:0:
224,320,22676,1,0,0:0:0:0:
128,64,22693,1,0,0:0:0:0:
264,96,22701,1,0,0:0:0:0:
272,328,22701,1,0,0:0:0:0:
232,272,22702,1,0,0:0:0:0:
104,80,22718,1,0,0:0:0:0:
216,112,22726,1,0,0:0:0:0:
288,344,22726,1,0,0:0:0:0:
176,128,22751,1,0,0:0:0:0:
336,344,22751,1,0,0:0:0:0:
88,88,22752,1,0,0:0:0:0:
240,184,22776,1,0,0:0:0:0:
368,352,22776,1,0,0:0:0:0:
336,200,22801,1,0,0:0:0:0:
416,328,22801,1,0,0:0:0:0:
272,336,22802,1,0,0:0:0:0:
360,256,22826,1,0,0:0:0:0:
400,280,22826,1,0,0:0:0:0:
312,288,22851,1,0,0:0:0:0:
416,232,22851,1,0,0:0:0:0:
464,48,22852,1,0,0:0:0:0:
280,320,22876,1,0,0:0:0:0:
408,176,22876,1,0,0:0:0:0:
200,192,22886,2,0,B|256:80|192:272,1,162.5
232,352,22901,1,0,0:0:0:0:
384,136,22901,1,0,0:0:0:0:
480,280,22902,1,0,0:0:0:0:
200,352,22926,1,0,0:0:0:0:
352,104,22926,1,0,0:0:0:0:
168,360,22951,1,0,0:0:0:0:
304,64,22951,1,0,0:0:0:0:
96,288,22952,1,0,0:0:0:0:
136,336,22976,1,0,0:0:0:0:
224,48,22976,1,0,0:0:0:0:
128,272,23001,1,0,0:0:0:0:
168,56,23001,1,0,0:0:0:0:
184,72,23002,1,0,0:0:0:0:
128,64,23026,1,0,0:0:0:0:
128,304,23051,1,0,0:0:0:0:
104,80,23051,1,0,0:0:0:0:
344,256,23052,1,0,0:0:0:0:
128,224,23076,1,0,0:0:0:0:
120,176,23101,1,0,0:0:0:0:
368,112,23102,1,0,0:0:0:0:
104,160,23126,1,0,0:0:0:0:
104,112,23151,1,0,0:0:0:0:
96,80,23176,1,0,0:0:0:0:
120,32,23201,1,0,0:0:0:0:
200,192,23219,2,0,B|256:80|192:272,1,162.5
168,48,23226,1,0,0:0:0:0:
216,32,23251,1,0,0:0:0:0:
272,40,23276,1,0,0:0:0:0:
312,64,23301,1,0,0:0:0:0:
344,96,23326,1,0,0:0:0:0:
384,144,23351,1,0,0:0:0:0:
400,224,23376,1,0,0:0:0:0:
392,280,23401,1,0,0:0:0:0:
329,274,23418,2,0,P|177:313|48:224,1,325
384,320,23426,1,0,0:0:0:0:
144,112,23436,1,0,0:0:0:0:
368,344,23451,1,0,0:0:0:0:
168,256,23486,1,0,0:0:0:0:
224,200,23518,1,0,0:0:0:0:
328,72,23536,1,0,0:0:0:0:
416,288,23586,1,0,0:0:0:0:
256,248,23619,2,0,B|368:192|176:256,1,162.5
32,280,23636,1,0,0:0:0:0:
315,259,23652,2,0,B|256:80|312:192,1,162.5
48,48,23686,1,0,0:0:0:0:
240,336,23736,1,0,0:0:0:0:
329,274,23751,2,0,P|177:313|48:224,1,325
144,112,23769,1,0,0:0:0:0:
424,88,23786,1,0,0:0:0:0:
168,256,23819,1,0,0:0:0:0:
280,272,23836,1,0,0:0:0:0:
224,200,23851,1,0,0:0:0:0:
328,72,23869,1,0,0:0:0:0:
240,64,23886,1,0,0:0:0:0:
416,288,23919,1,0,0:0:0:0:
416,368,23936,1,0,0:0:0:0:
359,97,23952,2,0,B|328:304|360:80,3,216.666666666667
32,280,23969,1,0,0:0:0:0:
448,176,23986,1,0,0:0:0:0:
372,351,24018,2,0,B|-8:304|248:136|208:24|208:24|488:160|216:144,1,800
48,48,24019,1,0,0:0:0:0:
304,192,24036,1,0,0:0:0:0:
240,336,24069,1,0,0:0:0:0:
80,336,24086,1,0,0:0:0:0:
424,88,24119,1,0,0:0:0:0:
96,48,24136,1,0,0:0:0:0:
173,118,24151,2,0,P|134:270|224:400,1,325
336,304,24169,1,0,0:0:0:0:
280,272,24169,1,0,0:0:0:0:
432,296,24186,1,0,0:0:0:0:
192,280,24219,1,0,0:0:0:0:
240,64,24219,1,0,0:0:0:0:
184,320,24236,1,0,0:0:0:0:
248,224,24251,1,0,0:0:0:0:
376,120,24269,1,0,0:0:0:0:
416,368,24269,1,0,0:0:0:0:
359,97,24285,2,0,B|328:304|360:80,3,216.666666666667
224,96,24286,1,0,0:0:0:0:
344,196,24318,2,0,P|265:102|144:128,1,260,8|6,0:0|0:0,0:0:0:0:
160,32,24319,1,0,0:0:0:0:
448,176,24319,1,0,0:0:0:0:
296,272,24336,1,0,0:0:0:0:
256,192,24352,8,8,24552,0:0:0:0:
168,416,24369,5,0,0:0:0:0:
304,192,24369,1,0,0:0:0:0:
104,184,24386,1,0,0:0:0:0:
400,400,24419,1,0,0:0:0:0:
80,336,24419,1,0,0:0:0:0:
296,136,24436,1,0,0:0:0:0:
112,208,24469,1,0,0:0:0:0:
96,48,24469,1,0,0:0:0:0:
168,304,24486,1,0,0:0:0:0:
360,24,24519,1,0,0:0:0:0:
432,296,24519,1,0,0:0:0:0:
424,64,24536,1,0,0:0:0:0:
176,168,24569,1,0,0:0:0:0:
184,320,24569,1,0,0:0:0:0:
464,240,24586,1,0,0:0:0:0:
384,208,24619,1,0,0:0:0:0:
224,96,24619,1,0,0:0:0:0:
256,176,24636,1,0,0:0:0:0:
344,196,24651,2,0,P|265:102|144:128,1,260,8|6,0:0|0:0,0:0:0:0:
80,32,24669,1,0,0:0:0:0:
296,272,24669,1,0,0:0:0:0:
350,88,24685,2,0,B|144:120|368:88,3,216.666666666667
256,192,24685,8,8,24885,0:0:0:0:
464,136,24686,5,0,0:0:0:0:
272,0,24719,1,0,0:0:0:0:
104,184,24719,1,0,0:0:0:0:
352,296,24736,1,0,0:0:0:0:
256,192,24768,8,0,25668,0:0:0:0:
256,144,24769,5,0,0:0:0:0:
296,136,24769,1,0,0:0:0:0:
112,368,24819,1,0,0:0:0:0:
168,304,24819,1,0,0:0:0:0:
400,352,24869,1,0,0:0:0:0:
424,64,24869,1,0,0:0:0:0:
128,56,24886,1,0,0:0:0:0:
152,16,24919,1,0,0:0:0:0:
464,240,24919,1,0,0:0:0:0:
117,72,24936,1,0,0:0:0:0:
128,264,24969,1,0,0:0:0:0:
256,176,24969,1,0,0:0:0:0:
108,90,24986,1,0,0:0:0:0:
352,224,25019,1,0,0:0:0:0:
464,136,25019,1,0,0:0:0:0:
102,109,25036,1,0,0:0:0:0:
251,103,25051,2,0,P|345:182|320:304,1,260,8|6,0:0|0:0,0:0:0:0:
176,152,25069,1,0,0:0:0:0:
352,296,25069,1,0,0:0:0:0:
256,192,25085,8,8,25285,0:0:0:0:
98,128,25086,5,0,0:0:0:0:
264,344,25119,1,0,0:0:0:0:
96,148,25136,1,0,0:0:0:0:
312,152,25169,1,0,0:0:0:0:
96,168,25186,1,0,0:0:0:0:
144,280,25219,1,0,0:0:0:0:
128,56,25219,1,0,0:0:0:0:
99,187,25236,1,0,0:0:0:0:
384,24,25269,1,0,0:0:0:0:
117,72,25269,1,0,0:0:0:0:
104,207,25286,1,0,0:0:0:0:
208,0,25319,1,0,0:0:0:0:
108,90,25319,1,0,0:0:0:0:
111,225,25336,1,0,0:0:0:0:
272,192,25369,1,0,0:0:0:0:
102,109,25369,1,0,0:0:0:0:
208,168,25386,1,8,0:0:0:0:
121,243,25386,1,0,0:0:0:0:
312,0,25419,1,0,0:0:0:0:
98,128,25419,1,0,0:0:0:0:
132,259,25436,1,0,0:0:0:0:
288,120,25452,1,0,0:0:0:0:
152,96,25469,1,0,0:0:0:0:
96,148,25469,1,0,0:0:0:0:
352,56,25477,1,0,0:0:0:0:
145,274,25486,1,0,0:0:0:0:
416,136,25502,1,0,0:0:0:0:
96,168,25519,1,0,0:0:0:0:
159,287,25536,1,0,0:0:0:0:
392,96,25552,1,0,0:0:0:0:
99,187,25569,1,0,0:0:0:0:
432,184,25577,1,0,0:0:0:0:
176,299,25586,1,0,0:0:0:0:
440,224,25602,1,0,0:0:0:0:
392,320,25619,1,0,0:0:0:0:
104,207,25619,1,0,0:0:0:0:
432,288,25627,1,0,0:0:0:0:
193,308,25636,1,0,0:0:0:0:
408,320,25652,1,0,0:0:0:0:
376,331,25669,1,0,0:0:0:0:
111,225,25669,1,0,0:0:0:0:
384,344,25677,1,0,0:0:0:0:
211,316,25686,1,0,0:0:0:0:
344,360,25702,1,0,0:0:0:0:
358,340,25719,1,0,0:0:0:0:
121,243,25719,1,0,0:0:0:0:
288,360,25727,1,0,0:0:0:0:
230,321,25736,1,0,0:0:0:0:
224,352,25752,1,0,0:0:0:0:
339,346,25769,1,0,0:0:0:0:
132,259,25769,1,0,0:0:0:0:
128,344,25777,1,0,0:0:0:0:
288,120,25785,1,0,0:0:0:0:
256,192,25786,12,0,26019,0:0:0:0:
250,324,25786,5,0,0:0:0:0:
112,280,25802,1,0,0:0:0:0:
352,56,25810,1,0,0:0:0:0:
320,350,25819,1,0,0:0:0:0:
145,274,25819,1,0,0:0:0:0:
112,168,25827,1,0,0:0:0:0:
416,136,25835,1,0,0:0:0:0:
270,325,25836,1,0,0:0:0:0:
128,96,25852,1,0,0:0:0:0:
300,352,25869,1,0,0:0:0:0:
159,287,25869,1,0,0:0:0:0:
176,168,25877,1,0,0:0:0:0:
392,96,25885,1,0,0:0:0:0:
289,323,25886,1,0,0:0:0:0:
240,256,25902,1,0,0:0:0:0:
432,184,25910,1,0,0:0:0:0:
280,200,25918,1,0,0:0:0:0:
280,352,25919,1,0,0:0:0:0:
176,299,25919,1,0,0:0:0:0:
288,280,25927,1,0,0:0:0:0:
440,224,25935,1,0,0:0:0:0:
309,320,25936,1,0,0:0:0:0:
360,280,25952,1,0,0:0:0:0:
432,288,25960,1,0,0:0:0:0:
261,349,25969,1,0,0:0:0:0:
193,308,25969,1,0,0:0:0:0:
384,240,25977,1,0,0:0:0:0:
408,320,25985,1,0,0:0:0:0:
168,280,25985,1,0,0:0:0:0:
328,314,25986,1,0,0:0:0:0:
376,200,26002,1,0,0:0:0:0:
384,344,26010,1,0,0:0:0:0:
256,192,26019,12,0,26052,0:0:0:0:
241,344,26019,5,0,0:0:0:0:
211,316,26019,1,0,0:0:0:0:
344,96,26027,1,0,0:0:0:0:
344,360,26035,1,0,0:0:0:0:
346,305,26036,1,0,0:0:0:0:
448,224,26052,1,0,0:0:0:0:
224,96,26052,1,0,0:0:0:0:
288,360,26060,1,0,0:0:0:0:
223,337,26069,1,0,0:0:0:0:
230,321,26069,1,0,0:0:0:0:
128,88,26077,1,0,0:0:0:0:
224,352,26085,1,0,0:0:0:0:
363,295,26086,1,0,0:0:0:0:
128,344,26110,1,0,0:0:0:0:
400,56,26118,1,0,0:0:0:0:
205,327,26119,1,0,0:0:0:0:
250,324,26119,1,0,0:0:0:0:
96,128,26127,5,0,0:0:0:0:
112,280,26135,1,0,0:0:0:0:
378,283,26136,1,0,0:0:0:0:
240,296,26152,5,0,0:0:0:0:
112,168,26160,1,0,0:0:0:0:
189,316,26169,1,0,0:0:0:0:
270,325,26169,1,0,0:0:0:0:
184,288,26177,1,0,0:0:0:0:
328,160,26185,1,0,0:0:0:0:
128,96,26185,1,0,0:0:0:0:
192,80,26185,1,0,0:0:0:0:
393,269,26186,1,0,0:0:0:0:
400,216,26202,1,0,0:0:0:0:
392,96,26210,1,0,0:0:0:0:
176,168,26210,1,0,0:0:0:0:
174,303,26219,1,0,0:0:0:0:
289,323,26219,1,0,0:0:0:0:
400,128,26227,1,0,0:0:0:0:
312,32,26235,1,0,0:0:0:0:
240,256,26235,1,0,0:0:0:0:
405,254,26236,1,0,0:0:0:0:
280,200,26251,1,0,0:0:0:0:
120,48,26252,5,14,0:3:0:0:
256,344,26252,1,0,0:0:0:0:
392,96,26252,1,0,0:0:0:0:
288,280,26260,1,0,0:0:0:0:
161,289,26269,1,0,0:0:0:0:
309,320,26269,1,0,0:0:0:0:
304,48,26277,1,0,0:0:0:0:
352,56,26285,1,0,0:0:0:0:
360,280,26285,1,0,0:0:0:0:
416,237,26286,1,0,0:0:0:0:
240,48,26302,1,0,0:0:0:0:
264,16,26310,1,0,0:0:0:0:
384,240,26310,1,0,0:0:0:0:
168,280,26318,1,0,0:0:0:0:
424,152,26318,1,0,0:0:0:0:
149,272,26319,1,0,0:0:0:0:
328,314,26319,1,0,0:0:0:0:
200,48,26327,1,0,0:0:0:0:
224,8,26335,1,0,0:0:0:0:
376,200,26335,1,0,0:0:0:0:
424,219,26336,1,0,0:0:0:0:
208,184,26352,1,14,0:3:0:0:
168,80,26352,1,0,0:0:0:0:
160,16,26360,1,0,0:0:0:0:
344,96,26360,1,0,0:0:0:0:
140,255,26369,1,0,0:0:0:0:
346,305,26369,1,0,0:0:0:0:
160,128,26377,1,0,0:0:0:0:
128,40,26385,1,0,0:0:0:0:
448,224,26385,1,0,0:0:0:0:
224,96,26385,1,0,0:0:0:0:
80,152,26385,1,0,0:0:0:0:
431,201,26386,1,0,0:0:0:0:
160,184,26402,1,0,0:0:0:0:
104,64,26410,1,0,0:0:0:0:
128,88,26410,1,0,0:0:0:0:
132,237,26419,1,0,0:0:0:0:
363,295,26419,1,0,0:0:0:0:
176,232,26427,1,0,0:0:0:0:
88,104,26435,1,0,0:0:0:0:
435,181,26436,1,0,0:0:0:0:
400,56,26451,1,0,0:0:0:0:
40,112,26452,1,14,0:3:0:0:
344,368,26452,1,0,0:0:0:0:
192,272,26452,1,0,0:0:0:0:
96,128,26460,5,0,0:0:0:0:
88,160,26460,1,0,0:0:0:0:
127,218,26469,1,0,0:0:0:0:
378,283,26469,1,0,0:0:0:0:
248,208,26477,1,0,0:0:0:0:
240,296,26485,5,0,0:0:0:0:
96,224,26485,1,0,0:0:0:0:
437,161,26486,1,0,0:0:0:0:
264,112,26502,1,0,0:0:0:0:
104,320,26510,1,0,0:0:0:0:
184,288,26510,1,0,0:0:0:0:
128,272,26518,1,14,0:3:0:0:
192,80,26518,1,0,0:0:0:0:
296,136,26518,1,0,0:0:0:0:
124,198,26519,1,0,0:0:0:0:
393,269,26519,1,0,0:0:0:0:
320,88,26527,1,0,0:0:0:0:
168,336,26535,1,0,0:0:0:0:
400,216,26535,1,0,0:0:0:0:
437,142,26536,1,0,0:0:0:0:
208,80,26552,1,14,0:3:0:0:
352,136,26552,1,0,0:0:0:0:
280,336,26560,1,0,0:0:0:0:
400,128,26560,1,0,0:0:0:0:
304,120,26568,1,14,0:3:0:0:
123,178,26569,1,0,0:0:0:0:
405,254,26569,1,0,0:0:0:0:
384,168,26577,1,0,0:0:0:0:
352,320,26585,1,0,0:0:0:0:
256,344,26585,1,0,0:0:0:0:
392,96,26585,1,0,0:0:0:0:
144,344,26585,1,0,0:0:0:0:
434,122,26586,1,0,0:0:0:0:
416,216,26602,1,0,0:0:0:0:
280,272,26610,1,0,0:0:0:0:
304,48,26610,1,0,0:0:0:0:
72,160,26618,1,14,0:3:0:0:
125,159,26619,1,0,0:0:0:0:
416,237,26619,1,0,0:0:0:0:
416,248,26627,1,0,0:0:0:0:
192,208,26635,1,0,0:0:0:0:
240,48,26635,1,0,0:0:0:0:
429,103,26636,1,0,0:0:0:0:
248,168,26651,1,0,0:0:0:0:
424,152,26651,1,0,0:0:0:0:
168,88,26652,1,14,0:3:0:0:
392,160,26652,1,0,0:0:0:0:
424,280,26652,1,0,0:0:0:0:
168,160,26660,1,0,0:0:0:0:
200,48,26660,1,0,0:0:0:0:
264,264,26668,1,14,0:3:0:0:
128,139,26669,1,0,0:0:0:0:
424,219,26669,1,0,0:0:0:0:
400,312,26677,1,0,0:0:0:0:
168,88,26685,1,0,0:0:0:0:
168,80,26685,1,0,0:0:0:0:
422,84,26686,1,0,0:0:0:0:
336,320,26702,1,0,0:0:0:0:
208,64,26710,1,0,0:0:0:0:
160,128,26710,1,0,0:0:0:0:
176,80,26718,1,14,0:3:0:0:
168,280,26718,1,0,0:0:0:0:
80,152,26718,1,0,0:0:0:0:
160,56,26718,1,0,0:0:0:0:
120,48,26719,5,14,0:3:0:0:
134,120,26719,1,0,0:0:0:0:
431,201,26719,1,0,0:0:0:0:
248,72,26735,1,0,0:0:0:0:
160,184,26735,1,0,0:0:0:0:
413,67,26736,1,0,0:0:0:0:
224,56,26752,1,14,0:3:0:0:
368,320,26752,1,0,0:0:0:0:
352,104,26760,1,0,0:0:0:0:
176,232,26760,1,0,0:0:0:0:
272,272,26768,1,14,0:3:0:0:
143,102,26769,1,0,0:0:0:0:
435,181,26769,1,0,0:0:0:0:
288,320,26777,1,0,0:0:0:0:
224,0,26785,1,0,0:0:0:0:
352,224,26785,1,0,0:0:0:0:
344,368,26785,1,0,0:0:0:0:
192,272,26785,1,0,0:0:0:0:
416,320,26785,1,0,0:0:0:0:
240,328,26802,1,0,0:0:0:0:
360,320,26810,1,0,0:0:0:0:
248,208,26810,1,0,0:0:0:0:
448,120,26818,1,14,0:3:0:0:
153,85,26819,1,0,0:0:0:0:
437,161,26819,1,0,0:0:0:0:
208,184,26819,1,14,0:3:0:0:
224,344,26827,1,0,0:0:0:0:
264,112,26835,1,0,0:0:0:0:
392,48,26851,1,0,0:0:0:0:
296,136,26851,1,0,0:0:0:0:
160,168,26852,1,14,0:3:0:0:
432,48,26852,1,0,0:0:0:0:
176,344,26852,1,0,0:0:0:0:
320,352,26860,5,0,0:0:0:0:
320,88,26860,1,0,0:0:0:0:
160,240,26868,1,14,0:3:0:0:
165,70,26869,1,0,0:0:0:0:
437,142,26869,1,0,0:0:0:0:
144,352,26877,1,0,0:0:0:0:
152,208,26885,5,0,0:0:0:0:
352,136,26885,1,0,0:0:0:0:
96,328,26902,1,0,0:0:0:0:
160,264,26910,1,0,0:0:0:0:
384,168,26910,1,0,0:0:0:0:
408,264,26918,1,14,0:3:0:0:
368,256,26918,1,0,0:0:0:0:
144,344,26918,1,0,0:0:0:0:
80,40,26918,1,0,0:0:0:0:
179,55,26919,1,0,0:0:0:0:
434,122,26919,1,0,0:0:0:0:
40,112,26919,1,14,0:3:0:0:
112,280,26927,1,0,0:0:0:0:
232,48,26935,1,0,0:0:0:0:
416,216,26935,1,0,0:0:0:0:
248,304,26952,1,14,0:3:0:0:
96,232,26952,1,0,0:0:0:0:
320,48,26960,1,0,0:0:0:0:
416,248,26960,1,0,0:0:0:0:
320,80,26968,1,14,0:3:0:0:
194,43,26969,1,0,0:0:0:0:
429,103,26969,1,0,0:0:0:0:
104,176,26977,1,0,0:0:0:0:
104,192,26985,1,0,0:0:0:0:
352,56,26985,1,0,0:0:0:0:
392,160,26985,1,0,0:0:0:0:
424,280,26985,1,0,0:0:0:0:
248,288,26985,1,0,0:0:0:0:
128,136,27002,1,0,0:0:0:0:
400,144,27010,1,0,0:0:0:0:
400,312,27010,1,0,0:0:0:0:
272,272,27018,1,14,0:3:0:0:
211,32,27019,1,0,0:0:0:0:
422,84,27019,1,0,0:0:0:0:
208,80,27019,1,14,0:3:0:0:
160,104,27027,1,0,0:0:0:0:
400,208,27035,1,0,0:0:0:0:
336,320,27035,1,0,0:0:0:0:
296,24,27051,1,0,0:0:0:0:
160,56,27051,1,0,0:0:0:0:
80,232,27052,1,14,0:3:0:0:
352,104,27052,1,0,0:0:0:0:
208,64,27052,1,0,0:0:0:0:
400,248,27060,1,0,0:0:0:0:
448,120,27068,1,14,0:3:0:0:
229,24,27069,1,0,0:0:0:0:
413,67,27069,1,0,0:0:0:0:
288,48,27077,1,0,0:0:0:0:
368,280,27085,1,0,0:0:0:0:
368,320,27085,1,0,0:0:0:0:
344,56,27102,1,0,0:0:0:0:
320,288,27110,1,0,0:0:0:0:
288,320,27110,1,0,0:0:0:0:
216,160,27118,1,14,0:3:0:0:
296,368,27118,1,0,0:0:0:0:
416,320,27118,1,0,0:0:0:0:
184,112,27118,1,0,0:0:0:0:
247,17,27119,1,0,0:0:0:0:
168,88,27119,1,14,0:3:0:0:
384,64,27127,1,0,0:0:0:0:
264,288,27135,1,0,0:0:0:0:
240,328,27135,1,0,0:0:0:0:
248,200,27152,1,14,0:3:0:0:
408,80,27152,1,0,0:0:0:0:
216,272,27160,1,0,0:0:0:0:
224,344,27160,1,0,0:0:0:0:
408,264,27168,1,14,0:3:0:0:
267,13,27169,1,0,0:0:0:0:
80,104,27185,1,0,0:0:0:0:
176,256,27185,1,0,0:0:0:0:
432,48,27185,1,0,0:0:0:0:
176,344,27185,1,0,0:0:0:0:
240,200,27210,1,0,0:0:0:0:
144,352,27210,1,0,0:0:0:0:
320,80,27218,1,14,0:3:0:0:
287,11,27219,1,0,0:0:0:0:
224,56,27219,1,14,0:3:0:0:
336,184,27235,1,0,0:0:0:0:
96,328,27235,1,0,0:0:0:0:
312,152,27251,1,0,0:0:0:0:
80,40,27251,1,0,0:0:0:0:
120,48,27252,1,14,0:3:0:0:
360,128,27260,1,0,0:0:0:0:
112,280,27260,1,0,0:0:0:0:
306,11,27269,1,0,0:0:0:0:
312,96,27285,1,0,0:0:0:0:
96,232,27285,1,0,0:0:0:0:
280,64,27310,1,0,0:0:0:0:
104,176,27310,1,0,0:0:0:0:
104,304,27318,1,0,0:0:0:0:
248,288,27318,1,0,0:0:0:0:
326,14,27319,1,0,0:0:0:0:
160,168,27319,1,14,0:3:0:0:
232,32,27335,1,0,0:0:0:0:
128,136,27335,1,0,0:0:0:0:
208,184,27352,1,14,0:3:0:0:
200,32,27360,1,0,0:0:0:0:
160,104,27360,1,0,0:0:0:0:
345,19,27369,1,0,0:0:0:0:
288,56,27385,1,0,0:0:0:0:
168,24,27385,1,0,0:0:0:0:
352,104,27385,1,0,0:0:0:0:
208,64,27385,1,0,0:0:0:0:
136,48,27410,1,0,0:0:0:0:
288,48,27410,1,0,0:0:0:0:
80,208,27418,1,14,0:3:0:0:
364,26,27419,1,0,0:0:0:0:
248,304,27419,1,14,0:3:0:0:
128,112,27435,1,0,0:0:0:0:
344,56,27435,1,0,0:0:0:0:
392,288,27451,1,0,0:0:0:0:
184,112,27451,1,0,0:0:0:0:
400,328,27452,5,14,0:3:0:0:
40,112,27452,1,14,0:3:0:0:
384,64,27460,1,0,0:0:0:0:
381,35,27469,1,0,0:0:0:0:
128,80,27485,1,0,0:0:0:0:
408,80,27485,1,0,0:0:0:0:
128,160,27510,1,0,0:0:0:0:
208,80,27518,1,14,0:3:0:0:
128,32,27518,1,0,0:0:0:0:
256,184,27518,1,8,0:0:0:0:
80,232,27519,1,14,0:3:0:0:
120,208,27535,1,0,0:0:0:0:
208,80,27552,1,14,0:3:0:0:
264,240,27552,1,14,0:3:0:0:
104,224,27560,1,0,0:0:0:0:
400,16,27585,1,0,0:0:0:0:
104,272,27585,1,0,0:0:0:0:
96,304,27610,1,0,0:0:0:0:
40,112,27618,1,14,0:3:0:0:
248,200,27619,1,14,0:3:0:0:
120,352,27635,1,0,0:0:0:0:
408,368,27651,1,0,0:0:0:0:
80,208,27652,1,14,0:3:0:0:
336,408,27652,1,14,0:3:0:0:
168,336,27660,1,0,0:0:0:0:
216,352,27685,1,0,0:0:0:0:
256,184,27686,1,8,0:0:0:0:
272,344,27710,1,0,0:0:0:0:
208,184,27718,1,14,0:3:0:0:
160,200,27718,1,0,0:0:0:0:
120,48,27719,1,14,0:3:0:0:
312,320,27735,1,0,0:0:0:0:
368,240,27752,1,14,0:3:0:0:
344,288,27760,1,0,0:0:0:0:
344,96,27785,1,0,0:0:0:0:
384,240,27785,1,0,0:0:0:0:
400,160,27810,1,0,0:0:0:0:
120,48,27818,1,14,0:3:0:0:
208,184,27819,1,14,0:3:0:0:
392,104,27835,1,0,0:0:0:0:
336,264,27851,1,0,0:0:0:0:
256,184,27851,1,8,0:0:0:0:
320,80,27852,1,14,0:3:0:0:
360,280,27852,1,14,0:3:0:0:
182,274,27852,2,0,P|334:313|464:224,1,325
384,64,27860,1,0,0:0:0:0:
368,40,27885,1,0,0:0:0:0:
408,264,27902,1,14,0:3:0:0:
248,200,27918,1,14,0:3:0:0:
40,112,27919,1,14,0:3:0:0:
216,160,27952,1,14,0:3:0:0:
392,224,27952,1,14,0:3:0:0:
288,200,27952,1,0,0:0:0:0:
448,120,28002,1,14,0:3:0:0:
80,232,28018,1,14,0:3:0:0:
256,184,28019,1,8,0:0:0:0:
208,80,28019,1,14,0:3:0:0:
272,272,28052,1,14,0:3:0:0:
280,288,28052,1,14,0:3:0:0:
184,112,28086,1,0,0:0:0:0:
320,80,28102,1,14,0:3:0:0:
248,304,28118,1,14,0:3:0:0:
80,208,28119,1,14,0:3:0:0:
408,264,28152,1,14,0:3:0:0:
144,200,28152,1,14,0:3:0:0:
352,104,28152,1,0,0:0:0:0:
182,274,28185,2,0,P|334:313|464:224,1,325
160,240,28202,1,14,0:3:0:0:
160,168,28218,1,14,0:3:0:0:
264,240,28219,1,14,0:3:0:0:
264,192,28251,1,8,0:0:0:0:
448,120,28252,1,14,0:3:0:0:
216,368,28252,1,14,0:3:0:0:
288,200,28285,1,0,0:0:0:0:
80,40,28286,1,0,0:0:0:0:
272,272,28302,1,14,0:3:0:0:
224,56,28318,1,14,0:3:0:0:
320,80,28319,1,14,0:3:0:0:
176,80,28352,1,14,0:3:0:0:
248,200,28352,1,14,0:3:0:0:
432,48,28352,1,0,0:0:0:0:
408,264,28369,1,14,0:3:0:0:
264,264,28402,1,14,0:3:0:0:
168,88,28418,5,14,0:3:0:0:
264,192,28419,1,8,0:0:0:0:
184,112,28419,1,0,0:0:0:0:
216,160,28419,1,14,0:3:0:0:
72,160,28452,1,14,0:3:0:0:
400,328,28452,1,14,0:3:0:0:
413,67,28468,1,0,0:0:0:0:
448,120,28469,1,14,0:3:0:0:
352,104,28485,1,0,0:0:0:0:
160,56,28486,1,0,0:0:0:0:
304,120,28502,1,14,0:3:0:0:
208,80,28518,5,14,0:3:0:0:
422,84,28518,1,0,0:0:0:0:
272,272,28519,1,14,0:3:0:0:
128,272,28552,1,14,0:3:0:0:
264,240,28552,1,14,0:3:0:0:
392,160,28552,1,0,0:0:0:0:
429,103,28568,1,0,0:0:0:0:
320,80,28569,1,14,0:3:0:0:
173,265,28585,2,0,P|134:113|224:-16,1,325
40,112,28618,1,14,0:3:0:0:
434,122,28618,1,0,0:0:0:0:
80,40,28619,1,0,0:0:0:0:
408,264,28619,1,14,0:3:0:0:
336,408,28652,1,14,0:3:0:0:
437,142,28668,1,0,0:0:0:0:
160,240,28669,1,14,0:3:0:0:
248,160,28685,1,0,0:0:0:0:
432,48,28685,1,0,0:0:0:0:
296,136,28686,1,0,0:0:0:0:
208,184,28718,5,14,0:3:0:0:
437,161,28718,1,0,0:0:0:0:
448,120,28719,1,14,0:3:0:0:
368,240,28752,1,14,0:3:0:0:
344,368,28752,1,0,0:0:0:0:
167,196,28752,2,0,P|246:102|368:128,1,260,8|6,0:0|0:0,0:0:0:0:
435,181,28768,1,0,0:0:0:0:
272,272,28769,1,14,0:3:0:0:
413,67,28801,1,0,0:0:0:0:
120,48,28818,5,14,0:3:0:0:
431,201,28818,1,0,0:0:0:0:
336,264,28819,1,0,0:0:0:0:
160,56,28819,1,0,0:0:0:0:
176,80,28819,1,14,0:3:0:0:
422,84,28851,1,0,0:0:0:0:
240,368,28852,1,14,0:3:0:0:
424,219,28868,1,0,0:0:0:0:
264,264,28869,1,14,0:3:0:0:
344,96,28885,1,0,0:0:0:0:
392,160,28885,1,0,0:0:0:0:
424,152,28886,1,0,0:0:0:0:
429,103,28901,1,0,0:0:0:0:
416,237,28918,1,0,0:0:0:0:
72,160,28919,1,14,0:3:0:0:
434,122,28951,1,0,0:0:0:0:
160,200,28952,1,0,0:0:0:0:
144,344,28952,1,0,0:0:0:0:
256,344,28952,1,0,0:0:0:0:
405,254,28968,1,0,0:0:0:0:
304,120,28969,1,14,0:3:0:0:
437,142,29001,1,0,0:0:0:0:
256,192,29018,12,0,29051,0:0:0:0:
393,269,29018,5,0,0:0:0:0:
408,368,29019,1,0,0:0:0:0:
296,136,29019,1,0,0:0:0:0:
128,272,29019,1,14,0:3:0:0:
437,161,29051,5,0,0:0:0:0:
256,192,29051,8,0,29284,0:0:0:0:
368,128,29052,5,14,0:3:0:0:
378,283,29068,1,0,0:0:0:0:
208,288,29069,1,14,0:3:0:0:
400,16,29085,1,0,0:0:0:0:
344,368,29085,1,0,0:0:0:0:
167,196,29085,2,0,P|246:102|368:128,1,260,8|6,0:0|0:0,0:0:0:0:
400,56,29086,1,0,0:0:0:0:
435,181,29101,1,0,0:0:0:0:
184,40,29102,1,14,0:3:0:0:
363,295,29118,1,0,0:0:0:0:
328,0,29119,1,14,0:3:0:0:
431,201,29151,1,0,0:0:0:0:
128,32,29152,1,0,0:0:0:0:
288,232,29152,1,14,0:3:0:0:
448,224,29152,1,0,0:0:0:0:
346,305,29168,1,0,0:0:0:0:
176,176,29169,1,14,0:3:0:0:
381,35,29201,1,0,0:0:0:0:
424,219,29201,1,0,0:0:0:0:
328,0,29202,5,14,0:3:0:0:
256,192,29202,8,0,30102,0:0:0:0:
328,314,29218,5,0,0:0:0:0:
392,288,29219,1,0,0:0:0:0:
424,152,29219,1,0,0:0:0:0:
368,272,29219,1,14,0:3:0:0:
364,26,29251,1,0,0:0:0:0:
416,237,29251,1,0,0:0:0:0:
176,176,29252,1,14,0:3:0:0:
309,320,29268,1,0,0:0:0:0:
184,184,29269,1,14,0:3:0:0:
288,56,29285,1,0,0:0:0:0:
256,344,29285,1,0,0:0:0:0:
280,200,29286,1,0,0:0:0:0:
345,19,29301,1,0,0:0:0:0:
405,254,29301,1,0,0:0:0:0:
368,128,29302,1,14,0:3:0:0:
289,323,29318,1,0,0:0:0:0:
288,376,29319,1,14,0:3:0:0:
326,14,29351,1,0,0:0:0:0:
393,269,29351,1,0,0:0:0:0:
104,304,29352,1,0,0:0:0:0:
184,40,29352,1,14,0:3:0:0:
270,325,29368,1,0,0:0:0:0:
328,144,29369,1,14,0:3:0:0:
306,11,29401,1,0,0:0:0:0:
378,283,29401,1,0,0:0:0:0:
256,192,29402,12,0,30302,0:0:0:0:
256,192,29402,12,0,30302,0:0:0:0:
208,288,29402,5,14,0:3:0:0:
250,324,29418,1,0,0:0:0:0:
312,152,29419,1,0,0:0:0:0:
400,56,29419,1,0,0:0:0:0:
176,320,29419,1,14,0:3:0:0:
287,11,29451,1,0,0:0:0:0:
363,295,29451,1,0,0:0:0:0:
328,0,29452,1,14,0:3:0:0:
230,321,29468,1,0,0:0:0:0:
256,192,29485,12,0,29518,0:0:0:0:
80,104,29485,5,0,0:0:0:0:
251,280,29485,2,0,P|345:201|320:80,1,260,8|6,0:0|0:0,0:0:0:0:
448,224,29485,1,0,0:0:0:0:
267,13,29501,1,0,0:0:0:0:
346,305,29501,1,0,0:0:0:0:
176,176,29502,1,14,0:3:0:0:
256,192,29518,8,0,29751,0:0:0:0:
247,17,29551,5,0,0:0:0:0:
328,314,29551,1,0,0:0:0:0:
296,368,29552,1,0,0:0:0:0:
368,272,29552,1,14,0:3:0:0:
193,308,29568,1,0,0:0:0:0:
229,24,29601,1,0,0:0:0:0:
309,320,29601,1,0,0:0:0:0:
184,184,29602,1,14,0:3:0:0:
176,299,29618,1,0,0:0:0:0:
296,24,29619,1,0,0:0:0:0:
280,200,29619,1,0,0:0:0:0:
211,32,29651,1,0,0:0:0:0:
289,323,29651,1,0,0:0:0:0:
288,376,29652,1,14,0:3:0:0:
159,287,29668,1,0,0:0:0:0:
208,168,29684,1,8,0:0:0:0:
208,168,29684,1,8,0:0:0:0:
104,192,29685,1,0,0:0:0:0:
194,43,29701,1,0,0:0:0:0:
270,325,29701,1,0,0:0:0:0:
328,144,29702,1,14,0:3:0:0:
145,274,29718,1,0,0:0:0:0:
179,55,29751,1,0,0:0:0:0:
250,324,29751,1,0,0:0:0:0:
368,256,29752,1,0,0:0:0:0:
176,320,29752,1,14,0:3:0:0:
132,259,29768,1,0,0:0:0:0:
165,70,29801,1,0,0:0:0:0:
230,321,29801,1,0,0:0:0:0:
121,243,29818,1,0,0:0:0:0:
392,48,29819,1,0,0:0:0:0:
153,85,29851,1,0,0:0:0:0:
211,316,29851,1,0,0:0:0:0:
111,225,29868,1,0,0:0:0:0:
256,192,29869,12,0,30769,0:0:0:0:
256,192,29885,12,0,29918,0:0:0:0:
224,0,29885,5,0,0:0:0:0:
143,102,29901,1,0,0:0:0:0:
193,308,29901,1,0,0:0:0:0:
256,192,29918,8,0,30151,0:0:0:0:
134,120,29951,5,0,0:0:0:0:
176,299,29951,1,0,0:0:0:0:
168,280,29952,1,0,0:0:0:0:
99,187,29968,1,0,0:0:0:0:
128,139,30001,1,0,0:0:0:0:
159,287,30001,1,0,0:0:0:0:
96,168,30018,1,0,0:0:0:0:
248,168,30019,1,0,0:0:0:0:
125,159,30051,1,0,0:0:0:0:
145,274,30051,1,0,0:0:0:0:
96,148,30068,1,0,0:0:0:0:
123,178,30101,1,0,0:0:0:0:
132,259,30101,1,0,0:0:0:0:
98,128,30118,1,0,0:0:0:0:
124,198,30151,1,0,0:0:0:0:
121,243,30151,1,0,0:0:0:0:
208,168,30151,1,8,0:0:0:0:
102,109,30168,1,0,0:0:0:0:
127,218,30201,1,0,0:0:0:0:
111,225,30201,1,0,0:0:0:0:
256,192,30218,12,0,30251,0:0:0:0:
108,90,30218,5,0,0:0:0:0:
132,237,30251,1,0,0:0:0:0:
256,192,30251,8,0,30484,0:0:0:0:
117,72,30268,5,0,0:0:0:0:
256,192,30269,12,0,31169,0:0:0:0:
140,255,30301,5,0,0:0:0:0:
99,187,30301,1,0,0:0:0:0:
128,56,30318,1,0,0:0:0:0:
149,272,30351,1,0,0:0:0:0:
96,168,30351,1,0,0:0:0:0:
232,200,30352,1,0,0:0:0:0:
161,289,30401,1,0,0:0:0:0:
96,148,30401,1,0,0:0:0:0:
344,280,30419,1,0,0:0:0:0:
174,303,30451,1,0,0:0:0:0:
98,128,30451,1,0,0:0:0:0:
352,296,30468,1,0,0:0:0:0:
64,224,30486,1,0,0:0:0:0:
189,316,30501,1,0,0:0:0:0:
102,109,30501,1,0,0:0:0:0:
464,136,30518,1,0,0:0:0:0:
205,327,30551,1,0,0:0:0:0:
108,90,30551,1,0,0:0:0:0:
280,240,30551,1,8,0:0:0:0:
112,56,30552,1,0,0:0:0:0:
256,176,30568,1,0,0:0:0:0:
223,337,30601,1,0,0:0:0:0:
117,72,30601,1,0,0:0:0:0:
256,192,30602,12,0,31502,0:0:0:0:
464,240,30618,5,0,0:0:0:0:
320,80,30619,1,0,0:0:0:0:
241,344,30651,1,0,0:0:0:0:
128,56,30651,1,0,0:0:0:0:
424,64,30668,1,0,0:0:0:0:
232,200,30685,1,0,0:0:0:0:
256,344,30686,1,0,0:0:0:0:
261,349,30701,1,0,0:0:0:0:
168,304,30718,1,0,0:0:0:0:
280,352,30751,1,0,0:0:0:0:
344,280,30752,1,0,0:0:0:0:
88,152,30752,1,0,0:0:0:0:
296,136,30768,1,0,0:0:0:0:
300,352,30801,1,0,0:0:0:0:
352,296,30801,1,0,0:0:0:0:
104,184,30818,1,0,0:0:0:0:
64,224,30819,1,0,0:0:0:0:
432,152,30819,1,0,0:0:0:0:
320,350,30851,1,0,0:0:0:0:
464,136,30851,1,0,0:0:0:0:
296,272,30868,1,0,0:0:0:0:
280,240,30884,1,8,0:0:0:0:
112,56,30885,1,0,0:0:0:0:
144,128,30886,2,0,P|344:192|344:240,1,260,8|6,0:0|0:0,0:0:0:0:
168,368,30886,1,0,0:0:0:0:
339,346,30901,1,0,0:0:0:0:
256,176,30901,1,0,0:0:0:0:
224,96,30918,1,0,0:0:0:0:
358,340,30951,1,0,0:0:0:0:
464,240,30951,1,0,0:0:0:0:
384,272,30952,1,14,0:3:0:0:
320,80,30952,1,0,0:0:0:0:
216,136,30952,1,0,0:0:0:0:
184,320,30968,1,0,0:0:0:0:
376,331,31001,1,0,0:0:0:0:
424,64,31001,1,0,0:0:0:0:
208,120,31002,1,14,0:3:0:0:
432,296,31018,1,0,0:0:0:0:
256,344,31019,1,0,0:0:0:0:
368,344,31019,1,0,0:0:0:0:
392,320,31051,1,0,0:0:0:0:
168,304,31051,1,0,0:0:0:0:
216,144,31052,6,0,B|488:160|208:24|208:24|248:136|-8:304|376:352,1,800
216,144,31052,6,0,B|488:160|208:24|208:24|248:136|-8:304|376:352,1,800
440,160,31052,1,14,0:3:0:0:
96,48,31068,1,0,0:0:0:0:
248,216,31085,1,0,0:0:0:0:
88,152,31085,1,0,0:0:0:0:
120,160,31086,1,0,0:0:0:0:
296,136,31101,1,0,0:0:0:0:
248,264,31102,1,14,0:3:0:0:
80,336,31118,1,0,0:0:0:0:
104,184,31151,1,0,0:0:0:0:
336,80,31152,1,14,0:3:0:0:
168,104,31152,1,0,0:0:0:0:
432,152,31152,1,0,0:0:0:0:
352,56,31152,1,0,0:0:0:0:
304,192,31168,1,0,0:0:0:0:
152,96,31201,1,0,0:0:0:0:
296,272,31201,1,0,0:0:0:0:
240,272,31202,1,14,0:3:0:0:
448,176,31218,1,0,0:0:0:0:
224,384,31219,1,0,0:0:0:0:
144,128,31219,2,0,P|344:192|344:240,1,260,8|6,0:0|0:0,0:0:0:0:
168,368,31219,1,0,0:0:0:0:
96,320,31219,1,0,0:0:0:0:
312,0,31251,1,0,0:0:0:0:
224,96,31251,1,0,0:0:0:0:
64,120,31252,1,14,0:3:0:0:
416,368,31268,1,0,0:0:0:0:
392,336,31285,1,0,0:0:0:0:
216,136,31285,1,0,0:0:0:0:
80,48,31286,1,0,0:0:0:0:
272,192,31301,1,0,0:0:0:0:
184,320,31301,1,0,0:0:0:0:
352,240,31302,1,14,0:3:0:0:
240,64,31318,1,0,0:0:0:0:
208,0,31351,1,0,0:0:0:0:
432,296,31351,1,0,0:0:0:0:
104,264,31352,1,14,0:3:0:0:
368,128,31352,1,0,0:0:0:0:
368,344,31352,1,0,0:0:0:0:
432,40,31352,1,0,0:0:0:0:
280,272,31368,1,0,0:0:0:0:
384,24,31401,1,0,0:0:0:0:
96,48,31401,1,0,0:0:0:0:
192,80,31402,1,14,0:3:0:0:
424,88,31418,1,0,0:0:0:0:
104,192,31419,1,0,0:0:0:0:
120,160,31419,1,0,0:0:0:0:
264,288,31419,1,0,0:0:0:0:
144,280,31451,1,0,0:0:0:0:
80,336,31451,1,0,0:0:0:0:
240,272,31452,1,14,0:3:0:0:
240,336,31468,1,0,0:0:0:0:
296,360,31485,1,0,0:0:0:0:
352,56,31485,1,0,0:0:0:0:
160,104,31486,1,0,0:0:0:0:
312,152,31501,1,0,0:0:0:0:
304,192,31501,1,0,0:0:0:0:
64,120,31502,1,14,0:3:0:0:
48,48,31518,1,0,0:0:0:0:
216,144,31519,6,0,B|488:160|208:24|208:24|248:136|-8:304|376:352,1,800
264,344,31551,1,0,0:0:0:0:
448,176,31551,1,0,0:0:0:0:
296,160,31552,1,14,0:3:0:0:
296,16,31552,1,0,0:0:0:0:
96,320,31552,1,0,0:0:0:0:
328,112,31552,1,0,0:0:0:0:
32,280,31568,1,0,0:0:0:0:
176,152,31601,1,0,0:0:0:0:
416,368,31601,1,0,0:0:0:0:
104,264,31602,1,14,0:3:0:0:
416,288,31618,1,0,0:0:0:0:
320,304,31619,2,0,P|256:104|208:104,1,260,8|6,0:0|0:0,0:0:0:0:
80,280,31619,1,0,0:0:0:0:
80,48,31619,1,0,0:0:0:0:
352,224,31651,1,0,0:0:0:0:
240,64,31651,1,0,0:0:0:0:
192,80,31652,1,14,0:3:0:0:
328,72,31668,1,0,0:0:0:0:
312,232,31685,1,0,0:0:0:0:
432,40,31685,1,0,0:0:0:0:
224,200,31686,1,0,0:0:0:0:
128,264,31701,1,0,0:0:0:0:
280,272,31701,1,0,0:0:0:0:
168,256,31718,1,0,0:0:0:0:
152,16,31751,1,0,0:0:0:0:
424,88,31751,1,0,0:0:0:0:
104,80,31752,1,0,0:0:0:0:
264,288,31752,1,0,0:0:0:0:
144,112,31768,1,0,0:0:0:0:
48,224,31786,2,0,P|168:312|368:232,1,325
400,352,31801,1,0,0:0:0:0:
240,336,31801,1,0,0:0:0:0:
288,328,31819,1,0,0:0:0:0:
160,104,31819,1,0,0:0:0:0:
112,368,31851,1,0,0:0:0:0:
48,48,31851,1,0,0:0:0:0:
432,208,31852,1,14,0:3:0:0:
392,96,31885,1,0,0:0:0:0:
328,112,31885,1,0,0:0:0:0:
256,144,31901,1,0,0:0:0:0:
32,280,31901,1,0,0:0:0:0:
304,232,31919,6,0,B|288:-40|424:240|424:240|312:200|144:456|96:72,1,800
272,0,31951,1,0,0:0:0:0:
416,288,31951,1,0,0:0:0:0:
304,80,31952,1,14,0:3:0:0:
128,352,31952,1,0,0:0:0:0:
256,184,31952,1,8,0:0:0:0:
80,32,32001,1,0,0:0:0:0:
328,72,32001,1,0,0:0:0:0:
400,368,32019,1,0,0:0:0:0:
224,200,32019,1,0,0:0:0:0:
384,208,32051,1,0,0:0:0:0:
168,256,32051,1,0,0:0:0:0:
472,112,32052,1,14,0:3:0:0:
408,16,32085,1,0,0:0:0:0:
176,168,32101,1,0,0:0:0:0:
144,112,32101,1,0,0:0:0:0:
48,224,32119,2,0,P|168:312|368:232,1,325
360,24,32151,1,0,0:0:0:0:
304,184,32152,1,14,0:3:0:0:
160,184,32152,1,0,0:0:0:0:
112,208,32201,1,0,0:0:0:0:
344,288,32219,1,0,0:0:0:0:
400,400,32251,1,0,0:0:0:0:
304,232,32252,6,0,B|288:-40|424:240|424:240|312:200|144:456|96:72,1,800
392,48,32252,1,14,0:3:0:0:
336,120,32285,1,0,0:0:0:0:
256,184,32285,1,8,0:0:0:0:
168,416,32301,1,0,0:0:0:0:
196,259,32318,2,0,B|256:80|200:192,1,162.5
160,32,32351,1,0,0:0:0:0:
264,200,32352,1,14,0:3:0:0:
376,120,32401,1,0,0:0:0:0:
248,224,32419,1,0,0:0:0:0:
192,280,32451,1,0,0:0:0:0:
432,232,32452,1,14,0:3:0:0:
152,97,32484,2,0,B|184:304|152:80,3,216.666666666667
152,97,32484,2,0,B|184:304|152:80,3,216.666666666667
104,80,32486,1,0,0:0:0:0:
336,304,32501,1,0,0:0:0:0:
128,64,32511,1,0,0:0:0:0:
224,400,32519,2,0,P|136:280|216:80,1,325
168,56,32536,1,0,0:0:0:0:
264,304,32552,1,14,0:3:0:0:
224,48,32561,1,0,0:0:0:0:
304,64,32586,1,0,0:0:0:0:
352,104,32611,1,0,0:0:0:0:
384,136,32636,1,0,0:0:0:0:
196,259,32651,2,0,B|256:80|200:192,1,162.5
352,168,32652,1,14,0:3:0:0:
408,176,32661,1,0,0:0:0:0:
264,192,32685,1,8,0:0:0:0:
416,232,32686,1,0,0:0:0:0:
400,280,32711,1,0,0:0:0:0:
416,328,32736,1,0,0:0:0:0:
288,56,32752,1,14,0:3:0:0:
368,352,32761,1,0,0:0:0:0:
336,344,32786,1,0,0:0:0:0:
288,344,32811,1,0,0:0:0:0:
104,80,32819,1,0,0:0:0:0:
272,328,32836,1,0,0:0:0:0:
128,64,32844,1,0,0:0:0:0:
344,88,32852,5,14,0:3:0:0:
224,320,32861,1,0,0:0:0:0:
168,56,32869,1,0,0:0:0:0:
256,192,32884,8,8,33084,0:0:0:0:
256,192,32884,8,8,33084,0:0:0:0:
144,320,32886,5,0,0:0:0:0:
224,48,32894,1,0,0:0:0:0:
99,67,32902,1,0,0:0:0:0:
304,64,32919,1,0,0:0:0:0:
176,320,32936,1,0,0:0:0:0:
352,104,32944,1,0,0:0:0:0:
152,97,32951,2,0,B|184:304|152:80,3,216.666666666667
304,80,32952,5,14,0:3:0:0:
90,84,32952,1,0,0:0:0:0:
112,312,32961,1,0,0:0:0:0:
384,136,32969,1,0,0:0:0:0:
88,280,32986,1,0,0:0:0:0:
408,176,32994,1,0,0:0:0:0:
83,103,33002,1,0,0:0:0:0:
96,248,33011,1,0,0:0:0:0:
416,232,33019,1,0,0:0:0:0:
96,216,33036,1,0,0:0:0:0:
400,280,33044,1,0,0:0:0:0:
188,251,33051,2,0,B|368:192|256:248,1,162.5
472,112,33052,1,14,0:3:0:0:
78,122,33052,1,0,0:0:0:0:
128,168,33061,1,0,0:0:0:0:
416,328,33069,1,0,0:0:0:0:
160,136,33086,1,0,0:0:0:0:
368,352,33094,1,0,0:0:0:0:
75,142,33102,1,0,0:0:0:0:
192,88,33111,1,0,0:0:0:0:
336,344,33119,1,0,0:0:0:0:
248,112,33136,1,0,0:0:0:0:
288,344,33144,1,0,0:0:0:0:
304,184,33152,5,14,0:3:0:0:
75,161,33152,1,0,0:0:0:0:
264,208,33161,1,0,0:0:0:0:
272,328,33169,1,0,0:0:0:0:
320,272,33186,1,0,0:0:0:0:
224,320,33194,1,0,0:0:0:0:
77,181,33202,1,0,0:0:0:0:
336,232,33211,1,0,0:0:0:0:
368,344,33219,1,0,0:0:0:0:
144,320,33219,1,0,0:0:0:0:
99,67,33235,1,0,0:0:0:0:
352,184,33236,1,0,0:0:0:0:
384,320,33244,1,0,0:0:0:0:
392,48,33252,5,14,0:3:0:0:
81,201,33252,1,0,0:0:0:0:
352,128,33261,1,0,0:0:0:0:
392,280,33269,1,0,0:0:0:0:
176,320,33269,1,0,0:0:0:0:
90,84,33285,1,0,0:0:0:0:
344,80,33286,1,0,0:0:0:0:
400,224,33294,1,0,0:0:0:0:
112,312,33294,1,0,0:0:0:0:
88,219,33302,1,0,0:0:0:0:
312,48,33311,1,0,0:0:0:0:
384,144,33319,1,0,0:0:0:0:
88,280,33319,1,0,0:0:0:0:
83,103,33335,1,0,0:0:0:0:
272,48,33336,1,0,0:0:0:0:
344,96,33344,1,0,0:0:0:0:
96,248,33344,1,0,0:0:0:0:
350,295,33351,2,0,B|144:264|368:296,3,216.666666666667
256,192,33351,8,8,33551,0:0:0:0:
96,237,33352,5,0,0:0:0:0:
208,48,33361,1,0,0:0:0:0:
312,64,33369,1,0,0:0:0:0:
96,216,33369,1,0,0:0:0:0:
78,122,33385,1,0,0:0:0:0:
120,96,33386,1,0,0:0:0:0:
272,40,33394,1,0,0:0:0:0:
128,168,33394,1,0,0:0:0:0:
107,254,33402,1,0,0:0:0:0:
112,128,33411,1,0,0:0:0:0:
216,32,33419,1,0,0:0:0:0:
160,136,33419,1,0,0:0:0:0:
75,142,33435,1,0,0:0:0:0:
112,216,33436,1,0,0:0:0:0:
168,48,33444,1,0,0:0:0:0:
192,88,33444,1,0,0:0:0:0:
256,192,33452,12,0,33485,0:0:0:0:
256,192,33452,12,0,33485,0:0:0:0:
119,269,33452,5,0,0:0:0:0:
328,288,33461,1,0,0:0:0:0:
120,32,33469,1,0,0:0:0:0:
248,112,33469,1,0,0:0:0:0:
75,161,33485,5,0,0:0:0:0:
256,192,33485,8,0,33718,0:0:0:0:
256,192,33485,8,0,33718,0:0:0:0:
272,296,33486,5,0,0:0:0:0:
96,80,33494,1,0,0:0:0:0:
264,208,33494,1,0,0:0:0:0:
134,283,33502,1,0,0:0:0:0:
416,128,33511,1,0,0:0:0:0:
104,112,33519,1,0,0:0:0:0:
320,272,33519,1,0,0:0:0:0:
77,181,33535,1,0,0:0:0:0:
104,160,33544,1,0,0:0:0:0:
336,232,33544,1,0,0:0:0:0:
149,295,33552,1,0,0:0:0:0:
384,88,33561,1,0,0:0:0:0:
120,176,33569,1,0,0:0:0:0:
352,184,33569,1,0,0:0:0:0:
81,201,33585,1,0,0:0:0:0:
288,96,33586,1,0,0:0:0:0:
128,224,33594,1,0,0:0:0:0:
352,128,33594,1,0,0:0:0:0:
166,305,33602,1,0,0:0:0:0:
168,96,33611,1,0,0:0:0:0:
128,304,33619,1,0,0:0:0:0:
344,80,33619,1,0,0:0:0:0:
381,349,33635,1,0,0:0:0:0:
88,219,33635,1,0,0:0:0:0:
136,200,33636,1,0,0:0:0:0:
312,48,33644,1,0,0:0:0:0:
184,314,33652,1,0,0:0:0:0:
128,240,33661,1,0,0:0:0:0:
128,272,33669,1,0,0:0:0:0:
272,48,33669,1,0,0:0:0:0:
350,295,33684,2,0,B|144:264|368:296,3,216.666666666667
364,358,33685,1,0,0:0:0:0:
96,237,33685,1,0,0:0:0:0:
152,280,33686,1,0,0:0:0:0:
136,336,33694,1,0,0:0:0:0:
208,48,33694,1,0,0:0:0:0:
203,320,33702,1,0,0:0:0:0:
224,280,33711,1,0,0:0:0:0:
168,360,33719,1,0,0:0:0:0:
120,96,33719,1,0,0:0:0:0:
345,365,33735,1,0,0:0:0:0:
107,254,33735,1,0,0:0:0:0:
272,256,33736,1,0,0:0:0:0:
200,352,33744,1,0,0:0:0:0:
112,128,33744,1,0,0:0:0:0:
256,192,33751,8,8,33951,0:0:0:0:
223,323,33752,5,0,0:0:0:0:
336,168,33761,1,0,0:0:0:0:
232,352,33769,1,0,0:0:0:0:
112,216,33769,1,0,0:0:0:0:
326,370,33785,1,0,0:0:0:0:
119,269,33785,1,0,0:0:0:0:
384,96,33786,1,0,0:0:0:0:
280,320,33794,1,0,0:0:0:0:
328,288,33794,1,0,0:0:0:0:
242,325,33802,1,0,0:0:0:0:
400,168,33811,1,0,0:0:0:0:
312,288,33819,1,0,0:0:0:0:
272,296,33819,1,0,0:0:0:0:
306,373,33835,1,0,0:0:0:0:
134,283,33835,1,0,0:0:0:0:
400,280,33836,1,0,0:0:0:0:
360,256,33844,1,0,0:0:0:0:
416,128,33844,1,0,0:0:0:0:
262,324,33852,1,0,0:0:0:0:
384,344,33861,1,0,0:0:0:0:
336,200,33869,1,0,0:0:0:0:
287,373,33885,1,0,0:0:0:0:
149,295,33885,1,0,0:0:0:0:
288,352,33886,1,0,0:0:0:0:
240,184,33894,1,0,0:0:0:0:
384,88,33894,1,0,0:0:0:0:
282,321,33902,1,0,0:0:0:0:
224,360,33911,1,0,0:0:0:0:
256,192,33919,12,0,33952,0:0:0:0:
176,128,33919,5,0,0:0:0:0:
288,96,33919,1,0,0:0:0:0:
267,371,33935,1,0,0:0:0:0:
166,305,33935,1,0,0:0:0:0:
168,360,33936,1,0,0:0:0:0:
216,112,33944,1,0,0:0:0:0:
168,96,33944,1,0,0:0:0:0:
301,316,33952,1,0,0:0:0:0:
256,192,33952,8,0,34185,0:0:0:0:
128,344,33961,5,0,0:0:0:0:
264,96,33969,1,0,0:0:0:0:
136,200,33969,1,0,0:0:0:0:
224,120,33984,1,0,0:0:0:0:
224,120,33984,1,0,0:0:0:0:
247,367,33985,1,0,0:0:0:0:
184,314,33985,1,0,0:0:0:0:
104,320,33986,1,0,0:0:0:0:
320,96,33994,1,0,0:0:0:0:
128,240,33994,1,0,0:0:0:0:
319,308,34002,1,0,0:0:0:0:
160,56,34009,1,0,0:0:0:0:
160,56,34009,1,0,0:0:0:0:
80,288,34011,1,0,0:0:0:0:
368,104,34019,1,0,0:0:0:0:
152,280,34019,1,0,0:0:0:0:
96,136,34034,1,0,0:0:0:0:
96,136,34034,1,0,0:0:0:0:
229,360,34035,1,0,0:0:0:0:
203,320,34035,1,0,0:0:0:0:
72,224,34036,1,0,0:0:0:0:
400,136,34044,1,0,0:0:0:0:
224,280,34044,1,0,0:0:0:0:
336,299,34052,1,0,0:0:0:0:
80,184,34061,1,0,0:0:0:0:
400,176,34069,1,0,0:0:0:0:
272,256,34069,1,0,0:0:0:0:
120,96,34084,1,0,0:0:0:0:
120,96,34084,1,0,0:0:0:0:
256,192,34084,8,8,34284,0:0:0:0:
211,352,34085,5,0,0:0:0:0:
223,323,34085,1,0,0:0:0:0:
120,96,34086,1,0,0:0:0:0:
400,240,34094,1,0,0:0:0:0:
336,168,34094,1,0,0:0:0:0:
353,287,34102,1,0,0:0:0:0:
80,184,34109,1,0,0:0:0:0:
80,184,34109,1,0,0:0:0:0:
304,168,34118,1,8,0:0:0:0:
304,168,34118,1,8,0:0:0:0:
352,328,34119,1,0,0:0:0:0:
384,96,34119,1,0,0:0:0:0:
72,224,34134,1,0,0:0:0:0:
72,224,34134,1,0,0:0:0:0:
194,341,34135,1,0,0:0:0:0:
242,325,34135,1,0,0:0:0:0:
96,136,34136,1,0,0:0:0:0:
320,336,34144,1,0,0:0:0:0:
400,168,34144,1,0,0:0:0:0:
367,274,34152,1,0,0:0:0:0:
80,288,34159,1,0,0:0:0:0:
80,288,34159,1,0,0:0:0:0:
160,56,34161,1,0,0:0:0:0:
232,336,34169,1,0,0:0:0:0:
400,280,34169,1,0,0:0:0:0:
104,320,34184,1,0,0:0:0:0:
104,320,34184,1,0,0:0:0:0:
179,329,34185,1,0,0:0:0:0:
262,324,34185,1,0,0:0:0:0:
224,120,34186,1,0,0:0:0:0:
160,120,34194,1,0,0:0:0:0:
384,344,34194,1,0,0:0:0:0:
380,259,34202,1,0,0:0:0:0:
128,344,34209,1,0,0:0:0:0:
128,344,34209,1,0,0:0:0:0:
152,176,34219,1,0,0:0:0:0:
288,352,34219,1,0,0:0:0:0:
168,360,34234,1,0,0:0:0:0:
168,360,34234,1,0,0:0:0:0:
165,314,34235,1,0,0:0:0:0:
282,321,34235,1,0,0:0:0:0:
320,32,34244,1,0,0:0:0:0:
224,360,34244,1,0,0:0:0:0:
391,243,34252,1,0,0:0:0:0:
224,360,34259,1,0,0:0:0:0:
224,360,34259,1,0,0:0:0:0:
168,360,34269,1,0,0:0:0:0:
288,352,34284,1,0,0:0:0:0:
288,352,34284,1,0,0:0:0:0:
153,299,34285,1,0,0:0:0:0:
301,316,34285,1,0,0:0:0:0:
360,64,34294,1,0,0:0:0:0:
128,344,34294,1,0,0:0:0:0:
401,225,34302,1,0,0:0:0:0:
384,344,34309,1,0,0:0:0:0:
384,344,34309,1,0,0:0:0:0:
256,192,34319,12,0,34352,0:0:0:0:
352,160,34319,5,0,0:0:0:0:
104,320,34319,1,0,0:0:0:0:
400,280,34334,1,0,0:0:0:0:
400,280,34334,1,0,0:0:0:0:
143,282,34335,1,0,0:0:0:0:
319,308,34335,1,0,0:0:0:0:
352,280,34344,1,0,0:0:0:0:
80,288,34344,1,0,0:0:0:0:
408,207,34352,1,0,0:0:0:0:
256,192,34352,8,0,34585,0:0:0:0:
400,168,34359,5,0,0:0:0:0:
400,168,34359,1,0,0:0:0:0:
248,312,34369,1,0,0:0:0:0:
72,224,34369,1,0,0:0:0:0:
384,96,34384,1,0,0:0:0:0:
384,96,34384,1,0,0:0:0:0:
134,264,34385,1,0,0:0:0:0:
336,299,34385,1,0,0:0:0:0:
208,320,34394,1,0,0:0:0:0:
80,184,34394,1,0,0:0:0:0:
413,187,34402,1,0,0:0:0:0:
336,168,34409,1,0,0:0:0:0:
336,168,34409,1,0,0:0:0:0:
168,296,34419,1,0,0:0:0:0:
120,96,34419,1,0,0:0:0:0:
272,256,34434,1,0,0:0:0:0:
272,256,34434,1,0,0:0:0:0:
128,245,34435,1,0,0:0:0:0:
353,287,34435,1,0,0:0:0:0:
168,224,34444,1,0,0:0:0:0:
224,120,34451,1,0,0:0:0:0:
416,168,34452,1,0,0:0:0:0:
224,280,34459,1,0,0:0:0:0:
224,280,34459,1,0,0:0:0:0:
192,176,34469,1,0,0:0:0:0:
96,136,34469,1,0,0:0:0:0:
160,56,34476,1,0,0:0:0:0:
152,280,34484,1,0,0:0:0:0:
152,280,34484,1,0,0:0:0:0:
125,225,34485,1,0,0:0:0:0:
367,274,34485,1,0,0:0:0:0:
280,112,34494,1,0,0:0:0:0:
160,56,34494,1,0,0:0:0:0:
96,136,34501,1,0,0:0:0:0:
416,148,34502,1,0,0:0:0:0:
128,240,34509,1,0,0:0:0:0:
128,240,34509,1,0,0:0:0:0:
352,64,34519,1,0,0:0:0:0:
224,120,34519,1,0,0:0:0:0:
136,200,34534,1,0,0:0:0:0:
136,200,34534,1,0,0:0:0:0:
123,206,34535,1,0,0:0:0:0:
380,259,34535,1,0,0:0:0:0:
280,48,34544,1,0,0:0:0:0:
120,96,34551,1,0,0:0:0:0:
414,128,34552,1,0,0:0:0:0:
168,96,34559,1,0,0:0:0:0:
168,96,34559,1,0,0:0:0:0:
168,48,34569,1,0,0:0:0:0:
80,184,34576,1,0,0:0:0:0:
288,96,34584,1,0,0:0:0:0:
288,96,34584,1,0,0:0:0:0:
124,186,34585,1,0,0:0:0:0:
391,243,34585,1,0,0:0:0:0:
304,168,34585,1,8,0:0:0:0:
104,64,34594,1,0,0:0:0:0:
72,224,34601,1,0,0:0:0:0:
410,109,34602,1,0,0:0:0:0:
384,88,34609,1,0,0:0:0:0:
384,88,34609,1,0,0:0:0:0:
96,160,34619,1,0,0:0:0:0:
80,288,34626,1,0,0:0:0:0:
127,166,34635,1,0,0:0:0:0:
401,225,34635,1,0,0:0:0:0:
88,224,34644,1,0,0:0:0:0:
104,320,34651,1,0,0:0:0:0:
256,192,34652,12,0,34685,0:0:0:0:
404,90,34652,5,0,0:0:0:0:
416,128,34659,5,0,0:0:0:0:
416,128,34659,5,0,0:0:0:0:
88,280,34669,1,0,0:0:0:0:
128,344,34676,1,0,0:0:0:0:
272,296,34684,5,0,0:0:0:0:
272,296,34684,5,0,0:0:0:0:
132,147,34685,1,0,0:0:0:0:
408,207,34685,1,0,0:0:0:0:
256,192,34685,8,0,34918,0:0:0:0:
104,320,34694,5,0,0:0:0:0:
168,360,34701,1,0,0:0:0:0:
395,72,34702,1,0,0:0:0:0:
328,288,34709,1,0,0:0:0:0:
328,288,34709,1,0,0:0:0:0:
128,344,34719,1,0,0:0:0:0:
224,360,34726,1,0,0:0:0:0:
112,216,34734,1,0,0:0:0:0:
112,216,34734,1,0,0:0:0:0:
140,129,34735,1,0,0:0:0:0:
413,187,34735,1,0,0:0:0:0:
160,368,34744,1,0,0:0:0:0:
288,352,34751,1,0,0:0:0:0:
384,56,34752,1,0,0:0:0:0:
112,128,34759,1,0,0:0:0:0:
112,128,34759,1,0,0:0:0:0:
224,376,34769,1,0,0:0:0:0:
384,344,34776,1,0,0:0:0:0:
120,96,34784,1,0,0:0:0:0:
120,96,34784,1,0,0:0:0:0:
149,112,34785,1,0,0:0:0:0:
416,168,34785,1,0,0:0:0:0:
264,368,34794,1,0,0:0:0:0:
400,280,34801,1,0,0:0:0:0:
208,48,34809,1,0,0:0:0:0:
208,48,34809,1,0,0:0:0:0:
352,328,34819,1,0,0:0:0:0:
400,168,34826,1,0,0:0:0:0:
272,48,34834,1,0,0:0:0:0:
272,48,34834,1,0,0:0:0:0:
161,95,34835,1,0,0:0:0:0:
416,148,34835,1,0,0:0:0:0:
328,224,34851,1,0,0:0:0:0:
384,96,34851,1,0,0:0:0:0:
312,48,34859,1,0,0:0:0:0:
312,48,34859,1,0,0:0:0:0:
312,352,34869,1,0,0:0:0:0:
392,288,34876,1,0,0:0:0:0:
336,168,34876,1,0,0:0:0:0:
344,80,34884,1,0,0:0:0:0:
344,80,34884,1,0,0:0:0:0:
174,81,34885,1,0,0:0:0:0:
414,128,34885,1,0,0:0:0:0:
392,288,34894,1,0,0:0:0:0:
312,352,34901,1,0,0:0:0:0:
272,256,34901,1,0,0:0:0:0:
160,296,34902,1,0,0:0:0:0:
352,128,34909,1,0,0:0:0:0:
352,128,34909,1,0,0:0:0:0:
328,224,34919,1,0,0:0:0:0:
224,280,34926,1,0,0:0:0:0:
352,184,34934,1,0,0:0:0:0:
352,184,34934,1,0,0:0:0:0:
189,68,34935,1,0,0:0:0:0:
410,109,34935,1,0,0:0:0:0:
352,328,34951,1,0,0:0:0:0:
152,280,34951,1,0,0:0:0:0:
48,136,34952,1,0,0:0:0:0:
336,232,34959,1,0,0:0:0:0:
336,232,34959,1,0,0:0:0:0:
264,368,34976,1,0,0:0:0:0:
128,240,34976,1,0,0:0:0:0:
320,272,34984,1,0,0:0:0:0:
320,272,34984,1,0,0:0:0:0:
205,57,34985,1,0,0:0:0:0:
404,90,34985,1,0,0:0:0:0:
280,144,34985,1,8,0:0:0:0:
224,376,35001,1,0,0:0:0:0:
136,200,35001,1,0,0:0:0:0:
256,176,35002,1,0,0:0:0:0:
264,208,35009,1,0,0:0:0:0:
264,208,35009,1,0,0:0:0:0:
160,368,35026,1,0,0:0:0:0:
168,96,35026,1,0,0:0:0:0:
248,112,35034,1,0,0:0:0:0:
248,112,35034,1,0,0:0:0:0:
223,47,35035,1,0,0:0:0:0:
395,72,35035,1,0,0:0:0:0:
128,344,35051,1,0,0:0:0:0:
288,96,35051,1,0,0:0:0:0:
48,240,35052,1,0,0:0:0:0:
192,88,35059,1,0,0:0:0:0:
192,88,35059,1,0,0:0:0:0:
104,320,35076,1,0,0:0:0:0:
384,88,35076,1,0,0:0:0:0:
160,136,35084,1,0,0:0:0:0:
160,136,35084,1,0,0:0:0:0:
241,40,35085,1,0,0:0:0:0:
384,56,35085,1,0,0:0:0:0:
256,192,35086,12,8,35286,0:0:0:0:
88,280,35101,5,0,0:0:0:0:
88,64,35102,1,0,0:0:0:0:
128,168,35109,1,0,0:0:0:0:
128,168,35109,1,0,0:0:0:0:
416,128,35126,5,0,0:0:0:0:
88,224,35126,1,0,0:0:0:0:
96,216,35134,1,0,0:0:0:0:
96,216,35134,1,0,0:0:0:0:
261,35,35135,1,0,0:0:0:0:
272,296,35151,5,0,0:0:0:0:
96,160,35151,1,0,0:0:0:0:
344,304,35152,1,0,0:0:0:0:
96,248,35159,1,0,0:0:0:0:
96,248,35159,1,0,0:0:0:0:
104,64,35176,1,0,0:0:0:0:
328,288,35176,1,0,0:0:0:0:
88,280,35184,1,0,0:0:0:0:
88,280,35184,1,0,0:0:0:0:
328,224,35184,1,0,0:0:0:0:
280,32,35185,1,0,0:0:0:0:
168,48,35201,1,0,0:0:0:0:
112,216,35201,1,0,0:0:0:0:
216,136,35202,1,0,0:0:0:0:
112,312,35209,1,0,0:0:0:0:
112,312,35209,1,0,0:0:0:0:
392,288,35209,1,0,0:0:0:0:
280,48,35226,1,0,0:0:0:0:
112,128,35226,1,0,0:0:0:0:
176,320,35234,1,0,0:0:0:0:
176,320,35234,1,0,0:0:0:0:
312,352,35234,1,0,0:0:0:0:
300,32,35235,1,0,0:0:0:0:
160,296,35235,1,0,0:0:0:0:
352,64,35251,1,0,0:0:0:0:
120,96,35251,1,0,0:0:0:0:
408,184,35252,1,0,0:0:0:0:
280,112,35276,1,0,0:0:0:0:
208,48,35276,1,0,0:0:0:0:
144,320,35284,1,0,0:0:0:0:
144,320,35284,1,0,0:0:0:0:
352,328,35284,1,0,0:0:0:0:
320,34,35285,1,0,0:0:0:0:
48,136,35285,1,0,0:0:0:0:
192,176,35301,1,0,0:0:0:0:
272,48,35301,1,0,0:0:0:0:
216,272,35302,1,0,0:0:0:0:
224,320,35309,1,0,0:0:0:0:
224,320,35309,1,0,0:0:0:0:
264,368,35309,1,0,0:0:0:0:
280,144,35318,1,8,0:0:0:0:
168,224,35326,1,0,0:0:0:0:
312,48,35326,1,0,0:0:0:0:
272,328,35334,1,0,0:0:0:0:
272,328,35334,1,0,0:0:0:0:
224,376,35334,1,0,0:0:0:0:
339,38,35335,1,0,0:0:0:0:
256,176,35335,1,0,0:0:0:0:
168,296,35351,1,0,0:0:0:0:
344,80,35351,1,0,0:0:0:0:
288,96,35352,1,0,0:0:0:0:
288,344,35359,1,0,0:0:0:0:
288,344,35359,1,0,0:0:0:0:
160,368,35359,1,0,0:0:0:0:
208,320,35376,1,0,0:0:0:0:
352,128,35376,1,0,0:0:0:0:
336,344,35384,1,0,0:0:0:0:
336,344,35384,1,0,0:0:0:0:
128,344,35384,1,0,0:0:0:0:
358,44,35385,1,0,0:0:0:0:
48,240,35385,1,0,0:0:0:0:
248,312,35401,1,0,0:0:0:0:
352,184,35401,1,0,0:0:0:0:
328,320,35402,1,0,0:0:0:0:
368,352,35409,1,0,0:0:0:0:
368,352,35409,1,0,0:0:0:0:
104,320,35409,1,0,0:0:0:0:
256,192,35419,12,8,35619,0:0:0:0:
352,280,35426,5,0,0:0:0:0:
336,232,35426,1,0,0:0:0:0:
416,328,35434,1,0,0:0:0:0:
416,328,35434,1,0,0:0:0:0:
88,280,35434,1,0,0:0:0:0:
376,53,35435,1,0,0:0:0:0:
88,64,35435,1,0,0:0:0:0:
352,160,35451,1,0,0:0:0:0:
320,272,35451,1,0,0:0:0:0:
80,296,35452,1,0,0:0:0:0:
400,280,35459,1,0,0:0:0:0:
400,280,35459,1,0,0:0:0:0:
88,224,35459,1,0,0:0:0:0:
360,64,35476,1,0,0:0:0:0:
264,208,35476,1,0,0:0:0:0:
416,232,35484,1,0,0:0:0:0:
416,232,35484,1,0,0:0:0:0:
96,160,35484,1,0,0:0:0:0:
392,64,35485,1,0,0:0:0:0:
344,304,35485,1,0,0:0:0:0:
248,112,35501,1,0,0:0:0:0:
416,48,35502,1,0,0:0:0:0:
408,176,35509,1,0,0:0:0:0:
408,176,35509,1,0,0:0:0:0:
104,64,35509,1,0,0:0:0:0:
320,32,35526,5,0,0:0:0:0:
192,88,35526,1,0,0:0:0:0:
384,136,35534,1,0,0:0:0:0:
384,136,35534,1,0,0:0:0:0:
168,48,35534,1,0,0:0:0:0:
216,136,35535,1,0,0:0:0:0:
152,176,35551,5,0,0:0:0:0:
160,136,35551,1,0,0:0:0:0:
432,336,35552,1,0,0:0:0:0:
352,104,35559,1,0,0:0:0:0:
352,104,35559,1,0,0:0:0:0:
280,48,35559,1,0,0:0:0:0:
160,120,35576,1,0,0:0:0:0:
128,168,35576,1,0,0:0:0:0:
304,64,35584,1,0,0:0:0:0:
304,64,35584,1,0,0:0:0:0:
352,64,35584,1,0,0:0:0:0:
408,184,35585,1,0,0:0:0:0:
232,336,35601,1,0,0:0:0:0:
96,216,35601,1,0,0:0:0:0:
208,192,35602,1,0,0:0:0:0:
224,48,35609,1,0,0:0:0:0:
224,48,35609,1,0,0:0:0:0:
280,112,35609,1,0,0:0:0:0:
320,336,35626,1,0,0:0:0:0:
96,248,35626,1,0,0:0:0:0:
168,56,35634,1,0,0:0:0:0:
168,56,35634,1,0,0:0:0:0:
192,176,35634,1,0,0:0:0:0:
152,288,35635,1,0,0:0:0:0:
216,272,35635,1,0,0:0:0:0:
352,328,35651,1,0,0:0:0:0:
88,280,35651,1,0,0:0:0:0:
64,176,35652,1,0,0:0:0:0:
128,64,35659,1,0,0:0:0:0:
128,64,35659,1,0,0:0:0:0:
168,224,35659,1,0,0:0:0:0:
400,240,35676,1,0,0:0:0:0:
112,312,35676,1,0,0:0:0:0:
104,80,35684,1,0,0:0:0:0:
104,80,35684,1,0,0:0:0:0:
168,296,35684,1,0,0:0:0:0:
312,400,35685,1,0,0:0:0:0:
288,96,35685,1,0,0:0:0:0:
152,80,35686,6,0,B|184:304|152:96,3,216.666666666667
400,176,35701,1,0,0:0:0:0:
176,320,35701,1,0,0:0:0:0:
96,368,35702,1,0,0:0:0:0:
208,320,35709,1,0,0:0:0:0:
400,136,35726,1,0,0:0:0:0:
248,312,35734,1,0,0:0:0:0:
272,192,35735,1,0,0:0:0:0:
328,320,35735,1,0,0:0:0:0:
368,104,35751,1,0,0:0:0:0:
144,320,35751,1,0,0:0:0:0:
272,64,35752,1,0,0:0:0:0:
352,280,35759,1,0,0:0:0:0:
320,96,35776,1,0,0:0:0:0:
224,320,35776,1,0,0:0:0:0:
352,160,35784,1,0,0:0:0:0:
208,400,35785,1,0,0:0:0:0:
80,296,35785,1,0,0:0:0:0:
264,96,35801,1,0,0:0:0:0:
272,328,35801,1,0,0:0:0:0:
232,272,35802,1,0,0:0:0:0:
360,64,35809,1,0,0:0:0:0:
256,192,35819,12,8,36019,0:0:0:0:
216,112,35826,5,0,0:0:0:0:
288,344,35826,1,0,0:0:0:0:
384,360,35835,1,0,0:0:0:0:
416,48,35835,1,0,0:0:0:0:
176,128,35851,1,0,0:0:0:0:
336,344,35851,1,0,0:0:0:0:
200,192,35852,2,0,B|256:80|192:272,1,162.5
200,192,35852,2,0,B|256:80|192:272,1,162.5
88,88,35852,1,0,0:0:0:0:
320,32,35859,5,0,0:0:0:0:
240,184,35876,1,0,0:0:0:0:
368,352,35876,1,0,0:0:0:0:
152,176,35884,5,0,0:0:0:0:
144,104,35885,1,0,0:0:0:0:
432,336,35885,1,0,0:0:0:0:
336,200,35901,1,0,0:0:0:0:
416,328,35901,1,0,0:0:0:0:
272,336,35902,1,0,0:0:0:0:
160,120,35909,1,0,0:0:0:0:
360,256,35926,1,0,0:0:0:0:
400,280,35926,1,0,0:0:0:0:
232,336,35934,1,0,0:0:0:0:
312,232,35935,1,0,0:0:0:0:
208,192,35935,1,0,0:0:0:0:
312,288,35951,1,0,0:0:0:0:
416,232,35951,1,0,0:0:0:0:
464,48,35952,1,0,0:0:0:0:
320,336,35959,1,0,0:0:0:0:
280,320,35976,1,0,0:0:0:0:
408,176,35976,1,0,0:0:0:0:
352,328,35984,1,0,0:0:0:0:
264,40,35985,1,0,0:0:0:0:
64,176,35985,1,0,0:0:0:0:
232,352,36001,1,0,0:0:0:0:
384,136,36001,1,0,0:0:0:0:
480,280,36002,1,0,0:0:0:0:
400,240,36009,1,0,0:0:0:0:
152,80,36019,6,0,B|184:304|152:96,3,216.666666666667
200,352,36026,1,0,0:0:0:0:
352,104,36026,1,0,0:0:0:0:
400,176,36034,1,0,0:0:0:0:
176,232,36035,1,0,0:0:0:0:
96,368,36035,1,0,0:0:0:0:
168,360,36051,1,0,0:0:0:0:
304,64,36051,1,0,0:0:0:0:
96,288,36052,1,0,0:0:0:0:
400,136,36059,1,0,0:0:0:0:
136,336,36076,1,0,0:0:0:0:
224,48,36076,1,0,0:0:0:0:
368,104,36084,1,0,0:0:0:0:
352,160,36085,1,0,0:0:0:0:
272,64,36085,1,0,0:0:0:0:
128,272,36101,1,0,0:0:0:0:
168,56,36101,1,0,0:0:0:0:
184,72,36102,1,0,0:0:0:0:
320,96,36109,1,0,0:0:0:0:
128,64,36126,1,0,0:0:0:0:
264,96,36134,1,0,0:0:0:0:
128,120,36135,1,0,0:0:0:0:
232,272,36135,1,0,0:0:0:0:
128,304,36151,1,0,0:0:0:0:
104,80,36151,1,0,0:0:0:0:
344,256,36152,1,0,0:0:0:0:
216,112,36159,1,0,0:0:0:0:
128,224,36176,1,0,0:0:0:0:
176,128,36184,1,0,0:0:0:0:
152,368,36185,1,0,0:0:0:0:
88,88,36185,1,0,0:0:0:0:
120,176,36201,1,0,0:0:0:0:
368,112,36202,1,0,0:0:0:0:
240,184,36209,1,0,0:0:0:0:
104,160,36226,1,0,0:0:0:0:
336,200,36234,1,0,0:0:0:0:
400,32,36235,1,0,0:0:0:0:
272,336,36235,1,0,0:0:0:0:
104,112,36251,1,0,0:0:0:0:
360,256,36259,1,0,0:0:0:0:
96,80,36276,1,0,0:0:0:0:
312,288,36284,1,0,0:0:0:0:
112,16,36285,1,0,0:0:0:0:
464,48,36285,1,0,0:0:0:0:
120,32,36301,1,0,0:0:0:0:
280,320,36309,1,0,0:0:0:0:
200,192,36319,2,0,B|256:80|192:272,1,162.5
168,48,36326,1,0,0:0:0:0:
232,352,36334,1,0,0:0:0:0:
256,240,36335,1,0,0:0:0:0:
480,280,36335,1,0,0:0:0:0:
216,32,36351,1,0,0:0:0:0:
200,352,36359,1,0,0:0:0:0:
272,40,36376,1,0,0:0:0:0:
329,274,36384,2,0,P|177:313|48:224,1,325
329,274,36384,2,0,P|177:313|48:224,1,325
168,360,36384,1,0,0:0:0:0:
272,384,36385,1,0,0:0:0:0:
96,288,36385,1,0,0:0:0:0:
312,64,36401,1,0,0:0:0:0:
144,112,36402,1,0,0:0:0:0:
144,112,36402,1,0,0:0:0:0:
136,336,36409,1,0,0:0:0:0:
368,296,36419,6,0,B|144:264|352:296,3,216.666666666667
344,96,36426,1,0,0:0:0:0:
128,272,36434,1,0,0:0:0:0:
80,352,36435,1,0,0:0:0:0:
184,72,36435,1,0,0:0:0:0:
384,144,36451,1,0,0:0:0:0:
168,256,36452,1,0,0:0:0:0:
168,256,36452,1,0,0:0:0:0:
400,224,36476,1,0,0:0:0:0:
224,200,36484,1,0,0:0:0:0:
224,200,36484,1,0,0:0:0:0:
128,304,36484,1,0,0:0:0:0:
384,176,36485,1,0,0:0:0:0:
344,256,36485,1,0,0:0:0:0:
392,280,36501,1,0,0:0:0:0:
328,72,36502,1,0,0:0:0:0:
328,72,36502,1,0,0:0:0:0:
128,224,36509,1,0,0:0:0:0:
384,320,36526,1,0,0:0:0:0:
120,176,36534,1,0,0:0:0:0:
176,216,36535,1,0,0:0:0:0:
368,112,36535,1,0,0:0:0:0:
368,344,36551,1,0,0:0:0:0:
416,288,36552,1,0,0:0:0:0:
416,288,36552,1,0,0:0:0:0:
104,160,36559,1,0,0:0:0:0:
104,112,36584,1,0,0:0:0:0:
360,360,36585,1,0,0:0:0:0:
32,280,36602,1,0,0:0:0:0:
32,280,36602,1,0,0:0:0:0:
96,80,36609,1,0,0:0:0:0:
120,32,36634,1,0,0:0:0:0:
112,176,36635,1,0,0:0:0:0:
48,48,36652,1,0,0:0:0:0:
48,48,36652,1,0,0:0:0:0:
168,48,36659,1,0,0:0:0:0:
216,32,36684,1,0,0:0:0:0:
400,0,36685,1,0,0:0:0:0:
240,336,36702,1,0,0:0:0:0:
240,336,36702,1,0,0:0:0:0:
272,40,36709,1,0,0:0:0:0:
256,248,36719,2,0,B|368:192|176:256,1,162.5
312,64,36734,1,0,0:0:0:0:
168,0,36735,1,0,0:0:0:0:
424,88,36752,1,0,0:0:0:0:
424,88,36752,1,0,0:0:0:0:
315,259,36752,2,0,B|256:80|312:192,1,162.5
344,96,36759,1,0,0:0:0:0:
384,144,36784,1,0,0:0:0:0:
160,352,36785,1,0,0:0:0:0:
280,272,36802,1,0,0:0:0:0:
280,272,36802,1,0,0:0:0:0:
400,224,36809,1,0,0:0:0:0:
392,280,36834,1,0,0:0:0:0:
376,264,36835,1,0,0:0:0:0:
329,274,36851,2,0,P|177:313|48:224,1,325
240,64,36852,1,0,0:0:0:0:
240,64,36852,1,0,0:0:0:0:
384,320,36859,1,0,0:0:0:0:
144,112,36869,1,0,0:0:0:0:
368,344,36884,1,0,0:0:0:0:
192,104,36885,1,0,0:0:0:0:
416,368,36902,1,0,0:0:0:0:
416,368,36902,1,0,0:0:0:0:
359,97,36918,2,0,B|328:304|360:80,3,216.666666666667
359,97,36918,2,0,B|328:304|360:80,3,216.666666666667
168,256,36919,1,0,0:0:0:0:
336,80,36935,1,0,0:0:0:0:
224,200,36951,1,0,0:0:0:0:
448,176,36952,1,0,0:0:0:0:
448,176,36952,1,0,0:0:0:0:
328,72,36969,1,0,0:0:0:0:
304,192,37002,1,0,0:0:0:0:
304,192,37002,1,0,0:0:0:0:
416,288,37019,1,0,0:0:0:0:
80,336,37052,1,0,0:0:0:0:
80,336,37052,1,0,0:0:0:0:
256,248,37052,2,0,B|368:192|176:256,1,162.5
32,280,37069,1,0,0:0:0:0:
315,259,37085,2,0,B|256:80|312:192,1,162.5
96,48,37102,1,0,0:0:0:0:
96,48,37102,1,0,0:0:0:0:
372,351,37118,2,0,B|-8:304|248:136|208:24|208:24|488:160|216:144,1,800
48,48,37119,1,0,0:0:0:0:
432,296,37152,1,0,0:0:0:0:
432,296,37152,1,0,0:0:0:0:
240,336,37169,1,0,0:0:0:0:
184,320,37202,1,0,0:0:0:0:
184,320,37202,1,0,0:0:0:0:
424,88,37219,1,0,0:0:0:0:
173,118,37251,2,0,P|134:270|224:400,1,325
224,96,37252,1,0,0:0:0:0:
224,96,37252,1,0,0:0:0:0:
336,304,37269,1,0,0:0:0:0:
280,272,37269,1,0,0:0:0:0:
344,196,37284,2,0,P|265:102|144:128,1,260,8|6,0:0|0:0,0:0:0:0:
344,196,37284,2,0,P|265:102|144:128,1,260,8|6,0:0|0:0,0:0:0:0:
296,272,37302,1,0,0:0:0:0:
296,272,37302,1,0,0:0:0:0:
256,192,37318,8,8,37518,0:0:0:0:
256,192,37318,8,8,37518,0:0:0:0:
192,280,37319,5,0,0:0:0:0:
240,64,37319,1,0,0:0:0:0:
248,224,37351,1,0,0:0:0:0:
104,184,37352,1,0,0:0:0:0:
104,184,37352,1,0,0:0:0:0:
376,120,37369,1,0,0:0:0:0:
416,368,37369,1,0,0:0:0:0:
359,97,37385,2,0,B|328:304|360:80,3,216.666666666667
296,136,37402,1,0,0:0:0:0:
296,136,37402,1,0,0:0:0:0:
160,32,37419,1,0,0:0:0:0:
448,176,37419,1,0,0:0:0:0:
372,351,37451,2,0,B|-8:304|248:136|208:24|208:24|488:160|216:144,1,800
168,304,37452,1,0,0:0:0:0:
168,304,37452,1,0,0:0:0:0:
168,416,37469,1,0,0:0:0:0:
304,192,37469,1,0,0:0:0:0:
188,132,37485,2,0,B|368:192|256:136,1,162.5
424,64,37502,1,0,0:0:0:0:
424,64,37502,1,0,0:0:0:0:
400,400,37519,1,0,0:0:0:0:
80,336,37519,1,0,0:0:0:0:
464,240,37552,1,0,0:0:0:0:
464,240,37552,1,0,0:0:0:0:
112,208,37569,1,0,0:0:0:0:
96,48,37569,1,0,0:0:0:0:
173,118,37584,2,0,P|134:270|224:400,1,325
256,176,37602,1,0,0:0:0:0:
256,176,37602,1,0,0:0:0:0:
336,304,37602,1,0,0:0:0:0:
360,24,37619,1,0,0:0:0:0:
432,296,37619,1,0,0:0:0:0:
464,136,37652,1,0,0:0:0:0:
464,136,37652,1,0,0:0:0:0:
192,280,37652,1,0,0:0:0:0:
176,168,37669,1,0,0:0:0:0:
184,320,37669,1,0,0:0:0:0:
248,224,37684,1,0,0:0:0:0:
352,296,37702,1,0,0:0:0:0:
352,296,37702,1,0,0:0:0:0:
376,120,37702,1,0,0:0:0:0:
384,208,37719,1,0,0:0:0:0:
224,96,37719,1,0,0:0:0:0:
344,196,37751,2,0,P|265:102|144:128,1,260,8|6,0:0|0:0,0:0:0:0:
160,32,37752,1,0,0:0:0:0:
80,32,37769,1,0,0:0:0:0:
296,272,37769,1,0,0:0:0:0:
350,88,37785,2,0,B|144:120|368:88,3,216.666666666667
256,192,37785,8,8,37985,0:0:0:0:
168,416,37802,5,0,0:0:0:0:
272,0,37819,1,0,0:0:0:0:
104,184,37819,1,0,0:0:0:0:
96,75,37851,2,0,B|144:456|312:200|424:240|424:240|288:-40|304:232,1,800
128,56,37852,1,0,0:0:0:0:
128,56,37852,1,0,0:0:0:0:
400,400,37852,1,0,0:0:0:0:
256,192,37868,8,0,38768,0:0:0:0:
256,144,37869,5,0,0:0:0:0:
296,136,37869,1,0,0:0:0:0:
117,72,37902,1,0,0:0:0:0:
117,72,37902,1,0,0:0:0:0:
112,208,37902,1,0,0:0:0:0:
112,368,37919,1,0,0:0:0:0:
168,304,37919,1,0,0:0:0:0:
108,90,37952,1,0,0:0:0:0:
108,90,37952,1,0,0:0:0:0:
360,24,37952,1,0,0:0:0:0:
400,352,37969,1,0,0:0:0:0:
424,64,37969,1,0,0:0:0:0:
102,109,38002,1,0,0:0:0:0:
102,109,38002,1,0,0:0:0:0:
176,168,38002,1,0,0:0:0:0:
152,16,38019,1,0,0:0:0:0:
464,240,38019,1,0,0:0:0:0:
98,128,38052,1,0,0:0:0:0:
98,128,38052,1,0,0:0:0:0:
384,208,38052,1,0,0:0:0:0:
128,264,38069,1,0,0:0:0:0:
256,176,38069,1,0,0:0:0:0:
96,148,38102,1,0,0:0:0:0:
96,148,38102,1,0,0:0:0:0:
80,32,38102,1,0,0:0:0:0:
350,88,38118,2,0,B|144:120|368:88,3,216.666666666667
352,224,38119,1,0,0:0:0:0:
464,136,38119,1,0,0:0:0:0:
251,103,38151,2,0,P|345:182|320:304,1,260,8|6,0:0|0:0,0:0:0:0:
96,168,38152,1,0,0:0:0:0:
96,168,38152,1,0,0:0:0:0:
272,0,38152,1,0,0:0:0:0:
176,152,38169,1,0,0:0:0:0:
352,296,38169,1,0,0:0:0:0:
256,192,38185,8,8,38385,0:0:0:0:
256,192,38201,8,0,39101,0:0:0:0:
99,187,38202,5,0,0:0:0:0:
99,187,38202,1,0,0:0:0:0:
256,144,38202,1,0,0:0:0:0:
264,344,38219,1,0,0:0:0:0:
104,207,38252,1,0,0:0:0:0:
104,207,38252,1,0,0:0:0:0:
112,368,38252,1,0,0:0:0:0:
312,152,38269,1,0,0:0:0:0:
111,225,38302,1,0,0:0:0:0:
111,225,38302,1,0,0:0:0:0:
400,352,38302,1,0,0:0:0:0:
144,280,38319,1,0,0:0:0:0:
128,56,38319,1,0,0:0:0:0:
121,243,38352,1,0,0:0:0:0:
121,243,38352,1,0,0:0:0:0:
152,16,38352,1,0,0:0:0:0:
384,24,38369,1,0,0:0:0:0:
117,72,38369,1,0,0:0:0:0:
132,259,38402,1,0,0:0:0:0:
132,259,38402,1,0,0:0:0:0:
128,264,38402,1,0,0:0:0:0:
288,120,38418,1,0,0:0:0:0:
288,120,38418,1,0,0:0:0:0:
208,0,38419,1,0,0:0:0:0:
108,90,38419,1,0,0:0:0:0:
352,56,38443,1,0,0:0:0:0:
352,56,38443,1,0,0:0:0:0:
145,274,38452,1,0,0:0:0:0:
145,274,38452,1,0,0:0:0:0:
352,224,38452,1,0,0:0:0:0:
416,136,38468,1,0,0:0:0:0:
416,136,38468,1,0,0:0:0:0:
272,192,38469,1,0,0:0:0:0:
102,109,38469,1,0,0:0:0:0:
251,103,38484,2,0,P|345:182|320:304,1,260,8|6,0:0|0:0,0:0:0:0:
208,168,38486,1,8,0:0:0:0:
159,287,38502,1,0,0:0:0:0:
159,287,38502,1,0,0:0:0:0:
176,152,38502,1,0,0:0:0:0:
392,96,38518,1,0,0:0:0:0:
392,96,38518,1,0,0:0:0:0:
256,192,38518,8,8,38718,0:0:0:0:
312,0,38519,5,0,0:0:0:0:
98,128,38519,1,0,0:0:0:0:
432,184,38543,1,0,0:0:0:0:
432,184,38543,1,0,0:0:0:0:
176,299,38552,1,0,0:0:0:0:
176,299,38552,1,0,0:0:0:0:
264,344,38552,1,0,0:0:0:0:
440,224,38568,1,0,0:0:0:0:
440,224,38568,1,0,0:0:0:0:
152,96,38569,1,0,0:0:0:0:
96,148,38569,1,0,0:0:0:0:
432,288,38593,1,0,0:0:0:0:
432,288,38593,1,0,0:0:0:0:
256,192,38601,8,0,39501,0:0:0:0:
193,308,38602,5,0,0:0:0:0:
193,308,38602,1,0,0:0:0:0:
312,152,38602,1,0,0:0:0:0:
408,320,38618,1,0,0:0:0:0:
408,320,38618,1,0,0:0:0:0:
96,168,38619,1,0,0:0:0:0:
384,344,38643,1,0,0:0:0:0:
384,344,38643,1,0,0:0:0:0:
211,316,38652,1,0,0:0:0:0:
211,316,38652,1,0,0:0:0:0:
144,280,38652,1,0,0:0:0:0:
344,360,38668,1,0,0:0:0:0:
344,360,38668,1,0,0:0:0:0:
99,187,38669,1,0,0:0:0:0:
288,360,38693,1,0,0:0:0:0:
288,360,38693,1,0,0:0:0:0:
230,321,38702,1,0,0:0:0:0:
230,321,38702,1,0,0:0:0:0:
384,24,38702,1,0,0:0:0:0:
224,352,38718,1,0,0:0:0:0:
224,352,38718,1,0,0:0:0:0:
392,320,38719,1,0,0:0:0:0:
104,207,38719,1,0,0:0:0:0:
128,344,38743,1,0,0:0:0:0:
128,344,38743,1,0,0:0:0:0:
250,324,38752,1,0,0:0:0:0:
250,324,38752,1,0,0:0:0:0:
208,0,38752,1,0,0:0:0:0:
112,280,38768,1,0,0:0:0:0:
112,280,38768,1,0,0:0:0:0:
376,331,38769,1,0,0:0:0:0:
111,225,38769,1,0,0:0:0:0:
112,168,38793,1,0,0:0:0:0:
112,168,38793,1,0,0:0:0:0:
270,325,38802,1,0,0:0:0:0:
270,325,38802,1,0,0:0:0:0:
272,192,38802,1,0,0:0:0:0:
128,96,38818,1,0,0:0:0:0:
128,96,38818,1,0,0:0:0:0:
208,168,38819,1,8,0:0:0:0:
358,340,38819,1,0,0:0:0:0:
121,243,38819,1,0,0:0:0:0:
176,168,38843,1,0,0:0:0:0:
176,168,38843,1,0,0:0:0:0:
289,323,38852,1,0,0:0:0:0:
289,323,38852,1,0,0:0:0:0:
312,0,38852,1,0,0:0:0:0:
240,256,38868,1,0,0:0:0:0:
240,256,38868,1,0,0:0:0:0:
339,346,38869,1,0,0:0:0:0:
132,259,38869,1,0,0:0:0:0:
280,200,38884,1,0,0:0:0:0:
280,200,38884,1,0,0:0:0:0:
288,120,38885,1,0,0:0:0:0:
256,192,38886,12,0,39119,0:0:0:0:
288,280,38893,5,0,0:0:0:0:
288,280,38893,1,0,0:0:0:0:
309,320,38902,1,0,0:0:0:0:
309,320,38902,1,0,0:0:0:0:
152,96,38902,1,0,0:0:0:0:
352,56,38910,1,0,0:0:0:0:
360,280,38918,1,0,0:0:0:0:
360,280,38918,1,0,0:0:0:0:
320,350,38919,1,0,0:0:0:0:
145,274,38919,1,0,0:0:0:0:
416,136,38935,1,0,0:0:0:0:
384,240,38943,1,0,0:0:0:0:
384,240,38943,1,0,0:0:0:0:
168,280,38951,1,0,0:0:0:0:
168,280,38951,1,0,0:0:0:0:
328,314,38952,1,0,0:0:0:0:
328,314,38952,1,0,0:0:0:0:
376,200,38968,1,0,0:0:0:0:
376,200,38968,1,0,0:0:0:0:
300,352,38969,1,0,0:0:0:0:
159,287,38969,1,0,0:0:0:0:
392,96,38985,1,0,0:0:0:0:
344,96,38993,1,0,0:0:0:0:
344,96,38993,1,0,0:0:0:0:
346,305,39002,1,0,0:0:0:0:
346,305,39002,1,0,0:0:0:0:
432,184,39010,1,0,0:0:0:0:
448,224,39018,1,0,0:0:0:0:
224,96,39018,1,0,0:0:0:0:
224,96,39018,1,0,0:0:0:0:
448,224,39018,1,0,0:0:0:0:
280,352,39019,1,0,0:0:0:0:
176,299,39019,1,0,0:0:0:0:
440,224,39035,1,0,0:0:0:0:
128,88,39043,1,0,0:0:0:0:
128,88,39043,1,0,0:0:0:0:
363,295,39052,1,0,0:0:0:0:
363,295,39052,1,0,0:0:0:0:
392,320,39052,1,0,0:0:0:0:
432,288,39060,1,0,0:0:0:0:
261,349,39069,1,0,0:0:0:0:
193,308,39069,1,0,0:0:0:0:
400,56,39084,1,0,0:0:0:0:
400,56,39084,1,0,0:0:0:0:
408,320,39085,1,0,0:0:0:0:
96,128,39093,5,0,0:0:0:0:
96,128,39093,5,0,0:0:0:0:
378,283,39102,1,0,0:0:0:0:
378,283,39102,1,0,0:0:0:0:
376,331,39102,1,0,0:0:0:0:
384,344,39110,1,0,0:0:0:0:
240,296,39118,5,0,0:0:0:0:
240,296,39118,5,0,0:0:0:0:
256,192,39119,12,0,39152,0:0:0:0:
241,344,39119,5,0,0:0:0:0:
211,316,39119,1,0,0:0:0:0:
344,360,39135,1,0,0:0:0:0:
184,288,39143,1,0,0:0:0:0:
184,288,39143,1,0,0:0:0:0:
192,80,39151,1,0,0:0:0:0:
192,80,39151,1,0,0:0:0:0:
393,269,39152,1,0,0:0:0:0:
393,269,39152,1,0,0:0:0:0:
358,340,39152,1,0,0:0:0:0:
288,360,39160,1,0,0:0:0:0:
400,216,39168,1,0,0:0:0:0:
400,216,39168,1,0,0:0:0:0:
223,337,39169,1,0,0:0:0:0:
230,321,39169,1,0,0:0:0:0:
224,352,39185,1,0,0:0:0:0:
400,128,39193,1,0,0:0:0:0:
400,128,39193,1,0,0:0:0:0:
405,254,39202,1,0,0:0:0:0:
405,254,39202,1,0,0:0:0:0:
339,346,39202,1,0,0:0:0:0:
128,344,39210,1,0,0:0:0:0:
256,344,39218,1,0,0:0:0:0:
392,96,39218,1,0,0:0:0:0:
392,96,39218,1,0,0:0:0:0:
256,344,39218,1,0,0:0:0:0:
256,192,39219,12,0,39452,0:0:0:0:
280,240,39219,5,8,0:0:0:0:
205,327,39219,1,0,0:0:0:0:
250,324,39219,1,0,0:0:0:0:
112,280,39235,1,0,0:0:0:0:
304,48,39243,1,0,0:0:0:0:
304,48,39243,1,0,0:0:0:0:
416,237,39252,1,0,0:0:0:0:
416,237,39252,1,0,0:0:0:0:
320,350,39252,1,0,0:0:0:0:
112,168,39260,1,0,0:0:0:0:
240,48,39268,1,0,0:0:0:0:
240,48,39268,1,0,0:0:0:0:
189,316,39269,1,0,0:0:0:0:
270,325,39269,1,0,0:0:0:0:
424,152,39284,1,0,0:0:0:0:
424,152,39284,1,0,0:0:0:0:
328,160,39285,1,0,0:0:0:0:
128,96,39285,1,0,0:0:0:0:
200,48,39293,1,0,0:0:0:0:
200,48,39293,1,0,0:0:0:0:
424,219,39302,1,0,0:0:0:0:
424,219,39302,1,0,0:0:0:0:
300,352,39302,1,0,0:0:0:0:
392,96,39310,1,0,0:0:0:0:
176,168,39310,1,0,0:0:0:0:
168,80,39318,1,0,0:0:0:0:
168,80,39318,1,0,0:0:0:0:
174,303,39319,1,0,0:0:0:0:
289,323,39319,1,0,0:0:0:0:
312,32,39335,1,0,0:0:0:0:
240,256,39335,1,0,0:0:0:0:
160,128,39343,1,0,0:0:0:0:
160,128,39343,1,0,0:0:0:0:
80,152,39351,1,0,0:0:0:0:
80,152,39351,1,0,0:0:0:0:
280,200,39351,1,0,0:0:0:0:
120,48,39352,5,14,0:3:0:0:
431,201,39352,1,0,0:0:0:0:
431,201,39352,1,0,0:0:0:0:
280,352,39352,1,0,0:0:0:0:
288,280,39360,1,0,0:0:0:0:
160,184,39368,1,0,0:0:0:0:
160,184,39368,1,0,0:0:0:0:
161,289,39369,1,0,0:0:0:0:
309,320,39369,1,0,0:0:0:0:
352,56,39385,1,0,0:0:0:0:
360,280,39385,1,0,0:0:0:0:
176,232,39393,1,0,0:0:0:0:
176,232,39393,1,0,0:0:0:0:
435,181,39402,1,0,0:0:0:0:
435,181,39402,1,0,0:0:0:0:
261,349,39402,1,0,0:0:0:0:
264,16,39410,1,0,0:0:0:0:
384,240,39410,1,0,0:0:0:0:
344,368,39418,1,0,0:0:0:0:
192,272,39418,1,0,0:0:0:0:
192,272,39418,1,0,0:0:0:0:
344,368,39418,1,0,0:0:0:0:
168,280,39418,1,0,0:0:0:0:
149,272,39419,1,0,0:0:0:0:
328,314,39419,1,0,0:0:0:0:
224,8,39435,1,0,0:0:0:0:
376,200,39435,1,0,0:0:0:0:
248,208,39443,1,0,0:0:0:0:
248,208,39443,1,0,0:0:0:0:
256,192,39452,12,0,39485,0:0:0:0:
437,161,39452,5,0,0:0:0:0:
437,161,39452,1,0,0:0:0:0:
241,344,39452,1,0,0:0:0:0:
208,184,39452,1,14,0:3:0:0:
160,16,39460,1,0,0:0:0:0:
344,96,39460,1,0,0:0:0:0:
264,112,39468,1,0,0:0:0:0:
264,112,39468,1,0,0:0:0:0:
140,255,39469,1,0,0:0:0:0:
346,305,39469,1,0,0:0:0:0:
296,136,39484,1,0,0:0:0:0:
296,136,39484,1,0,0:0:0:0:
128,40,39485,1,0,0:0:0:0:
448,224,39485,1,0,0:0:0:0:
224,96,39485,1,0,0:0:0:0:
320,88,39493,1,0,0:0:0:0:
320,88,39493,1,0,0:0:0:0:
437,142,39502,1,0,0:0:0:0:
437,142,39502,1,0,0:0:0:0:
223,337,39502,1,0,0:0:0:0:
104,64,39510,1,0,0:0:0:0:
128,88,39510,1,0,0:0:0:0:
352,136,39518,1,0,0:0:0:0:
352,136,39518,1,0,0:0:0:0:
132,237,39519,1,0,0:0:0:0:
363,295,39519,1,0,0:0:0:0:
88,104,39535,1,0,0:0:0:0:
384,168,39543,1,0,0:0:0:0:
384,168,39543,1,0,0:0:0:0:
144,344,39551,1,0,0:0:0:0:
144,344,39551,1,0,0:0:0:0:
400,56,39551,1,0,0:0:0:0:
434,122,39552,1,0,0:0:0:0:
434,122,39552,1,0,0:0:0:0:
205,327,39552,1,0,0:0:0:0:
40,112,39552,1,14,0:3:0:0:
96,128,39560,5,0,0:0:0:0:
88,160,39560,1,0,0:0:0:0:
416,216,39568,1,0,0:0:0:0:
416,216,39568,1,0,0:0:0:0:
127,218,39569,1,0,0:0:0:0:
378,283,39569,1,0,0:0:0:0:
240,296,39585,5,0,0:0:0:0:
96,224,39585,1,0,0:0:0:0:
416,248,39593,1,0,0:0:0:0:
416,248,39593,1,0,0:0:0:0:
429,103,39602,1,0,0:0:0:0:
429,103,39602,1,0,0:0:0:0:
189,316,39602,1,0,0:0:0:0:
104,320,39610,1,0,0:0:0:0:
184,288,39610,1,0,0:0:0:0:
392,160,39618,1,0,0:0:0:0:
424,280,39618,1,0,0:0:0:0:
424,280,39618,1,0,0:0:0:0:
392,160,39618,1,0,0:0:0:0:
328,160,39618,1,0,0:0:0:0:
128,272,39618,1,14,0:3:0:0:
192,80,39618,1,0,0:0:0:0:
256,192,39619,12,0,39852,0:0:0:0:
124,198,39619,5,0,0:0:0:0:
393,269,39619,1,0,0:0:0:0:
168,336,39635,1,0,0:0:0:0:
400,216,39635,1,0,0:0:0:0:
400,312,39643,1,0,0:0:0:0:
400,312,39643,1,0,0:0:0:0:
392,96,39643,1,0,0:0:0:0:
422,84,39652,1,0,0:0:0:0:
422,84,39652,1,0,0:0:0:0:
174,303,39652,1,0,0:0:0:0:
208,80,39652,1,14,0:3:0:0:
280,336,39660,1,0,0:0:0:0:
400,128,39660,1,0,0:0:0:0:
336,320,39668,1,0,0:0:0:0:
336,320,39668,1,0,0:0:0:0:
312,32,39668,1,0,0:0:0:0:
304,120,39668,1,14,0:3:0:0:
123,178,39669,1,0,0:0:0:0:
405,254,39669,1,0,0:0:0:0:
160,56,39684,1,0,0:0:0:0:
160,56,39684,1,0,0:0:0:0:
120,48,39685,5,14,0:3:0:0:
352,320,39685,1,0,0:0:0:0:
256,344,39685,1,0,0:0:0:0:
392,96,39685,1,0,0:0:0:0:
413,67,39702,1,0,0:0:0:0:
413,67,39702,1,0,0:0:0:0:
161,289,39702,1,0,0:0:0:0:
280,272,39710,1,0,0:0:0:0:
304,48,39710,1,0,0:0:0:0:
368,320,39718,1,0,0:0:0:0:
368,320,39718,1,0,0:0:0:0:
352,56,39718,1,0,0:0:0:0:
72,160,39718,1,14,0:3:0:0:
125,159,39719,1,0,0:0:0:0:
416,237,39719,1,0,0:0:0:0:
192,208,39735,1,0,0:0:0:0:
240,48,39735,1,0,0:0:0:0:
288,320,39743,1,0,0:0:0:0:
288,320,39743,1,0,0:0:0:0:
264,16,39743,1,0,0:0:0:0:
416,320,39751,1,0,0:0:0:0:
416,320,39751,1,0,0:0:0:0:
248,168,39751,1,0,0:0:0:0:
424,152,39751,1,0,0:0:0:0:
149,272,39752,1,0,0:0:0:0:
168,88,39752,1,14,0:3:0:0:
168,160,39760,1,0,0:0:0:0:
200,48,39760,1,0,0:0:0:0:
240,328,39768,1,0,0:0:0:0:
240,328,39768,1,0,0:0:0:0:
224,8,39768,1,0,0:0:0:0:
264,264,39768,1,14,0:3:0:0:
128,139,39769,1,0,0:0:0:0:
424,219,39769,1,0,0:0:0:0:
208,184,39785,1,14,0:3:0:0:
168,88,39785,1,0,0:0:0:0:
168,80,39785,1,0,0:0:0:0:
224,344,39793,1,0,0:0:0:0:
224,344,39793,1,0,0:0:0:0:
160,16,39793,1,0,0:0:0:0:
140,255,39802,1,0,0:0:0:0:
208,64,39810,1,0,0:0:0:0:
160,128,39810,1,0,0:0:0:0:
432,48,39818,1,0,0:0:0:0:
176,344,39818,1,0,0:0:0:0:
176,344,39818,1,0,0:0:0:0:
432,48,39818,1,0,0:0:0:0:
128,40,39818,1,0,0:0:0:0:
176,80,39818,1,14,0:3:0:0:
168,280,39818,1,0,0:0:0:0:
80,152,39818,1,0,0:0:0:0:
134,120,39819,1,0,0:0:0:0:
431,201,39819,1,0,0:0:0:0:
248,72,39835,1,0,0:0:0:0:
160,184,39835,1,0,0:0:0:0:
144,352,39843,1,0,0:0:0:0:
144,352,39843,1,0,0:0:0:0:
104,64,39843,1,0,0:0:0:0:
256,192,39852,12,0,39885,0:0:0:0:
132,237,39852,5,0,0:0:0:0:
224,56,39852,1,14,0:3:0:0:
352,104,39860,1,0,0:0:0:0:
176,232,39860,1,0,0:0:0:0:
96,328,39868,1,0,0:0:0:0:
96,328,39868,1,0,0:0:0:0:
88,104,39868,1,0,0:0:0:0:
272,272,39868,1,14,0:3:0:0:
143,102,39869,1,0,0:0:0:0:
435,181,39869,1,0,0:0:0:0:
80,40,39884,1,0,0:0:0:0:
80,40,39884,1,0,0:0:0:0:
40,112,39885,1,14,0:3:0:0:
224,0,39885,1,0,0:0:0:0:
352,224,39885,1,0,0:0:0:0:
344,368,39885,1,0,0:0:0:0:
192,272,39885,1,0,0:0:0:0:
112,280,39893,1,0,0:0:0:0:
112,280,39893,1,0,0:0:0:0:
88,160,39893,1,0,0:0:0:0:
127,218,39902,1,0,0:0:0:0:
360,320,39910,1,0,0:0:0:0:
248,208,39910,1,0,0:0:0:0:
96,232,39918,1,0,0:0:0:0:
96,232,39918,1,0,0:0:0:0:
96,224,39918,1,0,0:0:0:0:
448,120,39918,1,14,0:3:0:0:
153,85,39919,1,0,0:0:0:0:
437,161,39919,1,0,0:0:0:0:
264,112,39935,1,0,0:0:0:0:
104,176,39943,1,0,0:0:0:0:
104,176,39943,1,0,0:0:0:0:
104,320,39943,1,0,0:0:0:0:
248,288,39951,1,0,0:0:0:0:
248,288,39951,1,0,0:0:0:0:
128,272,39951,1,14,0:3:0:0:
392,48,39951,1,0,0:0:0:0:
296,136,39951,1,0,0:0:0:0:
124,198,39952,1,0,0:0:0:0:
160,168,39952,1,14,0:3:0:0:
320,352,39960,5,0,0:0:0:0:
320,88,39960,1,0,0:0:0:0:
128,136,39968,1,0,0:0:0:0:
128,136,39968,1,0,0:0:0:0:
168,336,39968,1,0,0:0:0:0:
160,240,39968,1,14,0:3:0:0:
165,70,39969,1,0,0:0:0:0:
437,142,39969,1,0,0:0:0:0:
152,208,39985,5,0,0:0:0:0:
208,80,39985,1,14,0:3:0:0:
352,136,39985,1,0,0:0:0:0:
160,104,39993,1,0,0:0:0:0:
160,104,39993,1,0,0:0:0:0:
280,336,39993,1,0,0:0:0:0:
304,120,40001,1,14,0:3:0:0:
123,178,40002,1,0,0:0:0:0:
160,264,40010,1,0,0:0:0:0:
384,168,40010,1,0,0:0:0:0:
352,104,40018,1,0,0:0:0:0:
208,64,40018,1,0,0:0:0:0:
208,64,40018,1,0,0:0:0:0:
352,104,40018,1,0,0:0:0:0:
352,320,40018,1,0,0:0:0:0:
408,264,40018,1,14,0:3:0:0:
368,256,40018,1,0,0:0:0:0:
144,344,40018,1,0,0:0:0:0:
179,55,40019,1,0,0:0:0:0:
434,122,40019,1,0,0:0:0:0:
232,48,40035,1,0,0:0:0:0:
416,216,40035,1,0,0:0:0:0:
288,48,40043,1,0,0:0:0:0:
288,48,40043,1,0,0:0:0:0:
280,272,40043,1,0,0:0:0:0:
72,160,40051,1,14,0:3:0:0:
125,159,40052,1,0,0:0:0:0:
248,304,40052,1,14,0:3:0:0:
320,48,40060,1,0,0:0:0:0:
416,248,40060,1,0,0:0:0:0:
344,56,40068,1,0,0:0:0:0:
344,56,40068,1,0,0:0:0:0:
192,208,40068,1,0,0:0:0:0:
320,80,40068,1,14,0:3:0:0:
194,43,40069,1,0,0:0:0:0:
429,103,40069,1,0,0:0:0:0:
184,112,40084,1,0,0:0:0:0:
184,112,40084,1,0,0:0:0:0:
248,168,40084,1,0,0:0:0:0:
400,328,40085,5,14,0:3:0:0:
400,328,40085,5,14,0:3:0:0:
168,88,40085,1,14,0:3:0:0:
104,192,40085,1,0,0:0:0:0:
352,56,40085,1,0,0:0:0:0:
392,160,40085,1,0,0:0:0:0:
424,280,40085,1,0,0:0:0:0:
384,64,40093,1,0,0:0:0:0:
384,64,40093,1,0,0:0:0:0:
168,160,40093,1,0,0:0:0:0:
264,264,40101,1,14,0:3:0:0:
128,139,40102,1,0,0:0:0:0:
400,144,40110,1,0,0:0:0:0:
400,312,40110,1,0,0:0:0:0:
408,80,40118,1,0,0:0:0:0:
408,80,40118,1,0,0:0:0:0:
168,88,40118,1,0,0:0:0:0:
272,272,40118,1,14,0:3:0:0:
211,32,40119,1,0,0:0:0:0:
422,84,40119,1,0,0:0:0:0:
400,208,40135,1,0,0:0:0:0:
336,320,40135,1,0,0:0:0:0:
208,64,40143,1,0,0:0:0:0:
176,80,40151,1,14,0:3:0:0:
168,280,40151,1,0,0:0:0:0:
296,24,40151,1,0,0:0:0:0:
160,56,40151,1,0,0:0:0:0:
134,120,40152,1,0,0:0:0:0:
80,232,40152,1,14,0:3:0:0:
400,248,40160,1,0,0:0:0:0:
248,72,40168,1,0,0:0:0:0:
448,120,40168,1,14,0:3:0:0:
229,24,40169,1,0,0:0:0:0:
413,67,40169,1,0,0:0:0:0:
264,240,40185,1,14,0:3:0:0:
264,240,40185,1,14,0:3:0:0:
224,56,40185,1,14,0:3:0:0:
368,280,40185,1,0,0:0:0:0:
368,320,40185,1,0,0:0:0:0:
352,104,40193,1,0,0:0:0:0:
272,272,40201,1,14,0:3:0:0:
143,102,40202,1,0,0:0:0:0:
320,288,40210,1,0,0:0:0:0:
288,320,40210,1,0,0:0:0:0:
224,0,40218,1,0,0:0:0:0:
352,224,40218,1,0,0:0:0:0:
216,160,40218,1,14,0:3:0:0:
296,368,40218,1,0,0:0:0:0:
416,320,40218,1,0,0:0:0:0:
247,17,40219,1,0,0:0:0:0:
264,288,40235,1,0,0:0:0:0:
240,328,40235,1,0,0:0:0:0:
360,320,40243,1,0,0:0:0:0:
448,120,40251,1,14,0:3:0:0:
153,85,40252,1,0,0:0:0:0:
248,200,40252,1,14,0:3:0:0:
216,272,40260,1,0,0:0:0:0:
224,344,40260,1,0,0:0:0:0:
408,264,40268,1,14,0:3:0:0:
267,13,40269,1,0,0:0:0:0:
392,48,40284,1,0,0:0:0:0:
336,408,40285,1,14,0:3:0:0:
336,408,40285,1,14,0:3:0:0:
160,168,40285,1,14,0:3:0:0:
80,104,40285,1,0,0:0:0:0:
176,256,40285,1,0,0:0:0:0:
432,48,40285,1,0,0:0:0:0:
176,344,40285,1,0,0:0:0:0:
320,352,40293,5,0,0:0:0:0:
160,240,40301,1,14,0:3:0:0:
165,70,40302,1,0,0:0:0:0:
240,200,40310,1,0,0:0:0:0:
144,352,40310,1,0,0:0:0:0:
152,208,40318,5,0,0:0:0:0:
320,80,40318,1,14,0:3:0:0:
287,11,40319,1,0,0:0:0:0:
336,184,40335,1,0,0:0:0:0:
96,328,40335,1,0,0:0:0:0:
160,264,40343,1,0,0:0:0:0:
176,320,40351,1,14,0:3:0:0:
408,264,40351,1,14,0:3:0:0:
368,256,40351,1,0,0:0:0:0:
312,152,40351,1,0,0:0:0:0:
80,40,40351,1,0,0:0:0:0:
179,55,40352,1,0,0:0:0:0:
120,48,40352,1,14,0:3:0:0:
360,128,40360,1,0,0:0:0:0:
112,280,40360,1,0,0:0:0:0:
232,48,40368,1,0,0:0:0:0:
306,11,40369,1,0,0:0:0:0:
368,240,40385,1,14,0:3:0:0:
368,240,40385,1,14,0:3:0:0:
248,304,40385,1,14,0:3:0:0:
312,96,40385,1,0,0:0:0:0:
96,232,40385,1,0,0:0:0:0:
320,48,40393,1,0,0:0:0:0:
328,144,40401,1,14,0:3:0:0:
320,80,40401,1,14,0:3:0:0:
194,43,40402,1,0,0:0:0:0:
280,64,40410,1,0,0:0:0:0:
104,176,40410,1,0,0:0:0:0:
104,192,40418,1,0,0:0:0:0:
352,56,40418,1,0,0:0:0:0:
104,304,40418,1,0,0:0:0:0:
248,288,40418,1,0,0:0:0:0:
326,14,40419,1,0,0:0:0:0:
232,32,40435,1,0,0:0:0:0:
128,136,40435,1,0,0:0:0:0:
400,144,40443,1,0,0:0:0:0:
288,376,40451,1,14,0:3:0:0:
272,272,40451,1,14,0:3:0:0:
211,32,40452,1,0,0:0:0:0:
208,184,40452,1,14,0:3:0:0:
200,32,40460,1,0,0:0:0:0:
160,104,40460,1,0,0:0:0:0:
400,208,40468,1,0,0:0:0:0:
345,19,40469,1,0,0:0:0:0:
256,184,40484,1,8,0:0:0:0:
256,184,40484,1,8,0:0:0:0:
296,24,40484,1,0,0:0:0:0:
360,280,40485,1,14,0:3:0:0:
360,280,40485,1,14,0:3:0:0:
80,232,40485,1,14,0:3:0:0:
288,56,40485,1,0,0:0:0:0:
168,24,40485,1,0,0:0:0:0:
352,104,40485,1,0,0:0:0:0:
208,64,40485,1,0,0:0:0:0:
400,248,40493,1,0,0:0:0:0:
184,184,40501,1,14,0:3:0:0:
448,120,40501,1,14,0:3:0:0:
229,24,40502,1,0,0:0:0:0:
136,48,40510,1,0,0:0:0:0:
288,48,40510,1,0,0:0:0:0:
368,280,40518,1,0,0:0:0:0:
80,208,40518,1,14,0:3:0:0:
364,26,40519,1,0,0:0:0:0:
128,112,40535,1,0,0:0:0:0:
344,56,40535,1,0,0:0:0:0:
320,288,40543,1,0,0:0:0:0:
368,272,40551,1,14,0:3:0:0:
216,160,40551,1,14,0:3:0:0:
296,368,40551,1,0,0:0:0:0:
392,288,40551,1,0,0:0:0:0:
184,112,40551,1,0,0:0:0:0:
400,328,40552,5,14,0:3:0:0:
247,17,40552,1,0,0:0:0:0:
40,112,40552,1,14,0:3:0:0:
384,64,40560,1,0,0:0:0:0:
264,288,40568,1,0,0:0:0:0:
381,35,40569,1,0,0:0:0:0:
392,224,40585,1,14,0:3:0:0:
392,224,40585,1,14,0:3:0:0:
248,200,40585,1,14,0:3:0:0:
128,80,40585,1,0,0:0:0:0:
408,80,40585,1,0,0:0:0:0:
216,272,40593,1,0,0:0:0:0:
176,176,40601,1,14,0:3:0:0:
408,264,40601,1,14,0:3:0:0:
267,13,40602,1,0,0:0:0:0:
128,160,40610,1,0,0:0:0:0:
80,104,40618,1,0,0:0:0:0:
176,256,40618,1,0,0:0:0:0:
208,80,40618,1,14,0:3:0:0:
128,32,40618,1,0,0:0:0:0:
120,208,40635,1,0,0:0:0:0:
240,200,40643,1,0,0:0:0:0:
328,0,40651,1,14,0:3:0:0:
320,80,40651,1,14,0:3:0:0:
256,184,40652,1,8,0:0:0:0:
256,184,40652,1,8,0:0:0:0:
287,11,40652,1,0,0:0:0:0:
208,80,40652,1,14,0:3:0:0:
264,240,40652,1,14,0:3:0:0:
104,224,40660,1,0,0:0:0:0:
336,184,40668,1,0,0:0:0:0:
312,152,40684,1,0,0:0:0:0:
280,288,40685,1,14,0:3:0:0:
280,288,40685,1,14,0:3:0:0:
120,48,40685,1,14,0:3:0:0:
400,16,40685,1,0,0:0:0:0:
104,272,40685,1,0,0:0:0:0:
360,128,40693,1,0,0:0:0:0:
208,288,40701,1,14,0:3:0:0:
306,11,40702,1,0,0:0:0:0:
96,304,40710,1,0,0:0:0:0:
312,96,40718,1,0,0:0:0:0:
40,112,40718,1,14,0:3:0:0:
120,352,40735,1,0,0:0:0:0:
280,64,40743,1,0,0:0:0:0:
184,40,40751,1,14,0:3:0:0:
104,304,40751,1,0,0:0:0:0:
408,368,40751,1,0,0:0:0:0:
326,14,40752,1,0,0:0:0:0:
80,208,40752,1,14,0:3:0:0:
336,408,40752,1,14,0:3:0:0:
168,336,40760,1,0,0:0:0:0:
232,32,40768,1,0,0:0:0:0:
144,200,40785,1,14,0:3:0:0:
144,200,40785,1,14,0:3:0:0:
208,184,40785,1,14,0:3:0:0:
216,352,40785,1,0,0:0:0:0:
200,32,40793,1,0,0:0:0:0:
368,128,40801,1,14,0:3:0:0:
345,19,40802,1,0,0:0:0:0:
272,344,40810,1,0,0:0:0:0:
182,274,40818,2,0,P|334:313|464:224,1,325
182,274,40818,2,0,P|334:313|464:224,1,325
288,56,40818,1,0,0:0:0:0:
168,24,40818,1,0,0:0:0:0:
208,184,40818,1,14,0:3:0:0:
160,200,40818,1,0,0:0:0:0:
312,320,40835,1,0,0:0:0:0:
136,48,40843,1,0,0:0:0:0:
176,176,40851,1,14,0:3:0:0:
80,208,40851,1,14,0:3:0:0:
364,26,40852,1,0,0:0:0:0:
368,240,40852,1,14,0:3:0:0:
344,288,40860,1,0,0:0:0:0:
128,112,40868,1,0,0:0:0:0:
392,288,40884,1,0,0:0:0:0:
216,368,40885,1,14,0:3:0:0:
216,368,40885,1,14,0:3:0:0:
40,112,40885,1,14,0:3:0:0:
344,96,40885,1,0,0:0:0:0:
384,240,40885,1,0,0:0:0:0:
328,0,40901,1,14,0:3:0:0:
381,35,40902,1,0,0:0:0:0:
400,160,40910,1,0,0:0:0:0:
288,200,40918,1,0,0:0:0:0:
288,200,40918,1,0,0:0:0:0:
128,80,40918,1,0,0:0:0:0:
120,48,40918,1,14,0:3:0:0:
392,104,40935,1,0,0:0:0:0:
128,160,40943,1,0,0:0:0:0:
288,232,40951,1,14,0:3:0:0:
208,80,40951,1,14,0:3:0:0:
128,32,40951,1,0,0:0:0:0:
336,264,40951,1,0,0:0:0:0:
256,184,40951,1,8,0:0:0:0:
320,80,40952,1,14,0:3:0:0:
360,280,40952,1,14,0:3:0:0:
384,64,40960,1,0,0:0:0:0:
120,208,40968,1,0,0:0:0:0:
248,200,40985,1,14,0:3:0:0:
248,200,40985,1,14,0:3:0:0:
208,80,40985,1,14,0:3:0:0:
368,40,40985,1,0,0:0:0:0:
104,224,40993,1,0,0:0:0:0:
184,40,41001,1,14,0:3:0:0:
408,264,41002,1,14,0:3:0:0:
400,16,41018,1,0,0:0:0:0:
104,272,41018,1,0,0:0:0:0:
248,200,41018,1,14,0:3:0:0:
96,304,41043,1,0,0:0:0:0:
368,128,41051,1,14,0:3:0:0:
40,112,41051,1,14,0:3:0:0:
184,112,41052,1,0,0:0:0:0:
184,112,41052,1,0,0:0:0:0:
216,160,41052,1,14,0:3:0:0:
392,224,41052,1,14,0:3:0:0:
120,352,41068,1,0,0:0:0:0:
408,368,41084,1,0,0:0:0:0:
400,328,41085,1,14,0:3:0:0:
400,328,41085,1,14,0:3:0:0:
80,208,41085,1,14,0:3:0:0:
168,336,41093,1,0,0:0:0:0:
448,120,41102,1,14,0:3:0:0:
352,104,41118,1,0,0:0:0:0:
352,104,41118,1,0,0:0:0:0:
216,352,41118,1,0,0:0:0:0:
80,232,41118,1,14,0:3:0:0:
256,184,41119,1,8,0:0:0:0:
272,344,41143,1,0,0:0:0:0:
208,184,41151,1,14,0:3:0:0:
160,200,41151,1,0,0:0:0:0:
272,272,41152,1,14,0:3:0:0:
280,288,41152,1,14,0:3:0:0:
312,320,41168,1,0,0:0:0:0:
264,240,41185,1,14,0:3:0:0:
264,240,41185,1,14,0:3:0:0:
344,288,41193,1,0,0:0:0:0:
320,80,41202,1,14,0:3:0:0:
344,96,41218,1,0,0:0:0:0:
384,240,41218,1,0,0:0:0:0:
248,304,41218,1,14,0:3:0:0:
400,160,41243,1,0,0:0:0:0:
240,368,41251,1,14,0:3:0:0:
120,48,41251,1,14,0:3:0:0:
80,40,41252,1,0,0:0:0:0:
80,40,41252,1,0,0:0:0:0:
408,264,41252,1,14,0:3:0:0:
144,200,41252,1,14,0:3:0:0:
392,104,41268,1,0,0:0:0:0:
336,264,41284,1,0,0:0:0:0:
336,408,41285,1,14,0:3:0:0:
336,408,41285,1,14,0:3:0:0:
320,80,41285,1,14,0:3:0:0:
182,274,41285,2,0,P|334:313|464:224,1,325
384,64,41293,1,0,0:0:0:0:
160,240,41302,1,14,0:3:0:0:
432,48,41318,1,0,0:0:0:0:
432,48,41318,1,0,0:0:0:0:
368,40,41318,1,0,0:0:0:0:
160,168,41318,1,14,0:3:0:0:
408,264,41335,1,14,0:3:0:0:
368,240,41351,1,14,0:3:0:0:
248,200,41351,1,14,0:3:0:0:
264,192,41351,1,8,0:0:0:0:
448,120,41352,1,14,0:3:0:0:
216,368,41352,1,14,0:3:0:0:
368,240,41385,1,14,0:3:0:0:
368,240,41385,1,14,0:3:0:0:
216,160,41385,1,14,0:3:0:0:
288,200,41385,1,0,0:0:0:0:
272,272,41402,1,14,0:3:0:0:
224,56,41418,1,14,0:3:0:0:
413,67,41434,1,0,0:0:0:0:
413,67,41434,1,0,0:0:0:0:
448,120,41435,1,14,0:3:0:0:
336,408,41451,1,14,0:3:0:0:
80,232,41451,1,14,0:3:0:0:
160,56,41452,1,0,0:0:0:0:
160,56,41452,1,0,0:0:0:0:
176,80,41452,1,14,0:3:0:0:
248,200,41452,1,14,0:3:0:0:
422,84,41484,1,0,0:0:0:0:
422,84,41484,1,0,0:0:0:0:
240,368,41485,1,14,0:3:0:0:
240,368,41485,1,14,0:3:0:0:
272,272,41485,1,14,0:3:0:0:
264,264,41502,1,14,0:3:0:0:
168,88,41518,5,14,0:3:0:0:
392,160,41518,1,0,0:0:0:0:
392,160,41518,1,0,0:0:0:0:
264,192,41519,1,8,0:0:0:0:
184,112,41519,1,0,0:0:0:0:
429,103,41534,1,0,0:0:0:0:
429,103,41534,1,0,0:0:0:0:
320,80,41535,1,14,0:3:0:0:
264,240,41551,1,14,0:3:0:0:
248,304,41551,1,14,0:3:0:0:
72,160,41552,1,14,0:3:0:0:
400,328,41552,1,14,0:3:0:0:
434,122,41584,1,0,0:0:0:0:
434,122,41584,1,0,0:0:0:0:
144,344,41585,1,0,0:0:0:0:
144,344,41585,1,0,0:0:0:0:
408,264,41585,1,14,0:3:0:0:
352,104,41585,1,0,0:0:0:0:
304,120,41602,1,14,0:3:0:0:
208,80,41618,5,14,0:3:0:0:
437,142,41634,1,0,0:0:0:0:
437,142,41634,1,0,0:0:0:0:
160,240,41635,1,14,0:3:0:0:
400,328,41651,1,14,0:3:0:0:
160,168,41651,1,14,0:3:0:0:
296,136,41652,1,0,0:0:0:0:
296,136,41652,1,0,0:0:0:0:
128,272,41652,1,14,0:3:0:0:
264,240,41652,1,14,0:3:0:0:
437,161,41684,1,0,0:0:0:0:
437,161,41684,1,0,0:0:0:0:
264,192,41684,1,8,0:0:0:0:
368,128,41685,1,14,0:3:0:0:
368,128,41685,1,14,0:3:0:0:
448,120,41685,1,14,0:3:0:0:
173,265,41685,2,0,P|134:113|224:-16,1,325
344,368,41718,1,0,0:0:0:0:
167,196,41718,2,0,P|246:102|368:128,1,260,8|6,0:0|0:0,0:0:0:0:
167,196,41718,2,0,P|246:102|368:128,1,260,8|6,0:0|0:0,0:0:0:0:
344,368,41718,1,0,0:0:0:0:
40,112,41718,1,14,0:3:0:0:
80,40,41719,1,0,0:0:0:0:
435,181,41734,1,0,0:0:0:0:
435,181,41734,1,0,0:0:0:0:
184,40,41735,1,14,0:3:0:0:
184,40,41735,1,14,0:3:0:0:
272,272,41735,1,14,0:3:0:0:
248,200,41751,1,14,0:3:0:0:
224,56,41751,1,14,0:3:0:0:
336,408,41752,1,14,0:3:0:0:
431,201,41784,1,0,0:0:0:0:
431,201,41784,1,0,0:0:0:0:
288,232,41785,1,14,0:3:0:0:
288,232,41785,1,14,0:3:0:0:
176,80,41785,1,14,0:3:0:0:
248,160,41785,1,0,0:0:0:0:
432,48,41785,1,0,0:0:0:0:
208,184,41818,5,14,0:3:0:0:
424,219,41834,1,0,0:0:0:0:
424,219,41834,1,0,0:0:0:0:
328,0,41835,1,14,0:3:0:0:
328,0,41835,1,14,0:3:0:0:
264,264,41835,1,14,0:3:0:0:
168,88,41851,5,14,0:3:0:0:
216,368,41851,1,14,0:3:0:0:
424,152,41852,1,0,0:0:0:0:
424,152,41852,1,0,0:0:0:0:
264,192,41852,1,8,0:0:0:0:
368,240,41852,1,14,0:3:0:0:
416,237,41884,1,0,0:0:0:0:
416,237,41884,1,0,0:0:0:0:
176,176,41885,1,14,0:3:0:0:
176,176,41885,1,14,0:3:0:0:
72,160,41885,1,14,0:3:0:0:
413,67,41901,1,0,0:0:0:0:
120,48,41918,5,14,0:3:0:0:
256,344,41918,1,0,0:0:0:0:
256,344,41918,1,0,0:0:0:0:
336,264,41919,1,0,0:0:0:0:
160,56,41919,1,0,0:0:0:0:
405,254,41934,1,0,0:0:0:0:
405,254,41934,1,0,0:0:0:0:
368,128,41935,1,14,0:3:0:0:
368,128,41935,1,14,0:3:0:0:
304,120,41935,1,14,0:3:0:0:
208,80,41951,5,14,0:3:0:0:
144,200,41951,1,14,0:3:0:0:
422,84,41951,1,0,0:0:0:0:
240,368,41952,1,14,0:3:0:0:
393,269,41984,1,0,0:0:0:0:
393,269,41984,1,0,0:0:0:0:
184,40,41985,1,14,0:3:0:0:
184,40,41985,1,14,0:3:0:0:
128,272,41985,1,14,0:3:0:0:
344,96,41985,1,0,0:0:0:0:
392,160,41985,1,0,0:0:0:0:
429,103,42001,1,0,0:0:0:0:
173,265,42018,2,0,P|134:113|224:-16,1,325
378,283,42034,1,0,0:0:0:0:
378,283,42034,1,0,0:0:0:0:
208,288,42035,1,14,0:3:0:0:
208,288,42035,1,14,0:3:0:0:
280,288,42051,1,14,0:3:0:0:
40,112,42051,1,14,0:3:0:0:
434,122,42051,1,0,0:0:0:0:
400,56,42052,1,0,0:0:0:0:
400,56,42052,1,0,0:0:0:0:
160,200,42052,1,0,0:0:0:0:
144,344,42052,1,0,0:0:0:0:
363,295,42084,1,0,0:0:0:0:
363,295,42084,1,0,0:0:0:0:
328,0,42085,1,14,0:3:0:0:
328,0,42085,1,14,0:3:0:0:
437,142,42101,1,0,0:0:0:0:
256,192,42118,12,0,42151,0:0:0:0:
448,224,42118,5,0,0:0:0:0:
448,224,42118,1,0,0:0:0:0:
248,160,42118,1,0,0:0:0:0:
408,368,42119,1,0,0:0:0:0:
296,136,42119,1,0,0:0:0:0:
346,305,42134,1,0,0:0:0:0:
346,305,42134,1,0,0:0:0:0:
176,176,42135,1,14,0:3:0:0:
176,176,42135,1,14,0:3:0:0:
208,184,42151,5,14,0:3:0:0:
437,161,42151,5,0,0:0:0:0:
392,224,42151,1,14,0:3:0:0:
256,192,42151,8,0,42384,0:0:0:0:
368,128,42152,5,14,0:3:0:0:
328,314,42184,1,0,0:0:0:0:
328,314,42184,1,0,0:0:0:0:
368,272,42185,1,14,0:3:0:0:
368,272,42185,1,14,0:3:0:0:
400,16,42185,1,0,0:0:0:0:
344,368,42185,1,0,0:0:0:0:
167,196,42185,2,0,P|246:102|368:128,1,260,8|6,0:0|0:0,0:0:0:0:
435,181,42201,1,0,0:0:0:0:
184,40,42202,1,14,0:3:0:0:
309,320,42234,1,0,0:0:0:0:
309,320,42234,1,0,0:0:0:0:
184,184,42235,1,14,0:3:0:0:
184,184,42235,1,14,0:3:0:0:
360,280,42251,5,14,0:3:0:0:
120,48,42251,5,14,0:3:0:0:
431,201,42251,1,0,0:0:0:0:
280,200,42252,1,0,0:0:0:0:
280,200,42252,1,0,0:0:0:0:
336,264,42252,1,0,0:0:0:0:
128,32,42252,1,0,0:0:0:0:
288,232,42252,1,14,0:3:0:0:
289,323,42284,1,0,0:0:0:0:
289,323,42284,1,0,0:0:0:0:
96,308,42285,2,0,B|144:-72|312:184|424:144|424:144|288:424|304:152,1,800
288,376,42285,1,14,0:3:0:0:
288,376,42285,1,14,0:3:0:0:
381,35,42301,1,0,0:0:0:0:
424,219,42301,1,0,0:0:0:0:
328,0,42302,5,14,0:3:0:0:
256,192,42302,8,0,43202,0:0:0:0:
344,96,42318,5,0,0:0:0:0:
392,288,42319,1,0,0:0:0:0:
424,152,42319,1,0,0:0:0:0:
270,325,42334,1,0,0:0:0:0:
270,325,42334,1,0,0:0:0:0:
328,144,42335,1,14,0:3:0:0:
328,144,42335,1,14,0:3:0:0:
368,240,42351,5,14,0:3:0:0:
364,26,42351,1,0,0:0:0:0:
416,237,42351,1,0,0:0:0:0:
176,176,42352,1,14,0:3:0:0:
250,324,42384,1,0,0:0:0:0:
250,324,42384,1,0,0:0:0:0:
176,320,42385,1,14,0:3:0:0:
176,320,42385,1,14,0:3:0:0:
160,200,42385,1,0,0:0:0:0:
288,56,42385,1,0,0:0:0:0:
256,344,42385,1,0,0:0:0:0:
345,19,42401,1,0,0:0:0:0:
405,254,42401,1,0,0:0:0:0:
368,128,42402,1,14,0:3:0:0:
230,321,42434,1,0,0:0:0:0:
230,321,42434,1,0,0:0:0:0:
256,192,42451,12,0,42484,0:0:0:0:
336,408,42451,5,14,0:3:0:0:
326,14,42451,1,0,0:0:0:0:
393,269,42451,1,0,0:0:0:0:
408,368,42452,1,0,0:0:0:0:
104,304,42452,1,0,0:0:0:0:
184,40,42452,1,14,0:3:0:0:
211,316,42484,1,0,0:0:0:0:
211,316,42484,1,0,0:0:0:0:
256,192,42484,8,0,42717,0:0:0:0:
306,11,42501,5,0,0:0:0:0:
378,283,42501,1,0,0:0:0:0:
256,192,42502,12,0,43402,0:0:0:0:
256,192,42502,12,0,43402,0:0:0:0:
208,288,42502,5,14,0:3:0:0:
400,16,42518,1,0,0:0:0:0:
312,152,42519,1,0,0:0:0:0:
400,56,42519,1,0,0:0:0:0:
193,308,42534,1,0,0:0:0:0:
193,308,42534,1,0,0:0:0:0:
264,240,42551,5,14,0:3:0:0:
287,11,42551,1,0,0:0:0:0:
363,295,42551,1,0,0:0:0:0:
328,0,42552,1,14,0:3:0:0:
176,299,42584,1,0,0:0:0:0:
176,299,42584,1,0,0:0:0:0:
128,32,42585,1,0,0:0:0:0:
80,104,42585,1,0,0:0:0:0:
251,280,42585,2,0,P|345:201|320:80,1,260,8|6,0:0|0:0,0:0:0:0:
448,224,42585,1,0,0:0:0:0:
267,13,42601,1,0,0:0:0:0:
346,305,42601,1,0,0:0:0:0:
176,176,42602,1,14,0:3:0:0:
159,287,42634,1,0,0:0:0:0:
159,287,42634,1,0,0:0:0:0:
381,35,42634,1,0,0:0:0:0:
256,192,42635,8,0,43535,0:0:0:0:
400,328,42651,5,14,0:3:0:0:
247,17,42651,1,0,0:0:0:0:
328,314,42651,1,0,0:0:0:0:
392,288,42652,1,0,0:0:0:0:
296,368,42652,1,0,0:0:0:0:
368,272,42652,1,14,0:3:0:0:
145,274,42684,1,0,0:0:0:0:
145,274,42684,1,0,0:0:0:0:
364,26,42684,1,0,0:0:0:0:
229,24,42701,1,0,0:0:0:0:
309,320,42701,1,0,0:0:0:0:
184,184,42702,1,14,0:3:0:0:
288,56,42718,1,0,0:0:0:0:
296,24,42719,1,0,0:0:0:0:
280,200,42719,1,0,0:0:0:0:
132,259,42734,1,0,0:0:0:0:
132,259,42734,1,0,0:0:0:0:
345,19,42734,1,0,0:0:0:0:
211,32,42751,1,0,0:0:0:0:
289,323,42751,1,0,0:0:0:0:
288,376,42752,1,14,0:3:0:0:
121,243,42784,1,0,0:0:0:0:
121,243,42784,1,0,0:0:0:0:
326,14,42784,1,0,0:0:0:0:
208,168,42784,1,8,0:0:0:0:
208,168,42784,1,8,0:0:0:0:
104,304,42785,1,0,0:0:0:0:
104,192,42785,1,0,0:0:0:0:
194,43,42801,1,0,0:0:0:0:
270,325,42801,1,0,0:0:0:0:
328,144,42802,1,14,0:3:0:0:
111,225,42834,1,0,0:0:0:0:
111,225,42834,1,0,0:0:0:0:
306,11,42834,1,0,0:0:0:0:
256,192,42835,12,0,43735,0:0:0:0:
256,192,42835,12,0,43735,0:0:0:0:
256,192,42851,12,0,42884,0:0:0:0:
256,192,42851,12,0,42884,0:0:0:0:
179,55,42851,5,0,0:0:0:0:
250,324,42851,1,0,0:0:0:0:
312,152,42852,1,0,0:0:0:0:
368,256,42852,1,0,0:0:0:0:
176,320,42852,1,14,0:3:0:0:
287,11,42884,5,0,0:0:0:0:
256,192,42884,8,0,43117,0:0:0:0:
256,192,42884,8,0,43117,0:0:0:0:
165,70,42901,5,0,0:0:0:0:
230,321,42901,1,0,0:0:0:0:
80,104,42918,1,0,0:0:0:0:
251,280,42918,2,0,P|345:201|320:80,1,260,8|6,0:0|0:0,0:0:0:0:
392,48,42919,1,0,0:0:0:0:
99,187,42934,1,0,0:0:0:0:
99,187,42934,1,0,0:0:0:0:
267,13,42934,1,0,0:0:0:0:
153,85,42951,1,0,0:0:0:0:
211,316,42951,1,0,0:0:0:0:
96,168,42984,1,0,0:0:0:0:
96,168,42984,1,0,0:0:0:0:
247,17,42984,1,0,0:0:0:0:
296,368,42985,1,0,0:0:0:0:
224,0,42985,1,0,0:0:0:0:
143,102,43001,1,0,0:0:0:0:
193,308,43001,1,0,0:0:0:0:
96,148,43034,1,0,0:0:0:0:
96,148,43034,1,0,0:0:0:0:
229,24,43034,1,0,0:0:0:0:
256,192,43035,8,0,43935,0:0:0:0:
134,120,43051,5,0,0:0:0:0:
176,299,43051,1,0,0:0:0:0:
296,24,43052,1,0,0:0:0:0:
168,280,43052,1,0,0:0:0:0:
98,128,43084,1,0,0:0:0:0:
98,128,43084,1,0,0:0:0:0:
211,32,43084,1,0,0:0:0:0:
128,139,43101,1,0,0:0:0:0:
159,287,43101,1,0,0:0:0:0:
208,168,43117,1,8,0:0:0:0:
208,168,43117,1,8,0:0:0:0:
104,192,43118,1,0,0:0:0:0:
248,168,43119,1,0,0:0:0:0:
102,109,43134,1,0,0:0:0:0:
102,109,43134,1,0,0:0:0:0:
194,43,43134,1,0,0:0:0:0:
125,159,43151,1,0,0:0:0:0:
145,274,43151,1,0,0:0:0:0:
108,90,43184,1,0,0:0:0:0:
108,90,43184,1,0,0:0:0:0:
179,55,43184,1,0,0:0:0:0:
368,256,43185,1,0,0:0:0:0:
123,178,43201,1,0,0:0:0:0:
132,259,43201,1,0,0:0:0:0:
117,72,43234,1,0,0:0:0:0:
117,72,43234,1,0,0:0:0:0:
165,70,43234,1,0,0:0:0:0:
256,192,43235,12,0,44135,0:0:0:0:
256,192,43235,12,0,44135,0:0:0:0:
124,198,43251,5,0,0:0:0:0:
121,243,43251,1,0,0:0:0:0:
392,48,43252,1,0,0:0:0:0:
128,56,43284,1,0,0:0:0:0:
128,56,43284,1,0,0:0:0:0:
153,85,43284,1,0,0:0:0:0:
127,218,43301,1,0,0:0:0:0:
111,225,43301,1,0,0:0:0:0:
256,192,43318,12,0,43351,0:0:0:0:
232,200,43318,5,0,0:0:0:0:
232,200,43318,1,0,0:0:0:0:
224,0,43318,1,0,0:0:0:0:
143,102,43334,1,0,0:0:0:0:
132,237,43351,1,0,0:0:0:0:
256,192,43351,8,0,43584,0:0:0:0:
134,120,43384,5,0,0:0:0:0:
344,280,43385,1,0,0:0:0:0:
344,280,43385,1,0,0:0:0:0:
168,280,43385,1,0,0:0:0:0:
140,255,43401,1,0,0:0:0:0:
99,187,43401,1,0,0:0:0:0:
352,296,43434,1,0,0:0:0:0:
352,296,43434,1,0,0:0:0:0:
128,139,43434,1,0,0:0:0:0:
149,272,43451,1,0,0:0:0:0:
96,168,43451,1,0,0:0:0:0:
64,224,43452,1,0,0:0:0:0:
64,224,43452,1,0,0:0:0:0:
248,168,43452,1,0,0:0:0:0:
464,136,43484,1,0,0:0:0:0:
464,136,43484,1,0,0:0:0:0:
125,159,43484,1,0,0:0:0:0:
161,289,43501,1,0,0:0:0:0:
96,148,43501,1,0,0:0:0:0:
280,240,43517,1,8,0:0:0:0:
280,240,43517,1,8,0:0:0:0:
112,56,43518,1,0,0:0:0:0:
112,56,43518,1,0,0:0:0:0:
256,176,43534,1,0,0:0:0:0:
256,176,43534,1,0,0:0:0:0:
123,178,43534,1,0,0:0:0:0:
174,303,43551,1,0,0:0:0:0:
98,128,43551,1,0,0:0:0:0:
464,240,43584,1,0,0:0:0:0:
464,240,43584,1,0,0:0:0:0:
124,198,43584,1,0,0:0:0:0:
320,80,43585,1,0,0:0:0:0:
320,80,43585,1,0,0:0:0:0:
189,316,43601,1,0,0:0:0:0:
102,109,43601,1,0,0:0:0:0:
424,64,43634,1,0,0:0:0:0:
424,64,43634,1,0,0:0:0:0:
127,218,43634,1,0,0:0:0:0:
205,327,43651,1,0,0:0:0:0:
108,90,43651,1,0,0:0:0:0:
256,344,43652,1,0,0:0:0:0:
256,344,43652,1,0,0:0:0:0:
168,304,43684,1,0,0:0:0:0:
168,304,43684,1,0,0:0:0:0:
132,237,43684,1,0,0:0:0:0:
223,337,43701,1,0,0:0:0:0:
117,72,43701,1,0,0:0:0:0:
256,192,43702,12,0,44602,0:0:0:0:
88,152,43718,5,0,0:0:0:0:
88,152,43718,1,0,0:0:0:0:
296,136,43734,1,0,0:0:0:0:
296,136,43734,1,0,0:0:0:0:
140,255,43734,1,0,0:0:0:0:
241,344,43751,1,0,0:0:0:0:
128,56,43751,1,0,0:0:0:0:
104,184,43784,1,0,0:0:0:0:
104,184,43784,1,0,0:0:0:0:
149,272,43784,1,0,0:0:0:0:
432,152,43785,1,0,0:0:0:0:
432,152,43785,1,0,0:0:0:0:
232,200,43785,1,0,0:0:0:0:
261,349,43801,1,0,0:0:0:0:
296,272,43834,1,0,0:0:0:0:
296,272,43834,1,0,0:0:0:0:
161,289,43834,1,0,0:0:0:0:
280,352,43851,1,0,0:0:0:0:
144,128,43852,2,0,P|344:192|344:240,1,260,8|6,0:0|0:0,0:0:0:0:
168,368,43852,1,0,0:0:0:0:
168,368,43852,1,0,0:0:0:0:
144,128,43852,2,0,P|344:192|344:240,1,260,8|6,0:0|0:0,0:0:0:0:
344,280,43852,1,0,0:0:0:0:
224,96,43884,1,0,0:0:0:0:
224,96,43884,1,0,0:0:0:0:
174,303,43884,1,0,0:0:0:0:
300,352,43901,1,0,0:0:0:0:
352,296,43901,1,0,0:0:0:0:
216,136,43918,1,0,0:0:0:0:
216,136,43918,1,0,0:0:0:0:
64,224,43919,1,0,0:0:0:0:
184,320,43934,1,0,0:0:0:0:
184,320,43934,1,0,0:0:0:0:
189,316,43934,1,0,0:0:0:0:
320,350,43951,1,0,0:0:0:0:
464,136,43951,1,0,0:0:0:0:
432,296,43984,1,0,0:0:0:0:
432,296,43984,1,0,0:0:0:0:
205,327,43984,1,0,0:0:0:0:
280,240,43984,1,8,0:0:0:0:
368,344,43985,1,0,0:0:0:0:
368,344,43985,1,0,0:0:0:0:
112,56,43985,1,0,0:0:0:0:
339,346,44001,1,0,0:0:0:0:
256,176,44001,1,0,0:0:0:0:
96,48,44034,1,0,0:0:0:0:
96,48,44034,1,0,0:0:0:0:
223,337,44034,1,0,0:0:0:0:
358,340,44051,1,0,0:0:0:0:
464,240,44051,1,0,0:0:0:0:
120,160,44052,1,0,0:0:0:0:
120,160,44052,1,0,0:0:0:0:
384,272,44052,1,14,0:3:0:0:
320,80,44052,1,0,0:0:0:0:
80,336,44084,1,0,0:0:0:0:
80,336,44084,1,0,0:0:0:0:
241,344,44084,1,0,0:0:0:0:
376,331,44101,1,0,0:0:0:0:
424,64,44101,1,0,0:0:0:0:
208,120,44102,1,14,0:3:0:0:
352,56,44118,1,0,0:0:0:0:
352,56,44118,1,0,0:0:0:0:
256,344,44119,1,0,0:0:0:0:
304,192,44134,1,0,0:0:0:0:
304,192,44134,1,0,0:0:0:0:
261,349,44134,1,0,0:0:0:0:
392,320,44151,1,0,0:0:0:0:
168,304,44151,1,0,0:0:0:0:
216,144,44152,6,0,B|488:160|208:24|208:24|248:136|-8:304|376:352,1,800
216,144,44152,6,0,B|488:160|208:24|208:24|248:136|-8:304|376:352,1,800
440,160,44152,1,14,0:3:0:0:
448,176,44184,1,0,0:0:0:0:
448,176,44184,1,0,0:0:0:0:
280,352,44184,1,0,0:0:0:0:
96,320,44185,1,0,0:0:0:0:
96,320,44185,1,0,0:0:0:0:
248,216,44185,1,0,0:0:0:0:
88,152,44185,1,0,0:0:0:0:
296,136,44201,1,0,0:0:0:0:
248,264,44202,1,14,0:3:0:0:
416,368,44234,1,0,0:0:0:0:
416,368,44234,1,0,0:0:0:0:
300,352,44234,1,0,0:0:0:0:
104,184,44251,1,0,0:0:0:0:
80,48,44252,1,0,0:0:0:0:
80,48,44252,1,0,0:0:0:0:
336,80,44252,1,14,0:3:0:0:
168,104,44252,1,0,0:0:0:0:
432,152,44252,1,0,0:0:0:0:
240,64,44284,1,0,0:0:0:0:
240,64,44284,1,0,0:0:0:0:
320,350,44284,1,0,0:0:0:0:
152,96,44301,1,0,0:0:0:0:
296,272,44301,1,0,0:0:0:0:
240,272,44302,1,14,0:3:0:0:
432,40,44318,1,0,0:0:0:0:
432,40,44318,1,0,0:0:0:0:
224,384,44319,1,0,0:0:0:0:
144,128,44319,2,0,P|344:192|344:240,1,260,8|6,0:0|0:0,0:0:0:0:
168,368,44319,1,0,0:0:0:0:
280,272,44334,1,0,0:0:0:0:
280,272,44334,1,0,0:0:0:0:
339,346,44334,1,0,0:0:0:0:
312,0,44351,1,0,0:0:0:0:
224,96,44351,1,0,0:0:0:0:
64,120,44352,1,14,0:3:0:0:
424,88,44384,1,0,0:0:0:0:
424,88,44384,1,0,0:0:0:0:
358,340,44384,1,0,0:0:0:0:
264,288,44385,1,0,0:0:0:0:
264,288,44385,1,0,0:0:0:0:
384,272,44385,1,14,0:3:0:0:
392,336,44385,1,0,0:0:0:0:
216,136,44385,1,0,0:0:0:0:
272,192,44401,1,0,0:0:0:0:
184,320,44401,1,0,0:0:0:0:
352,240,44402,1,14,0:3:0:0:
240,336,44434,1,0,0:0:0:0:
240,336,44434,1,0,0:0:0:0:
376,331,44434,1,0,0:0:0:0:
208,120,44435,1,14,0:3:0:0:
208,0,44451,1,0,0:0:0:0:
432,296,44451,1,0,0:0:0:0:
160,104,44452,1,0,0:0:0:0:
160,104,44452,1,0,0:0:0:0:
104,264,44452,1,14,0:3:0:0:
368,128,44452,1,0,0:0:0:0:
368,344,44452,1,0,0:0:0:0:
48,48,44484,1,0,0:0:0:0:
48,48,44484,1,0,0:0:0:0:
392,320,44484,1,0,0:0:0:0:
216,144,44485,6,0,B|488:160|208:24|208:24|248:136|-8:304|376:352,1,800
216,144,44485,6,0,B|488:160|208:24|208:24|248:136|-8:304|376:352,1,800
440,160,44485,1,14,0:3:0:0:
384,24,44501,1,0,0:0:0:0:
96,48,44501,1,0,0:0:0:0:
192,80,44502,1,14,0:3:0:0:
328,112,44518,1,0,0:0:0:0:
328,112,44518,1,0,0:0:0:0:
248,216,44518,1,0,0:0:0:0:
104,192,44519,1,0,0:0:0:0:
120,160,44519,1,0,0:0:0:0:
32,280,44534,1,0,0:0:0:0:
32,280,44534,1,0,0:0:0:0:
248,264,44535,1,14,0:3:0:0:
144,280,44551,1,0,0:0:0:0:
80,336,44551,1,0,0:0:0:0:
240,272,44552,1,14,0:3:0:0:
416,288,44584,1,0,0:0:0:0:
416,288,44584,1,0,0:0:0:0:
336,80,44585,1,14,0:3:0:0:
168,104,44585,1,0,0:0:0:0:
296,360,44585,1,0,0:0:0:0:
352,56,44585,1,0,0:0:0:0:
312,152,44601,1,0,0:0:0:0:
304,192,44601,1,0,0:0:0:0:
64,120,44602,1,14,0:3:0:0:
328,72,44634,1,0,0:0:0:0:
328,72,44634,1,0,0:0:0:0:
152,96,44634,1,0,0:0:0:0:
240,272,44635,1,14,0:3:0:0:
264,344,44651,1,0,0:0:0:0:
448,176,44651,1,0,0:0:0:0:
224,200,44652,1,0,0:0:0:0:
224,200,44652,1,0,0:0:0:0:
224,384,44652,1,0,0:0:0:0:
296,160,44652,1,14,0:3:0:0:
296,16,44652,1,0,0:0:0:0:
96,320,44652,1,0,0:0:0:0:
168,256,44684,1,0,0:0:0:0:
168,256,44684,1,0,0:0:0:0:
312,0,44684,1,0,0:0:0:0:
64,120,44685,1,14,0:3:0:0:
176,152,44701,1,0,0:0:0:0:
416,368,44701,1,0,0:0:0:0:
104,264,44702,1,14,0:3:0:0:
392,336,44718,1,0,0:0:0:0:
320,304,44719,2,0,P|256:104|208:104,1,260,8|6,0:0|0:0,0:0:0:0:
80,280,44719,1,0,0:0:0:0:
80,48,44719,1,0,0:0:0:0:
144,112,44734,1,0,0:0:0:0:
144,112,44734,1,0,0:0:0:0:
272,192,44734,1,0,0:0:0:0:
352,240,44735,1,14,0:3:0:0:
352,224,44751,1,0,0:0:0:0:
240,64,44751,1,0,0:0:0:0:
48,224,44752,2,0,P|168:312|368:232,1,325
48,224,44752,2,0,P|168:312|368:232,1,325
192,80,44752,1,14,0:3:0:0:
208,0,44784,1,0,0:0:0:0:
176,64,44785,1,14,0:3:0:0:
104,264,44785,1,14,0:3:0:0:
368,128,44785,1,0,0:0:0:0:
312,232,44785,1,0,0:0:0:0:
432,40,44785,1,0,0:0:0:0:
128,264,44801,1,0,0:0:0:0:
280,272,44801,1,0,0:0:0:0:
384,24,44834,1,0,0:0:0:0:
328,240,44835,1,14,0:3:0:0:
192,80,44835,1,14,0:3:0:0:
152,16,44851,1,0,0:0:0:0:
424,88,44851,1,0,0:0:0:0:
104,192,44852,1,0,0:0:0:0:
104,80,44852,1,0,0:0:0:0:
264,288,44852,1,0,0:0:0:0:
144,280,44884,1,0,0:0:0:0:
304,232,44885,6,0,B|288:-40|424:240|424:240|312:200|144:456|96:72,1,800
304,232,44885,6,0,B|288:-40|424:240|424:240|312:200|144:456|96:72,1,800
288,8,44885,1,14,0:3:0:0:
240,272,44885,1,14,0:3:0:0:
400,352,44901,1,0,0:0:0:0:
240,336,44901,1,0,0:0:0:0:
256,184,44918,1,8,0:0:0:0:
256,184,44918,1,8,0:0:0:0:
296,360,44918,1,0,0:0:0:0:
288,328,44919,1,0,0:0:0:0:
160,104,44919,1,0,0:0:0:0:
312,152,44934,1,0,0:0:0:0:
184,200,44935,1,14,0:3:0:0:
64,120,44935,1,14,0:3:0:0:
112,368,44951,1,0,0:0:0:0:
48,48,44951,1,0,0:0:0:0:
432,208,44952,1,14,0:3:0:0:
264,344,44984,1,0,0:0:0:0:
368,112,44985,1,14,0:3:0:0:
296,160,44985,1,14,0:3:0:0:
296,16,44985,1,0,0:0:0:0:
392,96,44985,1,0,0:0:0:0:
328,112,44985,1,0,0:0:0:0:
256,144,45001,1,0,0:0:0:0:
32,280,45001,1,0,0:0:0:0:
176,152,45034,1,0,0:0:0:0:
176,208,45035,1,14,0:3:0:0:
104,264,45035,1,14,0:3:0:0:
272,0,45051,1,0,0:0:0:0:
416,288,45051,1,0,0:0:0:0:
320,304,45052,2,0,P|256:104|208:104,1,260,8|6,0:0|0:0,0:0:0:0:
80,280,45052,1,0,0:0:0:0:
304,80,45052,1,14,0:3:0:0:
128,352,45052,1,0,0:0:0:0:
352,224,45084,1,0,0:0:0:0:
328,384,45085,1,14,0:3:0:0:
192,80,45085,1,14,0:3:0:0:
80,32,45101,1,0,0:0:0:0:
328,72,45101,1,0,0:0:0:0:
312,232,45118,1,0,0:0:0:0:
400,368,45119,1,0,0:0:0:0:
224,200,45119,1,0,0:0:0:0:
128,264,45134,1,0,0:0:0:0:
208,96,45135,1,14,0:3:0:0:
384,208,45151,1,0,0:0:0:0:
168,256,45151,1,0,0:0:0:0:
472,112,45152,1,14,0:3:0:0:
152,16,45184,1,0,0:0:0:0:
184,344,45185,1,14,0:3:0:0:
104,80,45185,1,0,0:0:0:0:
408,16,45185,1,0,0:0:0:0:
176,168,45201,1,0,0:0:0:0:
144,112,45201,1,0,0:0:0:0:
48,224,45219,2,0,P|168:312|368:232,1,325
400,352,45234,1,0,0:0:0:0:
368,256,45235,1,14,0:3:0:0:
360,24,45251,1,0,0:0:0:0:
288,328,45252,1,0,0:0:0:0:
304,184,45252,1,14,0:3:0:0:
160,184,45252,1,0,0:0:0:0:
196,259,45284,2,0,B|256:80|200:192,1,162.5
196,259,45284,2,0,B|256:80|200:192,1,162.5
112,368,45284,1,0,0:0:0:0:
176,208,45285,1,14,0:3:0:0:
432,208,45285,1,14,0:3:0:0:
112,208,45301,1,0,0:0:0:0:
392,96,45318,1,0,0:0:0:0:
344,288,45319,1,0,0:0:0:0:
256,144,45334,1,0,0:0:0:0:
328,384,45335,1,14,0:3:0:0:
400,400,45351,1,0,0:0:0:0:
304,232,45352,6,0,B|288:-40|424:240|424:240|312:200|144:456|96:72,1,800
392,48,45352,1,14,0:3:0:0:
272,0,45384,1,0,0:0:0:0:
288,152,45385,1,14,0:3:0:0:
304,80,45385,1,14,0:3:0:0:
128,352,45385,1,0,0:0:0:0:
336,120,45385,1,0,0:0:0:0:
256,184,45385,1,8,0:0:0:0:
168,416,45401,1,0,0:0:0:0:
80,32,45434,1,0,0:0:0:0:
184,344,45435,1,14,0:3:0:0:
160,32,45451,1,0,0:0:0:0:
104,80,45452,1,0,0:0:0:0:
104,80,45452,1,0,0:0:0:0:
400,368,45452,1,0,0:0:0:0:
264,200,45452,1,14,0:3:0:0:
128,64,45477,1,0,0:0:0:0:
128,64,45477,1,0,0:0:0:0:
384,208,45484,1,0,0:0:0:0:
368,256,45485,1,14,0:3:0:0:
472,112,45485,1,14,0:3:0:0:
376,120,45501,1,0,0:0:0:0:
168,56,45502,1,0,0:0:0:0:
168,56,45502,1,0,0:0:0:0:
408,16,45518,1,0,0:0:0:0:
248,224,45519,1,0,0:0:0:0:
224,48,45527,1,0,0:0:0:0:
224,48,45527,1,0,0:0:0:0:
176,168,45534,1,0,0:0:0:0:
192,280,45551,1,0,0:0:0:0:
304,64,45552,1,0,0:0:0:0:
304,64,45552,1,0,0:0:0:0:
432,232,45552,1,14,0:3:0:0:
352,104,45577,1,0,0:0:0:0:
352,104,45577,1,0,0:0:0:0:
360,24,45584,1,0,0:0:0:0:
152,97,45584,2,0,B|184:304|152:80,3,216.666666666667
152,97,45584,2,0,B|184:304|152:80,3,216.666666666667
304,184,45585,1,14,0:3:0:0:
160,184,45585,1,0,0:0:0:0:
336,304,45601,1,0,0:0:0:0:
384,136,45602,1,0,0:0:0:0:
384,136,45602,1,0,0:0:0:0:
224,400,45619,2,0,P|136:280|216:80,1,325
408,176,45627,1,0,0:0:0:0:
408,176,45627,1,0,0:0:0:0:
112,208,45634,1,0,0:0:0:0:
416,232,45652,1,0,0:0:0:0:
416,232,45652,1,0,0:0:0:0:
344,288,45652,1,0,0:0:0:0:
264,304,45652,1,14,0:3:0:0:
400,280,45677,1,0,0:0:0:0:
400,280,45677,1,0,0:0:0:0:
400,400,45684,1,0,0:0:0:0:
240,16,45685,1,14,0:3:0:0:
392,48,45685,1,14,0:3:0:0:
416,328,45702,1,0,0:0:0:0:
416,328,45702,1,0,0:0:0:0:
336,120,45718,1,0,0:0:0:0:
368,352,45727,1,0,0:0:0:0:
368,352,45727,1,0,0:0:0:0:
168,416,45734,1,0,0:0:0:0:
196,259,45751,2,0,B|256:80|200:192,1,162.5
336,344,45752,1,0,0:0:0:0:
336,344,45752,1,0,0:0:0:0:
352,168,45752,1,14,0:3:0:0:
288,344,45777,1,0,0:0:0:0:
288,344,45777,1,0,0:0:0:0:
160,32,45784,1,0,0:0:0:0:
368,144,45785,1,14,0:3:0:0:
264,200,45785,1,14,0:3:0:0:
264,192,45785,1,8,0:0:0:0:
272,328,45802,1,0,0:0:0:0:
272,328,45802,1,0,0:0:0:0:
224,320,45827,1,0,0:0:0:0:
224,320,45827,1,0,0:0:0:0:
376,120,45834,1,0,0:0:0:0:
144,320,45852,1,0,0:0:0:0:
144,320,45852,1,0,0:0:0:0:
248,224,45852,1,0,0:0:0:0:
288,56,45852,1,14,0:3:0:0:
99,67,45868,1,0,0:0:0:0:
99,67,45868,1,0,0:0:0:0:
192,280,45884,1,0,0:0:0:0:
336,0,45885,1,14,0:3:0:0:
432,232,45885,1,14,0:3:0:0:
176,320,45902,1,0,0:0:0:0:
176,320,45902,1,0,0:0:0:0:
152,97,45917,2,0,B|184:304|152:80,3,216.666666666667
152,97,45917,2,0,B|184:304|152:80,3,216.666666666667
90,84,45918,1,0,0:0:0:0:
90,84,45918,1,0,0:0:0:0:
104,80,45919,1,0,0:0:0:0:
112,312,45927,1,0,0:0:0:0:
112,312,45927,1,0,0:0:0:0:
336,304,45934,1,0,0:0:0:0:
128,64,45944,1,0,0:0:0:0:
344,88,45952,5,14,0:3:0:0:
88,280,45952,1,0,0:0:0:0:
88,280,45952,1,0,0:0:0:0:
224,400,45952,2,0,P|136:280|216:80,1,325
83,103,45968,1,0,0:0:0:0:
83,103,45968,1,0,0:0:0:0:
168,56,45969,1,0,0:0:0:0:
96,248,45977,1,0,0:0:0:0:
96,248,45977,1,0,0:0:0:0:
256,192,45984,8,8,46184,0:0:0:0:
256,192,45984,8,8,46184,0:0:0:0:
264,144,45985,5,14,0:3:0:0:
264,304,45985,1,14,0:3:0:0:
224,48,45994,1,0,0:0:0:0:
96,216,46002,1,0,0:0:0:0:
96,216,46002,1,0,0:0:0:0:
78,122,46018,1,0,0:0:0:0:
78,122,46018,1,0,0:0:0:0:
304,64,46019,1,0,0:0:0:0:
128,168,46027,1,0,0:0:0:0:
128,168,46027,1,0,0:0:0:0:
352,104,46044,1,0,0:0:0:0:
304,80,46052,5,14,0:3:0:0:
160,136,46052,1,0,0:0:0:0:
160,136,46052,1,0,0:0:0:0:
75,142,46068,1,0,0:0:0:0:
75,142,46068,1,0,0:0:0:0:
384,136,46069,1,0,0:0:0:0:
192,88,46077,1,0,0:0:0:0:
192,88,46077,1,0,0:0:0:0:
400,56,46085,1,14,0:3:0:0:
352,168,46085,1,14,0:3:0:0:
408,176,46094,1,0,0:0:0:0:
248,112,46102,1,0,0:0:0:0:
248,112,46102,1,0,0:0:0:0:
75,161,46118,1,0,0:0:0:0:
75,161,46118,1,0,0:0:0:0:
264,192,46118,1,8,0:0:0:0:
416,232,46119,1,0,0:0:0:0:
264,208,46127,1,0,0:0:0:0:
264,208,46127,1,0,0:0:0:0:
400,280,46144,1,0,0:0:0:0:
188,251,46151,2,0,B|368:192|256:248,1,162.5
320,272,46152,1,0,0:0:0:0:
320,272,46152,1,0,0:0:0:0:
472,112,46152,1,14,0:3:0:0:
77,181,46168,1,0,0:0:0:0:
77,181,46168,1,0,0:0:0:0:
416,328,46169,1,0,0:0:0:0:
336,232,46177,1,0,0:0:0:0:
336,232,46177,1,0,0:0:0:0:
248,184,46185,1,14,0:3:0:0:
288,56,46185,1,14,0:3:0:0:
368,352,46194,1,0,0:0:0:0:
352,184,46202,1,0,0:0:0:0:
352,184,46202,1,0,0:0:0:0:
81,201,46218,1,0,0:0:0:0:
81,201,46218,1,0,0:0:0:0:
336,344,46219,1,0,0:0:0:0:
352,128,46227,1,0,0:0:0:0:
352,128,46227,1,0,0:0:0:0:
288,344,46244,1,0,0:0:0:0:
304,184,46252,5,14,0:3:0:0:
344,80,46252,1,0,0:0:0:0:
344,80,46252,1,0,0:0:0:0:
88,219,46268,1,0,0:0:0:0:
88,219,46268,1,0,0:0:0:0:
272,328,46269,1,0,0:0:0:0:
312,48,46277,1,0,0:0:0:0:
312,48,46277,1,0,0:0:0:0:
344,88,46285,5,14,0:3:0:0:
216,16,46285,1,14,0:3:0:0:
224,320,46294,1,0,0:0:0:0:
272,48,46302,1,0,0:0:0:0:
272,48,46302,1,0,0:0:0:0:
350,295,46317,2,0,B|144:264|368:296,3,216.666666666667
350,295,46317,2,0,B|144:264|368:296,3,216.666666666667
256,192,46317,8,8,46517,0:0:0:0:
256,192,46317,8,8,46517,0:0:0:0:
96,237,46318,5,0,0:0:0:0:
96,237,46318,1,0,0:0:0:0:
368,344,46319,1,0,0:0:0:0:
144,320,46319,1,0,0:0:0:0:
208,48,46327,1,0,0:0:0:0:
208,48,46327,1,0,0:0:0:0:
99,67,46335,1,0,0:0:0:0:
384,320,46344,1,0,0:0:0:0:
392,48,46352,5,14,0:3:0:0:
120,96,46352,1,0,0:0:0:0:
120,96,46352,1,0,0:0:0:0:
107,254,46368,1,0,0:0:0:0:
107,254,46368,1,0,0:0:0:0:
392,280,46369,1,0,0:0:0:0:
176,320,46369,1,0,0:0:0:0:
112,128,46377,1,0,0:0:0:0:
112,128,46377,1,0,0:0:0:0:
304,80,46385,5,14,0:3:0:0:
144,184,46385,1,14,0:3:0:0:
90,84,46385,1,0,0:0:0:0:
400,224,46394,1,0,0:0:0:0:
112,312,46394,1,0,0:0:0:0:
112,216,46402,1,0,0:0:0:0:
112,216,46402,1,0,0:0:0:0:
119,269,46418,1,0,0:0:0:0:
119,269,46418,1,0,0:0:0:0:
384,144,46419,1,0,0:0:0:0:
88,280,46419,1,0,0:0:0:0:
328,288,46427,1,0,0:0:0:0:
328,288,46427,1,0,0:0:0:0:
83,103,46435,1,0,0:0:0:0:
344,96,46444,1,0,0:0:0:0:
96,248,46444,1,0,0:0:0:0:
272,296,46452,1,0,0:0:0:0:
272,296,46452,1,0,0:0:0:0:
134,283,46468,1,0,0:0:0:0:
134,283,46468,1,0,0:0:0:0:
312,64,46469,1,0,0:0:0:0:
96,216,46469,1,0,0:0:0:0:
416,128,46477,1,0,0:0:0:0:
416,128,46477,1,0,0:0:0:0:
188,251,46484,2,0,B|368:192|256:248,1,162.5
280,96,46485,1,14,0:3:0:0:
472,112,46485,1,14,0:3:0:0:
78,122,46485,1,0,0:0:0:0:
272,40,46494,1,0,0:0:0:0:
128,168,46494,1,0,0:0:0:0:
149,295,46518,1,0,0:0:0:0:
149,295,46518,1,0,0:0:0:0:
216,32,46519,1,0,0:0:0:0:
160,136,46519,1,0,0:0:0:0:
384,88,46527,1,0,0:0:0:0:
384,88,46527,1,0,0:0:0:0:
75,142,46535,1,0,0:0:0:0:
168,48,46544,1,0,0:0:0:0:
192,88,46544,1,0,0:0:0:0:
256,192,46552,12,0,46585,0:0:0:0:
256,192,46552,12,0,46585,0:0:0:0:
288,96,46552,5,0,0:0:0:0:
288,96,46552,1,0,0:0:0:0:
166,305,46568,1,0,0:0:0:0:
166,305,46568,1,0,0:0:0:0:
120,32,46569,1,0,0:0:0:0:
248,112,46569,1,0,0:0:0:0:
168,96,46577,1,0,0:0:0:0:
168,96,46577,1,0,0:0:0:0:
304,184,46585,5,14,0:3:0:0:
75,161,46585,5,0,0:0:0:0:
392,160,46585,1,14,0:3:0:0:
256,192,46585,8,0,46818,0:0:0:0:
256,192,46585,8,0,46818,0:0:0:0:
96,80,46594,5,0,0:0:0:0:
264,208,46594,1,0,0:0:0:0:
136,200,46602,1,0,0:0:0:0:
136,200,46602,1,0,0:0:0:0:
184,314,46618,1,0,0:0:0:0:
184,314,46618,1,0,0:0:0:0:
104,112,46619,1,0,0:0:0:0:
320,272,46619,1,0,0:0:0:0:
128,240,46627,1,0,0:0:0:0:
128,240,46627,1,0,0:0:0:0:
77,181,46635,1,0,0:0:0:0:
104,160,46644,1,0,0:0:0:0:
336,232,46644,1,0,0:0:0:0:
152,280,46652,1,0,0:0:0:0:
152,280,46652,1,0,0:0:0:0:
368,344,46652,1,0,0:0:0:0:
203,320,46668,1,0,0:0:0:0:
203,320,46668,1,0,0:0:0:0:
120,176,46669,1,0,0:0:0:0:
352,184,46669,1,0,0:0:0:0:
224,280,46677,1,0,0:0:0:0:
224,280,46677,1,0,0:0:0:0:
384,320,46677,1,0,0:0:0:0:
360,104,46685,5,14,0:3:0:0:
392,48,46685,5,14,0:3:0:0:
81,201,46685,1,0,0:0:0:0:
128,224,46694,1,0,0:0:0:0:
352,128,46694,1,0,0:0:0:0:
272,256,46702,1,0,0:0:0:0:
272,256,46702,1,0,0:0:0:0:
392,280,46702,1,0,0:0:0:0:
256,192,46717,8,8,46917,0:0:0:0:
256,192,46717,8,8,46917,0:0:0:0:
223,323,46718,5,0,0:0:0:0:
223,323,46718,1,0,0:0:0:0:
128,304,46719,1,0,0:0:0:0:
344,80,46719,1,0,0:0:0:0:
336,168,46727,1,0,0:0:0:0:
336,168,46727,1,0,0:0:0:0:
400,224,46727,1,0,0:0:0:0:
381,349,46735,1,0,0:0:0:0:
88,219,46735,1,0,0:0:0:0:
312,48,46744,1,0,0:0:0:0:
384,96,46752,1,0,0:0:0:0:
384,96,46752,1,0,0:0:0:0:
384,144,46752,1,0,0:0:0:0:
242,325,46768,1,0,0:0:0:0:
242,325,46768,1,0,0:0:0:0:
128,272,46769,1,0,0:0:0:0:
272,48,46769,1,0,0:0:0:0:
400,168,46777,1,0,0:0:0:0:
400,168,46777,1,0,0:0:0:0:
344,96,46777,1,0,0:0:0:0:
350,295,46784,2,0,B|144:264|368:296,3,216.666666666667
368,144,46785,5,14,0:3:0:0:
364,358,46785,1,0,0:0:0:0:
96,237,46785,1,0,0:0:0:0:
136,336,46794,1,0,0:0:0:0:
208,48,46794,1,0,0:0:0:0:
400,280,46802,1,0,0:0:0:0:
400,280,46802,1,0,0:0:0:0:
312,64,46802,1,0,0:0:0:0:
262,324,46818,1,0,0:0:0:0:
262,324,46818,1,0,0:0:0:0:
168,360,46819,1,0,0:0:0:0:
120,96,46819,1,0,0:0:0:0:
384,344,46827,1,0,0:0:0:0:
384,344,46827,1,0,0:0:0:0:
272,40,46827,1,0,0:0:0:0:
345,365,46835,1,0,0:0:0:0:
107,254,46835,1,0,0:0:0:0:
200,352,46844,1,0,0:0:0:0:
112,128,46844,1,0,0:0:0:0:
288,352,46852,1,0,0:0:0:0:
288,352,46852,1,0,0:0:0:0:
216,32,46852,1,0,0:0:0:0:
282,321,46868,1,0,0:0:0:0:
282,321,46868,1,0,0:0:0:0:
232,352,46869,1,0,0:0:0:0:
112,216,46869,1,0,0:0:0:0:
224,360,46877,1,0,0:0:0:0:
224,360,46877,1,0,0:0:0:0:
168,48,46877,1,0,0:0:0:0:
256,192,46885,12,0,46918,0:0:0:0:
256,192,46885,12,0,46918,0:0:0:0:
336,0,46885,5,14,0:3:0:0:
326,370,46885,1,0,0:0:0:0:
119,269,46885,1,0,0:0:0:0:
280,320,46894,1,0,0:0:0:0:
328,288,46894,1,0,0:0:0:0:
168,360,46902,1,0,0:0:0:0:
168,360,46902,1,0,0:0:0:0:
120,32,46902,1,0,0:0:0:0:
301,316,46918,1,0,0:0:0:0:
301,316,46918,1,0,0:0:0:0:
256,192,46918,8,0,47151,0:0:0:0:
256,192,46918,8,0,47151,0:0:0:0:
312,288,46919,5,0,0:0:0:0:
272,296,46919,1,0,0:0:0:0:
128,344,46927,1,0,0:0:0:0:
128,344,46927,1,0,0:0:0:0:
96,80,46927,1,0,0:0:0:0:
306,373,46935,1,0,0:0:0:0:
134,283,46935,1,0,0:0:0:0:
360,256,46944,1,0,0:0:0:0:
416,128,46944,1,0,0:0:0:0:
104,320,46952,1,0,0:0:0:0:
104,320,46952,1,0,0:0:0:0:
104,112,46952,1,0,0:0:0:0:
319,308,46968,1,0,0:0:0:0:
319,308,46968,1,0,0:0:0:0:
336,200,46969,1,0,0:0:0:0:
80,288,46977,1,0,0:0:0:0:
80,288,46977,1,0,0:0:0:0:
104,160,46977,1,0,0:0:0:0:
264,144,46985,5,14,0:3:0:0:
287,373,46985,1,0,0:0:0:0:
149,295,46985,1,0,0:0:0:0:
240,184,46994,1,0,0:0:0:0:
384,88,46994,1,0,0:0:0:0:
72,224,47002,1,0,0:0:0:0:
72,224,47002,1,0,0:0:0:0:
120,176,47002,1,0,0:0:0:0:
336,299,47018,1,0,0:0:0:0:
336,299,47018,1,0,0:0:0:0:
176,128,47019,1,0,0:0:0:0:
288,96,47019,1,0,0:0:0:0:
80,184,47027,1,0,0:0:0:0:
80,184,47027,1,0,0:0:0:0:
128,224,47027,1,0,0:0:0:0:
267,371,47035,1,0,0:0:0:0:
166,305,47035,1,0,0:0:0:0:
216,112,47044,1,0,0:0:0:0:
168,96,47044,1,0,0:0:0:0:
120,96,47052,1,0,0:0:0:0:
120,96,47052,1,0,0:0:0:0:
128,304,47052,1,0,0:0:0:0:
353,287,47068,1,0,0:0:0:0:
353,287,47068,1,0,0:0:0:0:
381,349,47068,1,0,0:0:0:0:
264,96,47069,1,0,0:0:0:0:
136,200,47069,1,0,0:0:0:0:
224,120,47084,1,0,0:0:0:0:
224,120,47084,1,0,0:0:0:0:
400,56,47085,5,14,0:3:0:0:
247,367,47085,1,0,0:0:0:0:
184,314,47085,1,0,0:0:0:0:
320,96,47094,1,0,0:0:0:0:
128,240,47094,1,0,0:0:0:0:
96,136,47102,1,0,0:0:0:0:
96,136,47102,1,0,0:0:0:0:
128,272,47102,1,0,0:0:0:0:
160,56,47109,1,0,0:0:0:0:
160,56,47109,1,0,0:0:0:0:
367,274,47118,1,0,0:0:0:0:
367,274,47118,1,0,0:0:0:0:
364,358,47118,1,0,0:0:0:0:
368,104,47119,1,0,0:0:0:0:
152,280,47119,1,0,0:0:0:0:
160,56,47127,1,0,0:0:0:0:
160,56,47127,1,0,0:0:0:0:
136,336,47127,1,0,0:0:0:0:
96,136,47134,1,0,0:0:0:0:
96,136,47134,1,0,0:0:0:0:
229,360,47135,1,0,0:0:0:0:
203,320,47135,1,0,0:0:0:0:
400,136,47144,1,0,0:0:0:0:
224,280,47144,1,0,0:0:0:0:
224,120,47152,1,0,0:0:0:0:
224,120,47152,1,0,0:0:0:0:
168,360,47152,1,0,0:0:0:0:
380,259,47168,1,0,0:0:0:0:
380,259,47168,1,0,0:0:0:0:
345,365,47168,1,0,0:0:0:0:
400,176,47169,1,0,0:0:0:0:
272,256,47169,1,0,0:0:0:0:
200,352,47177,1,0,0:0:0:0:
120,96,47184,1,0,0:0:0:0:
120,96,47184,1,0,0:0:0:0:
256,192,47184,8,8,47384,0:0:0:0:
211,352,47185,5,0,0:0:0:0:
223,323,47185,1,0,0:0:0:0:
400,240,47194,1,0,0:0:0:0:
336,168,47194,1,0,0:0:0:0:
232,352,47202,1,0,0:0:0:0:
80,184,47209,1,0,0:0:0:0:
80,184,47209,1,0,0:0:0:0:
391,243,47218,1,0,0:0:0:0:
391,243,47218,1,0,0:0:0:0:
326,370,47218,1,0,0:0:0:0:
304,168,47218,1,8,0:0:0:0:
304,168,47218,1,8,0:0:0:0:
352,328,47219,1,0,0:0:0:0:
384,96,47219,1,0,0:0:0:0:
280,320,47227,1,0,0:0:0:0:
72,224,47234,1,0,0:0:0:0:
72,224,47234,1,0,0:0:0:0:
194,341,47235,1,0,0:0:0:0:
242,325,47235,1,0,0:0:0:0:
320,336,47244,1,0,0:0:0:0:
400,168,47244,1,0,0:0:0:0:
312,288,47252,1,0,0:0:0:0:
80,288,47259,1,0,0:0:0:0:
80,288,47259,1,0,0:0:0:0:
401,225,47268,1,0,0:0:0:0:
401,225,47268,1,0,0:0:0:0:
306,373,47268,1,0,0:0:0:0:
232,336,47269,1,0,0:0:0:0:
400,280,47269,1,0,0:0:0:0:
360,256,47277,1,0,0:0:0:0:
104,320,47284,1,0,0:0:0:0:
104,320,47284,1,0,0:0:0:0:
256,192,47285,12,0,47318,0:0:0:0:
256,192,47285,12,0,47318,0:0:0:0:
179,329,47285,5,0,0:0:0:0:
262,324,47285,1,0,0:0:0:0:
160,120,47294,1,0,0:0:0:0:
384,344,47294,1,0,0:0:0:0:
336,200,47302,1,0,0:0:0:0:
128,344,47309,1,0,0:0:0:0:
128,344,47309,1,0,0:0:0:0:
408,207,47318,5,0,0:0:0:0:
287,373,47318,5,0,0:0:0:0:
408,207,47318,1,0,0:0:0:0:
256,192,47318,8,0,47551,0:0:0:0:
256,192,47318,8,0,47551,0:0:0:0:
152,176,47319,1,0,0:0:0:0:
288,352,47319,1,0,0:0:0:0:
240,184,47327,1,0,0:0:0:0:
168,360,47334,1,0,0:0:0:0:
168,360,47334,1,0,0:0:0:0:
165,314,47335,1,0,0:0:0:0:
282,321,47335,1,0,0:0:0:0:
320,32,47344,1,0,0:0:0:0:
224,360,47344,1,0,0:0:0:0:
176,128,47352,1,0,0:0:0:0:
224,360,47359,1,0,0:0:0:0:
224,360,47359,1,0,0:0:0:0:
413,187,47368,1,0,0:0:0:0:
413,187,47368,1,0,0:0:0:0:
267,371,47368,1,0,0:0:0:0:
168,360,47369,1,0,0:0:0:0:
216,112,47377,1,0,0:0:0:0:
288,352,47384,1,0,0:0:0:0:
288,352,47384,1,0,0:0:0:0:
153,299,47385,1,0,0:0:0:0:
301,316,47385,1,0,0:0:0:0:
360,64,47394,1,0,0:0:0:0:
128,344,47394,1,0,0:0:0:0:
264,96,47402,1,0,0:0:0:0:
384,344,47409,1,0,0:0:0:0:
384,344,47409,1,0,0:0:0:0:
224,120,47417,1,0,0:0:0:0:
224,120,47417,1,0,0:0:0:0:
416,168,47418,1,0,0:0:0:0:
416,168,47418,1,0,0:0:0:0:
247,367,47418,1,0,0:0:0:0:
352,160,47419,1,0,0:0:0:0:
104,320,47419,1,0,0:0:0:0:
320,96,47427,1,0,0:0:0:0:
400,280,47434,1,0,0:0:0:0:
400,280,47434,1,0,0:0:0:0:
143,282,47435,1,0,0:0:0:0:
319,308,47435,1,0,0:0:0:0:
160,56,47442,1,0,0:0:0:0:
160,56,47442,1,0,0:0:0:0:
352,280,47444,1,0,0:0:0:0:
80,288,47444,1,0,0:0:0:0:
368,104,47452,1,0,0:0:0:0:
400,168,47459,1,0,0:0:0:0:
400,168,47459,1,0,0:0:0:0:
96,136,47467,1,0,0:0:0:0:
96,136,47467,1,0,0:0:0:0:
416,148,47468,1,0,0:0:0:0:
416,148,47468,1,0,0:0:0:0:
229,360,47468,1,0,0:0:0:0:
248,312,47469,1,0,0:0:0:0:
72,224,47469,1,0,0:0:0:0:
400,136,47477,1,0,0:0:0:0:
384,96,47484,1,0,0:0:0:0:
384,96,47484,1,0,0:0:0:0:
134,264,47485,1,0,0:0:0:0:
336,299,47485,1,0,0:0:0:0:
208,320,47494,1,0,0:0:0:0:
80,184,47494,1,0,0:0:0:0:
400,176,47502,1,0,0:0:0:0:
336,168,47509,1,0,0:0:0:0:
336,168,47509,1,0,0:0:0:0:
120,96,47517,1,0,0:0:0:0:
120,96,47517,1,0,0:0:0:0:
414,128,47518,1,0,0:0:0:0:
414,128,47518,1,0,0:0:0:0:
211,352,47518,1,0,0:0:0:0:
168,296,47519,1,0,0:0:0:0:
120,96,47519,1,0,0:0:0:0:
400,240,47527,1,0,0:0:0:0:
272,256,47534,1,0,0:0:0:0:
272,256,47534,1,0,0:0:0:0:
128,245,47535,1,0,0:0:0:0:
353,287,47535,1,0,0:0:0:0:
80,184,47542,1,0,0:0:0:0:
80,184,47542,1,0,0:0:0:0:
168,224,47544,1,0,0:0:0:0:
304,168,47551,1,8,0:0:0:0:
304,168,47551,1,8,0:0:0:0:
352,328,47552,1,0,0:0:0:0:
224,280,47559,1,0,0:0:0:0:
224,280,47559,1,0,0:0:0:0:
72,224,47567,1,0,0:0:0:0:
72,224,47567,1,0,0:0:0:0:
410,109,47568,1,0,0:0:0:0:
410,109,47568,1,0,0:0:0:0:
194,341,47568,1,0,0:0:0:0:
192,176,47569,1,0,0:0:0:0:
96,136,47569,1,0,0:0:0:0:
320,336,47577,1,0,0:0:0:0:
152,280,47584,1,0,0:0:0:0:
152,280,47584,1,0,0:0:0:0:
125,225,47585,1,0,0:0:0:0:
367,274,47585,1,0,0:0:0:0:
80,288,47592,1,0,0:0:0:0:
80,288,47592,1,0,0:0:0:0:
280,112,47594,1,0,0:0:0:0:
160,56,47594,1,0,0:0:0:0:
232,336,47602,1,0,0:0:0:0:
128,240,47609,1,0,0:0:0:0:
128,240,47609,1,0,0:0:0:0:
104,320,47617,1,0,0:0:0:0:
104,320,47617,1,0,0:0:0:0:
404,90,47618,1,0,0:0:0:0:
404,90,47618,1,0,0:0:0:0:
179,329,47618,1,0,0:0:0:0:
352,64,47619,1,0,0:0:0:0:
224,120,47619,1,0,0:0:0:0:
160,120,47627,1,0,0:0:0:0:
136,200,47634,1,0,0:0:0:0:
136,200,47634,1,0,0:0:0:0:
123,206,47635,1,0,0:0:0:0:
380,259,47635,1,0,0:0:0:0:
128,344,47642,1,0,0:0:0:0:
128,344,47642,1,0,0:0:0:0:
280,48,47644,1,0,0:0:0:0:
152,176,47652,1,0,0:0:0:0:
168,96,47659,1,0,0:0:0:0:
168,96,47659,1,0,0:0:0:0:
168,360,47667,1,0,0:0:0:0:
168,360,47667,1,0,0:0:0:0:
395,72,47668,1,0,0:0:0:0:
395,72,47668,1,0,0:0:0:0:
165,314,47668,1,0,0:0:0:0:
168,48,47669,1,0,0:0:0:0:
320,32,47677,1,0,0:0:0:0:
288,96,47684,1,0,0:0:0:0:
288,96,47684,1,0,0:0:0:0:
124,186,47685,1,0,0:0:0:0:
391,243,47685,1,0,0:0:0:0:
224,360,47692,1,0,0:0:0:0:
224,360,47692,1,0,0:0:0:0:
104,64,47694,1,0,0:0:0:0:
384,88,47709,1,0,0:0:0:0:
384,88,47709,1,0,0:0:0:0:
288,352,47717,1,0,0:0:0:0:
288,352,47717,1,0,0:0:0:0:
384,56,47718,1,0,0:0:0:0:
384,56,47718,1,0,0:0:0:0:
153,299,47718,1,0,0:0:0:0:
96,160,47719,1,0,0:0:0:0:
360,64,47727,1,0,0:0:0:0:
127,166,47735,1,0,0:0:0:0:
401,225,47735,1,0,0:0:0:0:
384,344,47742,1,0,0:0:0:0:
384,344,47742,1,0,0:0:0:0:
88,224,47744,1,0,0:0:0:0:
256,192,47752,12,0,47785,0:0:0:0:
352,160,47752,5,0,0:0:0:0:
416,128,47759,5,0,0:0:0:0:
416,128,47759,5,0,0:0:0:0:
400,280,47767,1,0,0:0:0:0:
400,280,47767,1,0,0:0:0:0:
143,282,47768,1,0,0:0:0:0:
88,280,47769,1,0,0:0:0:0:
352,280,47777,1,0,0:0:0:0:
272,296,47784,5,0,0:0:0:0:
272,296,47784,5,0,0:0:0:0:
132,147,47785,1,0,0:0:0:0:
408,207,47785,1,0,0:0:0:0:
256,192,47785,8,0,48018,0:0:0:0:
400,168,47792,5,0,0:0:0:0:
400,168,47792,1,0,0:0:0:0:
104,320,47794,1,0,0:0:0:0:
248,312,47802,1,0,0:0:0:0:
328,288,47809,1,0,0:0:0:0:
328,288,47809,1,0,0:0:0:0:
328,224,47817,1,0,0:0:0:0:
328,224,47817,1,0,0:0:0:0:
384,96,47817,1,0,0:0:0:0:
384,96,47817,1,0,0:0:0:0:
134,264,47818,1,0,0:0:0:0:
128,344,47819,1,0,0:0:0:0:
208,320,47827,1,0,0:0:0:0:
112,216,47834,1,0,0:0:0:0:
112,216,47834,1,0,0:0:0:0:
140,129,47835,1,0,0:0:0:0:
413,187,47835,1,0,0:0:0:0:
392,288,47842,1,0,0:0:0:0:
392,288,47842,1,0,0:0:0:0:
336,168,47842,1,0,0:0:0:0:
336,168,47842,1,0,0:0:0:0:
160,368,47844,1,0,0:0:0:0:
168,296,47852,1,0,0:0:0:0:
112,128,47859,1,0,0:0:0:0:
112,128,47859,1,0,0:0:0:0:
312,352,47867,1,0,0:0:0:0:
312,352,47867,1,0,0:0:0:0:
272,256,47867,1,0,0:0:0:0:
272,256,47867,1,0,0:0:0:0:
160,296,47868,1,0,0:0:0:0:
160,296,47868,1,0,0:0:0:0:
128,245,47868,1,0,0:0:0:0:
224,376,47869,1,0,0:0:0:0:
168,224,47877,1,0,0:0:0:0:
120,96,47884,1,0,0:0:0:0:
120,96,47884,1,0,0:0:0:0:
149,112,47885,1,0,0:0:0:0:
416,168,47885,1,0,0:0:0:0:
224,280,47892,1,0,0:0:0:0:
224,280,47892,1,0,0:0:0:0:
264,368,47894,1,0,0:0:0:0:
192,176,47902,1,0,0:0:0:0:
208,48,47909,1,0,0:0:0:0:
208,48,47909,1,0,0:0:0:0:
352,328,47917,1,0,0:0:0:0:
352,328,47917,1,0,0:0:0:0:
152,280,47917,1,0,0:0:0:0:
152,280,47917,1,0,0:0:0:0:
48,136,47918,1,0,0:0:0:0:
48,136,47918,1,0,0:0:0:0:
125,225,47918,1,0,0:0:0:0:
352,328,47919,1,0,0:0:0:0:
280,112,47927,1,0,0:0:0:0:
272,48,47934,1,0,0:0:0:0:
272,48,47934,1,0,0:0:0:0:
161,95,47935,1,0,0:0:0:0:
416,148,47935,1,0,0:0:0:0:
264,368,47942,1,0,0:0:0:0:
264,368,47942,1,0,0:0:0:0:
128,240,47942,1,0,0:0:0:0:
128,240,47942,1,0,0:0:0:0:
280,144,47951,1,8,0:0:0:0:
280,144,47951,1,8,0:0:0:0:
352,64,47952,1,0,0:0:0:0:
312,48,47959,1,0,0:0:0:0:
312,48,47959,1,0,0:0:0:0:
224,376,47967,1,0,0:0:0:0:
224,376,47967,1,0,0:0:0:0:
136,200,47967,1,0,0:0:0:0:
136,200,47967,1,0,0:0:0:0:
256,176,47968,1,0,0:0:0:0:
256,176,47968,1,0,0:0:0:0:
123,206,47968,1,0,0:0:0:0:
312,352,47969,1,0,0:0:0:0:
280,48,47977,1,0,0:0:0:0:
344,80,47984,1,0,0:0:0:0:
344,80,47984,1,0,0:0:0:0:
174,81,47985,1,0,0:0:0:0:
414,128,47985,1,0,0:0:0:0:
160,368,47992,1,0,0:0:0:0:
160,368,47992,1,0,0:0:0:0:
168,96,47992,1,0,0:0:0:0:
168,96,47992,1,0,0:0:0:0:
392,288,47994,1,0,0:0:0:0:
168,48,48002,1,0,0:0:0:0:
352,128,48009,1,0,0:0:0:0:
352,128,48009,1,0,0:0:0:0:
128,344,48017,1,0,0:0:0:0:
128,344,48017,1,0,0:0:0:0:
288,96,48017,1,0,0:0:0:0:
288,96,48017,1,0,0:0:0:0:
48,240,48018,1,0,0:0:0:0:
48,240,48018,1,0,0:0:0:0:
124,186,48018,1,0,0:0:0:0:
328,224,48019,1,0,0:0:0:0:
104,64,48027,1,0,0:0:0:0:
352,184,48034,1,0,0:0:0:0:
352,184,48034,1,0,0:0:0:0:
189,68,48035,1,0,0:0:0:0:
410,109,48035,1,0,0:0:0:0:
104,320,48042,1,0,0:0:0:0:
104,320,48042,1,0,0:0:0:0:
384,88,48042,1,0,0:0:0:0:
384,88,48042,1,0,0:0:0:0:
256,192,48052,12,8,48252,0:0:0:0:
256,192,48052,12,8,48252,0:0:0:0:
96,160,48052,5,0,0:0:0:0:
336,232,48059,1,0,0:0:0:0:
336,232,48059,1,0,0:0:0:0:
88,280,48067,1,0,0:0:0:0:
88,280,48067,1,0,0:0:0:0:
88,64,48068,1,0,0:0:0:0:
88,64,48068,1,0,0:0:0:0:
127,166,48068,1,0,0:0:0:0:
88,224,48077,1,0,0:0:0:0:
320,272,48084,1,0,0:0:0:0:
320,272,48084,1,0,0:0:0:0:
205,57,48085,1,0,0:0:0:0:
404,90,48085,1,0,0:0:0:0:
416,128,48092,5,0,0:0:0:0:
416,128,48092,5,0,0:0:0:0:
88,224,48092,1,0,0:0:0:0:
88,224,48092,1,0,0:0:0:0:
88,280,48102,1,0,0:0:0:0:
264,208,48109,1,0,0:0:0:0:
264,208,48109,1,0,0:0:0:0:
272,296,48117,5,0,0:0:0:0:
272,296,48117,5,0,0:0:0:0:
96,160,48117,1,0,0:0:0:0:
96,160,48117,1,0,0:0:0:0:
344,304,48118,1,0,0:0:0:0:
344,304,48118,1,0,0:0:0:0:
132,147,48118,1,0,0:0:0:0:
104,320,48127,1,0,0:0:0:0:
248,112,48134,1,0,0:0:0:0:
248,112,48134,1,0,0:0:0:0:
223,47,48135,1,0,0:0:0:0:
395,72,48135,1,0,0:0:0:0:
104,64,48142,1,0,0:0:0:0:
104,64,48142,1,0,0:0:0:0:
328,288,48142,1,0,0:0:0:0:
328,288,48142,1,0,0:0:0:0:
128,344,48152,1,0,0:0:0:0:
192,88,48159,1,0,0:0:0:0:
192,88,48159,1,0,0:0:0:0:
168,48,48167,1,0,0:0:0:0:
168,48,48167,1,0,0:0:0:0:
112,216,48167,1,0,0:0:0:0:
112,216,48167,1,0,0:0:0:0:
216,136,48168,1,0,0:0:0:0:
216,136,48168,1,0,0:0:0:0:
140,129,48168,1,0,0:0:0:0:
160,368,48177,1,0,0:0:0:0:
160,136,48184,1,0,0:0:0:0:
160,136,48184,1,0,0:0:0:0:
241,40,48185,1,0,0:0:0:0:
384,56,48185,1,0,0:0:0:0:
280,48,48192,1,0,0:0:0:0:
280,48,48192,1,0,0:0:0:0:
112,128,48192,1,0,0:0:0:0:
112,128,48192,1,0,0:0:0:0:
224,376,48202,1,0,0:0:0:0:
128,168,48209,1,0,0:0:0:0:
128,168,48209,1,0,0:0:0:0:
352,64,48217,1,0,0:0:0:0:
352,64,48217,1,0,0:0:0:0:
120,96,48217,1,0,0:0:0:0:
120,96,48217,1,0,0:0:0:0:
408,184,48218,1,0,0:0:0:0:
408,184,48218,1,0,0:0:0:0:
149,112,48218,1,0,0:0:0:0:
264,368,48227,1,0,0:0:0:0:
96,216,48234,1,0,0:0:0:0:
96,216,48234,1,0,0:0:0:0:
261,35,48235,1,0,0:0:0:0:
280,112,48242,1,0,0:0:0:0:
280,112,48242,1,0,0:0:0:0:
208,48,48242,1,0,0:0:0:0:
208,48,48242,1,0,0:0:0:0:
352,328,48252,1,0,0:0:0:0:
96,248,48259,1,0,0:0:0:0:
96,248,48259,1,0,0:0:0:0:
192,176,48267,1,0,0:0:0:0:
192,176,48267,1,0,0:0:0:0:
272,48,48267,1,0,0:0:0:0:
272,48,48267,1,0,0:0:0:0:
216,272,48268,1,0,0:0:0:0:
216,272,48268,1,0,0:0:0:0:
161,95,48268,1,0,0:0:0:0:
88,280,48284,1,0,0:0:0:0:
88,280,48284,1,0,0:0:0:0:
328,224,48284,1,0,0:0:0:0:
280,32,48285,1,0,0:0:0:0:
168,224,48292,1,0,0:0:0:0:
168,224,48292,1,0,0:0:0:0:
312,48,48292,1,0,0:0:0:0:
312,48,48292,1,0,0:0:0:0:
312,352,48302,1,0,0:0:0:0:
112,312,48309,1,0,0:0:0:0:
112,312,48309,1,0,0:0:0:0:
392,288,48309,1,0,0:0:0:0:
168,296,48317,1,0,0:0:0:0:
168,296,48317,1,0,0:0:0:0:
344,80,48317,1,0,0:0:0:0:
344,80,48317,1,0,0:0:0:0:
288,96,48318,1,0,0:0:0:0:
288,96,48318,1,0,0:0:0:0:
174,81,48318,1,0,0:0:0:0:
392,288,48327,1,0,0:0:0:0:
176,320,48334,1,0,0:0:0:0:
176,320,48334,1,0,0:0:0:0:
312,352,48334,1,0,0:0:0:0:
300,32,48335,1,0,0:0:0:0:
160,296,48335,1,0,0:0:0:0:
208,320,48342,1,0,0:0:0:0:
208,320,48342,1,0,0:0:0:0:
352,128,48342,1,0,0:0:0:0:
352,128,48342,1,0,0:0:0:0:
328,224,48352,1,0,0:0:0:0:
248,312,48367,1,0,0:0:0:0:
248,312,48367,1,0,0:0:0:0:
352,184,48367,1,0,0:0:0:0:
352,184,48367,1,0,0:0:0:0:
328,320,48368,1,0,0:0:0:0:
328,320,48368,1,0,0:0:0:0:
189,68,48368,1,0,0:0:0:0:
144,320,48384,1,0,0:0:0:0:
144,320,48384,1,0,0:0:0:0:
352,328,48384,1,0,0:0:0:0:
320,34,48385,1,0,0:0:0:0:
48,136,48385,1,0,0:0:0:0:
352,280,48392,1,0,0:0:0:0:
352,280,48392,1,0,0:0:0:0:
336,232,48392,1,0,0:0:0:0:
336,232,48392,1,0,0:0:0:0:
224,320,48409,1,0,0:0:0:0:
224,320,48409,1,0,0:0:0:0:
264,368,48409,1,0,0:0:0:0:
352,160,48417,1,0,0:0:0:0:
352,160,48417,1,0,0:0:0:0:
320,272,48417,1,0,0:0:0:0:
320,272,48417,1,0,0:0:0:0:
80,296,48418,1,0,0:0:0:0:
80,296,48418,1,0,0:0:0:0:
205,57,48418,1,0,0:0:0:0:
280,144,48418,1,8,0:0:0:0:
272,328,48434,1,0,0:0:0:0:
272,328,48434,1,0,0:0:0:0:
224,376,48434,1,0,0:0:0:0:
339,38,48435,1,0,0:0:0:0:
256,176,48435,1,0,0:0:0:0:
360,64,48442,1,0,0:0:0:0:
360,64,48442,1,0,0:0:0:0:
264,208,48442,1,0,0:0:0:0:
264,208,48442,1,0,0:0:0:0:
288,344,48459,1,0,0:0:0:0:
288,344,48459,1,0,0:0:0:0:
160,368,48459,1,0,0:0:0:0:
248,112,48467,1,0,0:0:0:0:
248,112,48467,1,0,0:0:0:0:
416,48,48468,1,0,0:0:0:0:
416,48,48468,1,0,0:0:0:0:
223,47,48468,1,0,0:0:0:0:
336,344,48484,1,0,0:0:0:0:
336,344,48484,1,0,0:0:0:0:
128,344,48484,1,0,0:0:0:0:
358,44,48485,1,0,0:0:0:0:
48,240,48485,1,0,0:0:0:0:
320,32,48492,5,0,0:0:0:0:
320,32,48492,5,0,0:0:0:0:
192,88,48492,1,0,0:0:0:0:
192,88,48492,1,0,0:0:0:0:
368,352,48509,1,0,0:0:0:0:
368,352,48509,1,0,0:0:0:0:
104,320,48509,1,0,0:0:0:0:
152,176,48517,5,0,0:0:0:0:
152,176,48517,5,0,0:0:0:0:
160,136,48517,1,0,0:0:0:0:
160,136,48517,1,0,0:0:0:0:
432,336,48518,1,0,0:0:0:0:
432,336,48518,1,0,0:0:0:0:
241,40,48518,1,0,0:0:0:0:
256,192,48519,12,8,48719,0:0:0:0:
416,328,48534,5,0,0:0:0:0:
416,328,48534,1,0,0:0:0:0:
88,280,48534,1,0,0:0:0:0:
376,53,48535,1,0,0:0:0:0:
88,64,48535,1,0,0:0:0:0:
160,120,48542,1,0,0:0:0:0:
160,120,48542,1,0,0:0:0:0:
128,168,48542,1,0,0:0:0:0:
128,168,48542,1,0,0:0:0:0:
400,280,48559,1,0,0:0:0:0:
400,280,48559,1,0,0:0:0:0:
88,224,48559,1,0,0:0:0:0:
232,336,48567,1,0,0:0:0:0:
232,336,48567,1,0,0:0:0:0:
96,216,48567,1,0,0:0:0:0:
96,216,48567,1,0,0:0:0:0:
208,192,48568,1,0,0:0:0:0:
208,192,48568,1,0,0:0:0:0:
261,35,48568,1,0,0:0:0:0:
416,232,48584,1,0,0:0:0:0:
416,232,48584,1,0,0:0:0:0:
96,160,48584,1,0,0:0:0:0:
392,64,48585,1,0,0:0:0:0:
344,304,48585,1,0,0:0:0:0:
320,336,48592,1,0,0:0:0:0:
320,336,48592,1,0,0:0:0:0:
96,248,48592,1,0,0:0:0:0:
96,248,48592,1,0,0:0:0:0:
408,176,48609,1,0,0:0:0:0:
408,176,48609,1,0,0:0:0:0:
104,64,48609,1,0,0:0:0:0:
352,328,48617,1,0,0:0:0:0:
352,328,48617,1,0,0:0:0:0:
88,280,48617,1,0,0:0:0:0:
88,280,48617,1,0,0:0:0:0:
64,176,48618,1,0,0:0:0:0:
64,176,48618,1,0,0:0:0:0:
280,32,48618,1,0,0:0:0:0:
384,136,48634,1,0,0:0:0:0:
384,136,48634,1,0,0:0:0:0:
168,48,48634,1,0,0:0:0:0:
216,136,48635,1,0,0:0:0:0:
400,240,48642,1,0,0:0:0:0:
400,240,48642,1,0,0:0:0:0:
112,312,48642,1,0,0:0:0:0:
112,312,48642,1,0,0:0:0:0:
152,80,48652,6,0,B|184:304|152:96,3,216.666666666667
152,80,48652,6,0,B|184:304|152:96,3,216.666666666667
352,104,48659,1,0,0:0:0:0:
352,104,48659,1,0,0:0:0:0:
280,48,48659,1,0,0:0:0:0:
400,176,48667,1,0,0:0:0:0:
400,176,48667,1,0,0:0:0:0:
176,320,48667,1,0,0:0:0:0:
176,320,48667,1,0,0:0:0:0:
96,368,48668,1,0,0:0:0:0:
96,368,48668,1,0,0:0:0:0:
300,32,48668,1,0,0:0:0:0:
304,64,48684,1,0,0:0:0:0:
304,64,48684,1,0,0:0:0:0:
352,64,48684,1,0,0:0:0:0:
408,184,48685,1,0,0:0:0:0:
400,136,48692,1,0,0:0:0:0:
400,136,48692,1,0,0:0:0:0:
224,48,48709,1,0,0:0:0:0:
224,48,48709,1,0,0:0:0:0:
280,112,48709,1,0,0:0:0:0:
368,104,48717,1,0,0:0:0:0:
368,104,48717,1,0,0:0:0:0:
144,320,48717,1,0,0:0:0:0:
144,320,48717,1,0,0:0:0:0:
272,64,48718,1,0,0:0:0:0:
272,64,48718,1,0,0:0:0:0:
320,34,48718,1,0,0:0:0:0:
168,56,48734,1,0,0:0:0:0:
168,56,48734,1,0,0:0:0:0:
192,176,48734,1,0,0:0:0:0:
152,288,48735,1,0,0:0:0:0:
216,272,48735,1,0,0:0:0:0:
320,96,48742,1,0,0:0:0:0:
320,96,48742,1,0,0:0:0:0:
224,320,48742,1,0,0:0:0:0:
224,320,48742,1,0,0:0:0:0:
128,64,48759,1,0,0:0:0:0:
128,64,48759,1,0,0:0:0:0:
168,224,48759,1,0,0:0:0:0:
264,96,48767,1,0,0:0:0:0:
264,96,48767,1,0,0:0:0:0:
272,328,48767,1,0,0:0:0:0:
272,328,48767,1,0,0:0:0:0:
232,272,48768,1,0,0:0:0:0:
232,272,48768,1,0,0:0:0:0:
339,38,48768,1,0,0:0:0:0:
104,80,48784,1,0,0:0:0:0:
104,80,48784,1,0,0:0:0:0:
168,296,48784,1,0,0:0:0:0:
312,400,48785,1,0,0:0:0:0:
288,96,48785,1,0,0:0:0:0:
216,112,48792,1,0,0:0:0:0:
216,112,48792,1,0,0:0:0:0:
288,344,48792,1,0,0:0:0:0:
288,344,48792,1,0,0:0:0:0:
208,320,48809,1,0,0:0:0:0:
176,128,48817,1,0,0:0:0:0:
176,128,48817,1,0,0:0:0:0:
336,344,48817,1,0,0:0:0:0:
336,344,48817,1,0,0:0:0:0:
88,88,48818,1,0,0:0:0:0:
88,88,48818,1,0,0:0:0:0:
358,44,48818,1,0,0:0:0:0:
248,312,48834,1,0,0:0:0:0:
272,192,48835,1,0,0:0:0:0:
328,320,48835,1,0,0:0:0:0:
240,184,48842,1,0,0:0:0:0:
240,184,48842,1,0,0:0:0:0:
368,352,48842,1,0,0:0:0:0:
368,352,48842,1,0,0:0:0:0:
352,280,48859,1,0,0:0:0:0:
336,200,48867,1,0,0:0:0:0:
336,200,48867,1,0,0:0:0:0:
416,328,48867,1,0,0:0:0:0:
416,328,48867,1,0,0:0:0:0:
272,336,48868,1,0,0:0:0:0:
272,336,48868,1,0,0:0:0:0:
376,53,48868,1,0,0:0:0:0:
352,160,48884,1,0,0:0:0:0:
208,400,48885,1,0,0:0:0:0:
80,296,48885,1,0,0:0:0:0:
360,256,48892,1,0,0:0:0:0:
360,256,48892,1,0,0:0:0:0:
400,280,48892,1,0,0:0:0:0:
400,280,48892,1,0,0:0:0:0:
360,64,48909,1,0,0:0:0:0:
312,288,48917,1,0,0:0:0:0:
312,288,48917,1,0,0:0:0:0:
416,232,48917,1,0,0:0:0:0:
416,232,48917,1,0,0:0:0:0:
464,48,48918,1,0,0:0:0:0:
464,48,48918,1,0,0:0:0:0:
392,64,48918,1,0,0:0:0:0:
256,192,48919,12,8,49119,0:0:0:0:
384,360,48935,5,0,0:0:0:0:
416,48,48935,1,0,0:0:0:0:
280,320,48942,1,0,0:0:0:0:
280,320,48942,1,0,0:0:0:0:
408,176,48942,1,0,0:0:0:0:
408,176,48942,1,0,0:0:0:0:
200,192,48952,2,0,B|256:80|192:272,1,162.5
200,192,48952,2,0,B|256:80|192:272,1,162.5
320,32,48959,5,0,0:0:0:0:
232,352,48967,1,0,0:0:0:0:
232,352,48967,1,0,0:0:0:0:
384,136,48967,1,0,0:0:0:0:
384,136,48967,1,0,0:0:0:0:
480,280,48968,1,0,0:0:0:0:
480,280,48968,1,0,0:0:0:0:
152,176,48984,5,0,0:0:0:0:
144,104,48985,1,0,0:0:0:0:
432,336,48985,1,0,0:0:0:0:
200,352,48992,1,0,0:0:0:0:
200,352,48992,1,0,0:0:0:0:
352,104,48992,1,0,0:0:0:0:
352,104,48992,1,0,0:0:0:0:
160,120,49009,1,0,0:0:0:0:
168,360,49017,1,0,0:0:0:0:
168,360,49017,1,0,0:0:0:0:
304,64,49017,1,0,0:0:0:0:
304,64,49017,1,0,0:0:0:0:
96,288,49018,1,0,0:0:0:0:
96,288,49018,1,0,0:0:0:0:
232,336,49034,1,0,0:0:0:0:
312,232,49035,1,0,0:0:0:0:
208,192,49035,1,0,0:0:0:0:
136,336,49042,1,0,0:0:0:0:
136,336,49042,1,0,0:0:0:0:
224,48,49042,1,0,0:0:0:0:
224,48,49042,1,0,0:0:0:0:
320,336,49059,1,0,0:0:0:0:
128,272,49067,1,0,0:0:0:0:
128,272,49067,1,0,0:0:0:0:
168,56,49067,1,0,0:0:0:0:
168,56,49067,1,0,0:0:0:0:
184,72,49068,1,0,0:0:0:0:
184,72,49068,1,0,0:0:0:0:
152,288,49068,1,0,0:0:0:0:
352,328,49084,1,0,0:0:0:0:
264,40,49085,1,0,0:0:0:0:
64,176,49085,1,0,0:0:0:0:
128,64,49092,1,0,0:0:0:0:
128,64,49092,1,0,0:0:0:0:
400,240,49109,1,0,0:0:0:0:
128,304,49117,1,0,0:0:0:0:
128,304,49117,1,0,0:0:0:0:
104,80,49117,1,0,0:0:0:0:
104,80,49117,1,0,0:0:0:0:
344,256,49118,1,0,0:0:0:0:
344,256,49118,1,0,0:0:0:0:
312,400,49118,1,0,0:0:0:0:
152,80,49119,6,0,B|184:304|152:96,3,216.666666666667
400,176,49134,1,0,0:0:0:0:
176,232,49135,1,0,0:0:0:0:
96,368,49135,1,0,0:0:0:0:
128,224,49142,1,0,0:0:0:0:
128,224,49142,1,0,0:0:0:0:
400,136,49159,1,0,0:0:0:0:
120,176,49167,1,0,0:0:0:0:
120,176,49167,1,0,0:0:0:0:
368,112,49168,1,0,0:0:0:0:
368,112,49168,1,0,0:0:0:0:
272,192,49168,1,0,0:0:0:0:
368,104,49184,1,0,0:0:0:0:
352,160,49185,1,0,0:0:0:0:
272,64,49185,1,0,0:0:0:0:
104,160,49192,1,0,0:0:0:0:
104,160,49192,1,0,0:0:0:0:
320,96,49209,1,0,0:0:0:0:
104,112,49217,1,0,0:0:0:0:
104,112,49217,1,0,0:0:0:0:
208,400,49218,1,0,0:0:0:0:
264,96,49234,1,0,0:0:0:0:
128,120,49235,1,0,0:0:0:0:
232,272,49235,1,0,0:0:0:0:
96,80,49242,1,0,0:0:0:0:
96,80,49242,1,0,0:0:0:0:
256,192,49252,12,8,49452,0:0:0:0:
216,112,49259,5,0,0:0:0:0:
120,32,49267,1,0,0:0:0:0:
120,32,49267,1,0,0:0:0:0:
384,360,49268,1,0,0:0:0:0:
176,128,49284,1,0,0:0:0:0:
200,192,49285,2,0,B|256:80|192:272,1,162.5
200,192,49285,2,0,B|256:80|192:272,1,162.5
152,368,49285,1,0,0:0:0:0:
88,88,49285,1,0,0:0:0:0:
168,48,49292,1,0,0:0:0:0:
168,48,49292,1,0,0:0:0:0:
240,184,49309,1,0,0:0:0:0:
216,32,49317,1,0,0:0:0:0:
216,32,49317,1,0,0:0:0:0:
144,104,49318,1,0,0:0:0:0:
336,200,49334,1,0,0:0:0:0:
400,32,49335,1,0,0:0:0:0:
272,336,49335,1,0,0:0:0:0:
272,40,49342,1,0,0:0:0:0:
272,40,49342,1,0,0:0:0:0:
360,256,49359,1,0,0:0:0:0:
312,64,49367,1,0,0:0:0:0:
312,64,49367,1,0,0:0:0:0:
312,232,49368,1,0,0:0:0:0:
312,288,49384,1,0,0:0:0:0:
112,16,49385,1,0,0:0:0:0:
464,48,49385,1,0,0:0:0:0:
344,96,49392,1,0,0:0:0:0:
344,96,49392,1,0,0:0:0:0:
280,320,49409,1,0,0:0:0:0:
384,144,49417,1,0,0:0:0:0:
384,144,49417,1,0,0:0:0:0:
264,40,49418,1,0,0:0:0:0:
232,352,49434,1,0,0:0:0:0:
256,240,49435,1,0,0:0:0:0:
480,280,49435,1,0,0:0:0:0:
400,224,49442,1,0,0:0:0:0:
400,224,49442,1,0,0:0:0:0:
200,352,49459,1,0,0:0:0:0:
392,280,49467,1,0,0:0:0:0:
392,280,49467,1,0,0:0:0:0:
176,232,49468,1,0,0:0:0:0:
329,274,49484,2,0,P|177:313|48:224,1,325
329,274,49484,2,0,P|177:313|48:224,1,325
168,360,49484,1,0,0:0:0:0:
272,384,49485,1,0,0:0:0:0:
96,288,49485,1,0,0:0:0:0:
384,320,49492,1,0,0:0:0:0:
384,320,49492,1,0,0:0:0:0:
144,112,49502,1,0,0:0:0:0:
144,112,49502,1,0,0:0:0:0:
136,336,49509,1,0,0:0:0:0:
368,344,49517,1,0,0:0:0:0:
368,344,49517,1,0,0:0:0:0:
352,160,49518,1,0,0:0:0:0:
368,296,49519,6,0,B|144:264|352:296,3,216.666666666667
128,272,49534,1,0,0:0:0:0:
80,352,49535,1,0,0:0:0:0:
184,72,49535,1,0,0:0:0:0:
168,256,49552,1,0,0:0:0:0:
168,256,49552,1,0,0:0:0:0:
128,120,49568,1,0,0:0:0:0:
224,200,49584,1,0,0:0:0:0:
224,200,49584,1,0,0:0:0:0:
128,304,49584,1,0,0:0:0:0:
384,176,49585,1,0,0:0:0:0:
344,256,49585,1,0,0:0:0:0:
328,72,49602,1,0,0:0:0:0:
328,72,49602,1,0,0:0:0:0:
128,224,49609,1,0,0:0:0:0:
152,368,49618,1,0,0:0:0:0:
120,176,49634,1,0,0:0:0:0:
176,216,49635,1,0,0:0:0:0:
368,112,49635,1,0,0:0:0:0:
416,288,49652,1,0,0:0:0:0:
416,288,49652,1,0,0:0:0:0:
104,160,49659,1,0,0:0:0:0:
400,32,49668,1,0,0:0:0:0:
104,112,49684,1,0,0:0:0:0:
256,248,49685,2,0,B|368:192|176:256,1,162.5
256,248,49685,2,0,B|368:192|176:256,1,162.5
360,360,49685,1,0,0:0:0:0:
32,280,49702,1,0,0:0:0:0:
32,280,49702,1,0,0:0:0:0:
96,80,49709,1,0,0:0:0:0:
315,259,49718,2,0,B|256:80|312:192,1,162.5
315,259,49718,2,0,B|256:80|312:192,1,162.5
112,16,49718,1,0,0:0:0:0:
120,32,49734,1,0,0:0:0:0:
112,176,49735,1,0,0:0:0:0:
48,48,49752,1,0,0:0:0:0:
48,48,49752,1,0,0:0:0:0:
168,48,49759,1,0,0:0:0:0:
256,240,49768,1,0,0:0:0:0:
216,32,49784,1,0,0:0:0:0:
400,0,49785,1,0,0:0:0:0:
240,336,49802,1,0,0:0:0:0:
240,336,49802,1,0,0:0:0:0:
272,40,49809,1,0,0:0:0:0:
329,274,49817,2,0,P|177:313|48:224,1,325
329,274,49817,2,0,P|177:313|48:224,1,325
272,384,49818,1,0,0:0:0:0:
312,64,49834,1,0,0:0:0:0:
144,112,49835,1,0,0:0:0:0:
144,112,49835,1,0,0:0:0:0:
168,0,49835,1,0,0:0:0:0:
368,296,49852,6,0,B|144:264|352:296,3,216.666666666667
424,88,49852,1,0,0:0:0:0:
424,88,49852,1,0,0:0:0:0:
344,96,49859,1,0,0:0:0:0:
80,352,49868,1,0,0:0:0:0:
384,144,49884,1,0,0:0:0:0:
168,256,49885,1,0,0:0:0:0:
168,256,49885,1,0,0:0:0:0:
160,352,49885,1,0,0:0:0:0:
280,272,49902,1,0,0:0:0:0:
280,272,49902,1,0,0:0:0:0:
400,224,49909,1,0,0:0:0:0:
224,200,49917,1,0,0:0:0:0:
224,200,49917,1,0,0:0:0:0:
384,176,49918,1,0,0:0:0:0:
392,280,49934,1,0,0:0:0:0:
328,72,49935,1,0,0:0:0:0:
328,72,49935,1,0,0:0:0:0:
376,264,49935,1,0,0:0:0:0:
240,64,49952,1,0,0:0:0:0:
240,64,49952,1,0,0:0:0:0:
384,320,49959,1,0,0:0:0:0:
176,216,49968,1,0,0:0:0:0:
368,344,49984,1,0,0:0:0:0:
416,288,49985,1,0,0:0:0:0:
416,288,49985,1,0,0:0:0:0:
192,104,49985,1,0,0:0:0:0:
416,368,50002,1,0,0:0:0:0:
416,368,50002,1,0,0:0:0:0:
360,360,50018,1,0,0:0:0:0:
359,97,50018,2,0,B|328:304|360:80,3,216.666666666667
359,97,50018,2,0,B|328:304|360:80,3,216.666666666667
32,280,50035,1,0,0:0:0:0:
32,280,50035,1,0,0:0:0:0:
336,80,50035,1,0,0:0:0:0:
448,176,50052,1,0,0:0:0:0:
448,176,50052,1,0,0:0:0:0:
112,176,50068,1,0,0:0:0:0:
372,351,50084,2,0,B|-8:304|248:136|208:24|208:24|488:160|216:144,1,800
372,351,50084,2,0,B|-8:304|248:136|208:24|208:24|488:160|216:144,1,800
48,48,50085,1,0,0:0:0:0:
48,48,50085,1,0,0:0:0:0:
304,192,50102,1,0,0:0:0:0:
304,192,50102,1,0,0:0:0:0:
400,0,50118,1,0,0:0:0:0:
240,336,50135,1,0,0:0:0:0:
240,336,50135,1,0,0:0:0:0:
80,336,50152,1,0,0:0:0:0:
80,336,50152,1,0,0:0:0:0:
256,248,50152,2,0,B|368:192|176:256,1,162.5
168,0,50168,1,0,0:0:0:0:
424,88,50185,1,0,0:0:0:0:
424,88,50185,1,0,0:0:0:0:
315,259,50185,2,0,B|256:80|312:192,1,162.5
96,48,50202,1,0,0:0:0:0:
96,48,50202,1,0,0:0:0:0:
173,118,50217,2,0,P|134:270|224:400,1,325
173,118,50217,2,0,P|134:270|224:400,1,325
160,352,50218,1,0,0:0:0:0:
336,304,50235,1,0,0:0:0:0:
336,304,50235,1,0,0:0:0:0:
280,272,50235,1,0,0:0:0:0:
280,272,50235,1,0,0:0:0:0:
432,296,50252,1,0,0:0:0:0:
432,296,50252,1,0,0:0:0:0:
376,264,50268,1,0,0:0:0:0:
192,280,50285,1,0,0:0:0:0:
192,280,50285,1,0,0:0:0:0:
240,64,50285,1,0,0:0:0:0:
240,64,50285,1,0,0:0:0:0:
184,320,50302,1,0,0:0:0:0:
184,320,50302,1,0,0:0:0:0:
248,224,50317,1,0,0:0:0:0:
248,224,50317,1,0,0:0:0:0:
192,104,50318,1,0,0:0:0:0:
376,120,50335,1,0,0:0:0:0:
376,120,50335,1,0,0:0:0:0:
416,368,50335,1,0,0:0:0:0:
416,368,50335,1,0,0:0:0:0:
359,97,50351,2,0,B|328:304|360:80,3,216.666666666667
359,97,50351,2,0,B|328:304|360:80,3,216.666666666667
224,96,50352,1,0,0:0:0:0:
224,96,50352,1,0,0:0:0:0:
336,80,50368,1,0,0:0:0:0:
344,196,50384,2,0,P|265:102|144:128,1,260,8|6,0:0|0:0,0:0:0:0:
344,196,50384,2,0,P|265:102|144:128,1,260,8|6,0:0|0:0,0:0:0:0:
160,32,50385,1,0,0:0:0:0:
160,32,50385,1,0,0:0:0:0:
448,176,50385,1,0,0:0:0:0:
448,176,50385,1,0,0:0:0:0:
296,272,50402,1,0,0:0:0:0:
296,272,50402,1,0,0:0:0:0:
256,192,50418,8,8,50618,0:0:0:0:
256,192,50418,8,8,50618,0:0:0:0:
168,416,50435,5,0,0:0:0:0:
168,416,50435,1,0,0:0:0:0:
304,192,50435,1,0,0:0:0:0:
304,192,50435,1,0,0:0:0:0:
104,184,50452,1,0,0:0:0:0:
104,184,50452,1,0,0:0:0:0:
400,400,50485,1,0,0:0:0:0:
400,400,50485,1,0,0:0:0:0:
80,336,50485,1,0,0:0:0:0:
80,336,50485,1,0,0:0:0:0:
296,136,50502,1,0,0:0:0:0:
296,136,50502,1,0,0:0:0:0:
112,208,50535,1,0,0:0:0:0:
112,208,50535,1,0,0:0:0:0:
96,48,50535,1,0,0:0:0:0:
96,48,50535,1,0,0:0:0:0:
372,351,50551,2,0,B|-8:304|248:136|208:24|208:24|488:160|216:144,1,800
168,304,50552,1,0,0:0:0:0:
168,304,50552,1,0,0:0:0:0:
360,24,50585,1,0,0:0:0:0:
360,24,50585,1,0,0:0:0:0:
432,296,50585,1,0,0:0:0:0:
432,296,50585,1,0,0:0:0:0:
188,132,50585,2,0,B|368:192|256:136,1,162.5
424,64,50602,1,0,0:0:0:0:
424,64,50602,1,0,0:0:0:0:
176,168,50635,1,0,0:0:0:0:
176,168,50635,1,0,0:0:0:0:
184,320,50635,1,0,0:0:0:0:
184,320,50635,1,0,0:0:0:0:
464,240,50652,1,0,0:0:0:0:
464,240,50652,1,0,0:0:0:0:
173,118,50684,2,0,P|134:270|224:400,1,325
384,208,50685,1,0,0:0:0:0:
384,208,50685,1,0,0:0:0:0:
224,96,50685,1,0,0:0:0:0:
224,96,50685,1,0,0:0:0:0:
256,176,50702,1,0,0:0:0:0:
256,176,50702,1,0,0:0:0:0:
336,304,50702,1,0,0:0:0:0:
344,196,50717,2,0,P|265:102|144:128,1,260,8|6,0:0|0:0,0:0:0:0:
344,196,50717,2,0,P|265:102|144:128,1,260,8|6,0:0|0:0,0:0:0:0:
80,32,50735,1,0,0:0:0:0:
80,32,50735,1,0,0:0:0:0:
296,272,50735,1,0,0:0:0:0:
296,272,50735,1,0,0:0:0:0:
350,88,50751,2,0,B|144:120|368:88,3,216.666666666667
350,88,50751,2,0,B|144:120|368:88,3,216.666666666667
256,192,50751,8,8,50951,0:0:0:0:
256,192,50751,8,8,50951,0:0:0:0:
464,136,50752,5,0,0:0:0:0:
464,136,50752,1,0,0:0:0:0:
192,280,50752,1,0,0:0:0:0:
248,224,50784,1,0,0:0:0:0:
272,0,50785,1,0,0:0:0:0:
272,0,50785,1,0,0:0:0:0:
104,184,50785,1,0,0:0:0:0:
104,184,50785,1,0,0:0:0:0:
352,296,50802,1,0,0:0:0:0:
352,296,50802,1,0,0:0:0:0:
376,120,50802,1,0,0:0:0:0:
256,192,50834,8,0,51734,0:0:0:0:
256,192,50834,8,0,51734,0:0:0:0:
256,144,50835,5,0,0:0:0:0:
256,144,50835,1,0,0:0:0:0:
296,136,50835,1,0,0:0:0:0:
296,136,50835,1,0,0:0:0:0:
160,32,50852,1,0,0:0:0:0:
112,368,50885,1,0,0:0:0:0:
112,368,50885,1,0,0:0:0:0:
168,304,50885,1,0,0:0:0:0:
168,304,50885,1,0,0:0:0:0:
168,416,50902,1,0,0:0:0:0:
188,132,50918,2,0,B|368:192|256:136,1,162.5
400,352,50935,1,0,0:0:0:0:
400,352,50935,1,0,0:0:0:0:
424,64,50935,1,0,0:0:0:0:
424,64,50935,1,0,0:0:0:0:
96,75,50951,2,0,B|144:456|312:200|424:240|424:240|288:-40|304:232,1,800
128,56,50952,1,0,0:0:0:0:
128,56,50952,1,0,0:0:0:0:
400,400,50952,1,0,0:0:0:0:
152,16,50985,1,0,0:0:0:0:
152,16,50985,1,0,0:0:0:0:
464,240,50985,1,0,0:0:0:0:
464,240,50985,1,0,0:0:0:0:
117,72,51002,1,0,0:0:0:0:
117,72,51002,1,0,0:0:0:0:
112,208,51002,1,0,0:0:0:0:
128,264,51035,1,0,0:0:0:0:
128,264,51035,1,0,0:0:0:0:
256,176,51035,1,0,0:0:0:0:
256,176,51035,1,0,0:0:0:0:
108,90,51052,1,0,0:0:0:0:
108,90,51052,1,0,0:0:0:0:
360,24,51052,1,0,0:0:0:0:
352,224,51085,1,0,0:0:0:0:
352,224,51085,1,0,0:0:0:0:
464,136,51085,1,0,0:0:0:0:
464,136,51085,1,0,0:0:0:0:
102,109,51102,1,0,0:0:0:0:
102,109,51102,1,0,0:0:0:0:
176,168,51102,1,0,0:0:0:0:
251,103,51117,2,0,P|345:182|320:304,1,260,8|6,0:0|0:0,0:0:0:0:
251,103,51117,2,0,P|345:182|320:304,1,260,8|6,0:0|0:0,0:0:0:0:
176,152,51135,1,0,0:0:0:0:
176,152,51135,1,0,0:0:0:0:
352,296,51135,1,0,0:0:0:0:
352,296,51135,1,0,0:0:0:0:
256,192,51151,8,8,51351,0:0:0:0:
256,192,51151,8,8,51351,0:0:0:0:
98,128,51152,5,0,0:0:0:0:
98,128,51152,1,0,0:0:0:0:
384,208,51152,1,0,0:0:0:0:
264,344,51185,1,0,0:0:0:0:
264,344,51185,1,0,0:0:0:0:
96,148,51202,1,0,0:0:0:0:
96,148,51202,1,0,0:0:0:0:
80,32,51202,1,0,0:0:0:0:
350,88,51218,2,0,B|144:120|368:88,3,216.666666666667
312,152,51235,1,0,0:0:0:0:
312,152,51235,1,0,0:0:0:0:
96,168,51252,1,0,0:0:0:0:
96,168,51252,1,0,0:0:0:0:
272,0,51252,1,0,0:0:0:0:
96,75,51284,2,0,B|144:456|312:200|424:240|424:240|288:-40|304:232,1,800
144,280,51285,1,0,0:0:0:0:
144,280,51285,1,0,0:0:0:0:
128,56,51285,1,0,0:0:0:0:
128,56,51285,1,0,0:0:0:0:
256,192,51301,8,0,52201,0:0:0:0:
99,187,51302,5,0,0:0:0:0:
99,187,51302,1,0,0:0:0:0:
256,144,51302,1,0,0:0:0:0:
384,24,51335,1,0,0:0:0:0:
384,24,51335,1,0,0:0:0:0:
117,72,51335,1,0,0:0:0:0:
117,72,51335,1,0,0:0:0:0:
104,207,51352,1,0,0:0:0:0:
104,207,51352,1,0,0:0:0:0:
112,368,51352,1,0,0:0:0:0:
208,0,51385,1,0,0:0:0:0:
208,0,51385,1,0,0:0:0:0:
108,90,51385,1,0,0:0:0:0:
108,90,51385,1,0,0:0:0:0:
111,225,51402,1,0,0:0:0:0:
111,225,51402,1,0,0:0:0:0:
400,352,51402,1,0,0:0:0:0:
272,192,51435,1,0,0:0:0:0:
272,192,51435,1,0,0:0:0:0:
102,109,51435,1,0,0:0:0:0:
102,109,51435,1,0,0:0:0:0:
208,168,51452,1,8,0:0:0:0:
208,168,51452,1,8,0:0:0:0:
121,243,51452,1,0,0:0:0:0:
121,243,51452,1,0,0:0:0:0:
152,16,51452,1,0,0:0:0:0:
312,0,51485,1,0,0:0:0:0:
312,0,51485,1,0,0:0:0:0:
98,128,51485,1,0,0:0:0:0:
98,128,51485,1,0,0:0:0:0:
132,259,51502,1,0,0:0:0:0:
132,259,51502,1,0,0:0:0:0:
128,264,51502,1,0,0:0:0:0:
288,120,51518,1,0,0:0:0:0:
288,120,51518,1,0,0:0:0:0:
152,96,51535,1,0,0:0:0:0:
152,96,51535,1,0,0:0:0:0:
96,148,51535,1,0,0:0:0:0:
96,148,51535,1,0,0:0:0:0:
352,56,51543,1,0,0:0:0:0:
352,56,51543,1,0,0:0:0:0:
145,274,51552,1,0,0:0:0:0:
145,274,51552,1,0,0:0:0:0:
352,224,51552,1,0,0:0:0:0:
416,136,51568,1,0,0:0:0:0:
416,136,51568,1,0,0:0:0:0:
251,103,51584,2,0,P|345:182|320:304,1,260,8|6,0:0|0:0,0:0:0:0:
96,168,51585,1,0,0:0:0:0:
96,168,51585,1,0,0:0:0:0:
159,287,51602,1,0,0:0:0:0:
159,287,51602,1,0,0:0:0:0:
176,152,51602,1,0,0:0:0:0:
392,96,51618,1,0,0:0:0:0:
392,96,51618,1,0,0:0:0:0:
256,192,51618,8,8,51818,0:0:0:0:
99,187,51635,5,0,0:0:0:0:
99,187,51635,1,0,0:0:0:0:
432,184,51643,1,0,0:0:0:0:
432,184,51643,1,0,0:0:0:0:
176,299,51652,1,0,0:0:0:0:
176,299,51652,1,0,0:0:0:0:
264,344,51652,1,0,0:0:0:0:
440,224,51668,1,0,0:0:0:0:
440,224,51668,1,0,0:0:0:0:
392,320,51685,1,0,0:0:0:0:
392,320,51685,1,0,0:0:0:0:
104,207,51685,1,0,0:0:0:0:
104,207,51685,1,0,0:0:0:0:
432,288,51693,1,0,0:0:0:0:
432,288,51693,1,0,0:0:0:0:
256,192,51701,8,0,52601,0:0:0:0:
193,308,51702,5,0,0:0:0:0:
193,308,51702,1,0,0:0:0:0:
312,152,51702,1,0,0:0:0:0:
408,320,51718,1,0,0:0:0:0:
408,320,51718,1,0,0:0:0:0:
376,331,51735,1,0,0:0:0:0:
376,331,51735,1,0,0:0:0:0:
111,225,51735,1,0,0:0:0:0:
111,225,51735,1,0,0:0:0:0:
384,344,51743,1,0,0:0:0:0:
384,344,51743,1,0,0:0:0:0:
211,316,51752,1,0,0:0:0:0:
211,316,51752,1,0,0:0:0:0:
144,280,51752,1,0,0:0:0:0:
344,360,51768,1,0,0:0:0:0:
344,360,51768,1,0,0:0:0:0:
358,340,51785,1,0,0:0:0:0:
358,340,51785,1,0,0:0:0:0:
121,243,51785,1,0,0:0:0:0:
121,243,51785,1,0,0:0:0:0:
288,360,51793,1,0,0:0:0:0:
288,360,51793,1,0,0:0:0:0:
230,321,51802,1,0,0:0:0:0:
230,321,51802,1,0,0:0:0:0:
384,24,51802,1,0,0:0:0:0:
224,352,51818,1,0,0:0:0:0:
224,352,51818,1,0,0:0:0:0:
339,346,51835,1,0,0:0:0:0:
339,346,51835,1,0,0:0:0:0:
132,259,51835,1,0,0:0:0:0:
132,259,51835,1,0,0:0:0:0:
128,344,51843,1,0,0:0:0:0:
128,344,51843,1,0,0:0:0:0:
288,120,51851,1,0,0:0:0:0:
288,120,51851,1,0,0:0:0:0:
256,192,51852,12,0,52085,0:0:0:0:
256,192,51852,12,0,52085,0:0:0:0:
250,324,51852,5,0,0:0:0:0:
250,324,51852,1,0,0:0:0:0:
208,0,51852,1,0,0:0:0:0:
112,280,51868,1,0,0:0:0:0:
112,280,51868,1,0,0:0:0:0:
352,56,51876,1,0,0:0:0:0:
352,56,51876,1,0,0:0:0:0:
320,350,51885,1,0,0:0:0:0:
320,350,51885,1,0,0:0:0:0:
145,274,51885,1,0,0:0:0:0:
145,274,51885,1,0,0:0:0:0:
112,168,51893,1,0,0:0:0:0:
112,168,51893,1,0,0:0:0:0:
416,136,51901,1,0,0:0:0:0:
416,136,51901,1,0,0:0:0:0:
270,325,51902,1,0,0:0:0:0:
270,325,51902,1,0,0:0:0:0:
272,192,51902,1,0,0:0:0:0:
128,96,51918,1,0,0:0:0:0:
128,96,51918,1,0,0:0:0:0:
208,168,51919,1,8,0:0:0:0:
300,352,51935,1,0,0:0:0:0:
300,352,51935,1,0,0:0:0:0:
159,287,51935,1,0,0:0:0:0:
159,287,51935,1,0,0:0:0:0:
176,168,51943,1,0,0:0:0:0:
176,168,51943,1,0,0:0:0:0:
392,96,51951,1,0,0:0:0:0:
392,96,51951,1,0,0:0:0:0:
289,323,51952,1,0,0:0:0:0:
289,323,51952,1,0,0:0:0:0:
312,0,51952,1,0,0:0:0:0:
240,256,51968,1,0,0:0:0:0:
240,256,51968,1,0,0:0:0:0:
432,184,51976,1,0,0:0:0:0:
432,184,51976,1,0,0:0:0:0:
280,200,51984,1,0,0:0:0:0:
280,200,51984,1,0,0:0:0:0:
280,352,51985,1,0,0:0:0:0:
280,352,51985,1,0,0:0:0:0:
176,299,51985,1,0,0:0:0:0:
176,299,51985,1,0,0:0:0:0:
288,280,51993,1,0,0:0:0:0:
288,280,51993,1,0,0:0:0:0:
440,224,52001,1,0,0:0:0:0:
440,224,52001,1,0,0:0:0:0:
309,320,52002,1,0,0:0:0:0:
309,320,52002,1,0,0:0:0:0:
152,96,52002,1,0,0:0:0:0:
360,280,52018,1,0,0:0:0:0:
360,280,52018,1,0,0:0:0:0:
432,288,52026,1,0,0:0:0:0:
432,288,52026,1,0,0:0:0:0:
256,192,52034,8,0,52934,0:0:0:0:
261,349,52035,5,0,0:0:0:0:
261,349,52035,1,0,0:0:0:0:
193,308,52035,1,0,0:0:0:0:
193,308,52035,1,0,0:0:0:0:
384,240,52043,1,0,0:0:0:0:
384,240,52043,1,0,0:0:0:0:
408,320,52051,1,0,0:0:0:0:
408,320,52051,1,0,0:0:0:0:
168,280,52051,1,0,0:0:0:0:
168,280,52051,1,0,0:0:0:0:
328,314,52052,1,0,0:0:0:0:
328,314,52052,1,0,0:0:0:0:
376,200,52068,1,0,0:0:0:0:
376,200,52068,1,0,0:0:0:0:
384,344,52076,1,0,0:0:0:0:
384,344,52076,1,0,0:0:0:0:
256,192,52085,12,0,52118,0:0:0:0:
256,192,52085,12,0,52118,0:0:0:0:
241,344,52085,5,0,0:0:0:0:
241,344,52085,1,0,0:0:0:0:
211,316,52085,1,0,0:0:0:0:
211,316,52085,1,0,0:0:0:0:
344,96,52093,1,0,0:0:0:0:
344,96,52093,1,0,0:0:0:0:
344,360,52101,1,0,0:0:0:0:
344,360,52101,1,0,0:0:0:0:
346,305,52102,1,0,0:0:0:0:
346,305,52102,1,0,0:0:0:0:
448,224,52118,1,0,0:0:0:0:
224,96,52118,1,0,0:0:0:0:
224,96,52118,1,0,0:0:0:0:
448,224,52118,1,0,0:0:0:0:
288,360,52126,1,0,0:0:0:0:
288,360,52126,1,0,0:0:0:0:
223,337,52135,1,0,0:0:0:0:
223,337,52135,1,0,0:0:0:0:
230,321,52135,1,0,0:0:0:0:
230,321,52135,1,0,0:0:0:0:
128,88,52143,1,0,0:0:0:0:
128,88,52143,1,0,0:0:0:0:
224,352,52151,1,0,0:0:0:0:
224,352,52151,1,0,0:0:0:0:
363,295,52152,1,0,0:0:0:0:
363,295,52152,1,0,0:0:0:0:
392,320,52152,1,0,0:0:0:0:
128,344,52176,1,0,0:0:0:0:
128,344,52176,1,0,0:0:0:0:
400,56,52184,1,0,0:0:0:0:
400,56,52184,1,0,0:0:0:0:
205,327,52185,1,0,0:0:0:0:
205,327,52185,1,0,0:0:0:0:
250,324,52185,1,0,0:0:0:0:
250,324,52185,1,0,0:0:0:0:
96,128,52193,5,0,0:0:0:0:
96,128,52193,5,0,0:0:0:0:
112,280,52201,1,0,0:0:0:0:
112,280,52201,1,0,0:0:0:0:
378,283,52202,1,0,0:0:0:0:
378,283,52202,1,0,0:0:0:0:
376,331,52202,1,0,0:0:0:0:
240,296,52218,5,0,0:0:0:0:
240,296,52218,5,0,0:0:0:0:
112,168,52226,1,0,0:0:0:0:
112,168,52226,1,0,0:0:0:0:
189,316,52235,1,0,0:0:0:0:
189,316,52235,1,0,0:0:0:0:
270,325,52235,1,0,0:0:0:0:
270,325,52235,1,0,0:0:0:0:
184,288,52243,1,0,0:0:0:0:
184,288,52243,1,0,0:0:0:0:
328,160,52251,1,0,0:0:0:0:
328,160,52251,1,0,0:0:0:0:
128,96,52251,1,0,0:0:0:0:
128,96,52251,1,0,0:0:0:0:
192,80,52251,1,0,0:0:0:0:
192,80,52251,1,0,0:0:0:0:
393,269,52252,1,0,0:0:0:0:
393,269,52252,1,0,0:0:0:0:
358,340,52252,1,0,0:0:0:0:
400,216,52268,1,0,0:0:0:0:
400,216,52268,1,0,0:0:0:0:
392,96,52276,1,0,0:0:0:0:
392,96,52276,1,0,0:0:0:0:
176,168,52276,1,0,0:0:0:0:
176,168,52276,1,0,0:0:0:0:
174,303,52285,1,0,0:0:0:0:
174,303,52285,1,0,0:0:0:0:
289,323,52285,1,0,0:0:0:0:
289,323,52285,1,0,0:0:0:0:
400,128,52293,1,0,0:0:0:0:
400,128,52293,1,0,0:0:0:0:
312,32,52301,1,0,0:0:0:0:
312,32,52301,1,0,0:0:0:0:
240,256,52301,1,0,0:0:0:0:
240,256,52301,1,0,0:0:0:0:
405,254,52302,1,0,0:0:0:0:
405,254,52302,1,0,0:0:0:0:
339,346,52302,1,0,0:0:0:0:
280,200,52317,1,0,0:0:0:0:
280,200,52317,1,0,0:0:0:0:
256,344,52318,1,0,0:0:0:0:
392,96,52318,1,0,0:0:0:0:
392,96,52318,1,0,0:0:0:0:
256,344,52318,1,0,0:0:0:0:
256,192,52319,12,0,52552,0:0:0:0:
280,240,52319,5,8,0:0:0:0:
288,280,52326,1,0,0:0:0:0:
288,280,52326,1,0,0:0:0:0:
161,289,52335,1,0,0:0:0:0:
161,289,52335,1,0,0:0:0:0:
309,320,52335,1,0,0:0:0:0:
309,320,52335,1,0,0:0:0:0:
304,48,52343,1,0,0:0:0:0:
304,48,52343,1,0,0:0:0:0:
352,56,52351,1,0,0:0:0:0:
352,56,52351,1,0,0:0:0:0:
360,280,52351,1,0,0:0:0:0:
360,280,52351,1,0,0:0:0:0:
416,237,52352,1,0,0:0:0:0:
416,237,52352,1,0,0:0:0:0:
320,350,52352,1,0,0:0:0:0:
240,48,52368,1,0,0:0:0:0:
240,48,52368,1,0,0:0:0:0:
264,16,52376,1,0,0:0:0:0:
264,16,52376,1,0,0:0:0:0:
384,240,52376,1,0,0:0:0:0:
384,240,52376,1,0,0:0:0:0:
168,280,52384,1,0,0:0:0:0:
168,280,52384,1,0,0:0:0:0:
424,152,52384,1,0,0:0:0:0:
424,152,52384,1,0,0:0:0:0:
149,272,52385,1,0,0:0:0:0:
149,272,52385,1,0,0:0:0:0:
328,314,52385,1,0,0:0:0:0:
328,314,52385,1,0,0:0:0:0:
200,48,52393,1,0,0:0:0:0:
200,48,52393,1,0,0:0:0:0:
224,8,52401,1,0,0:0:0:0:
224,8,52401,1,0,0:0:0:0:
376,200,52401,1,0,0:0:0:0:
376,200,52401,1,0,0:0:0:0:
424,219,52402,1,0,0:0:0:0:
424,219,52402,1,0,0:0:0:0:
300,352,52402,1,0,0:0:0:0:
168,80,52418,1,0,0:0:0:0:
168,80,52418,1,0,0:0:0:0:
160,16,52426,1,0,0:0:0:0:
160,16,52426,1,0,0:0:0:0:
344,96,52426,1,0,0:0:0:0:
344,96,52426,1,0,0:0:0:0:
140,255,52435,1,0,0:0:0:0:
140,255,52435,1,0,0:0:0:0:
346,305,52435,1,0,0:0:0:0:
346,305,52435,1,0,0:0:0:0:
160,128,52443,1,0,0:0:0:0:
160,128,52443,1,0,0:0:0:0:
128,40,52451,1,0,0:0:0:0:
128,40,52451,1,0,0:0:0:0:
448,224,52451,1,0,0:0:0:0:
224,96,52451,1,0,0:0:0:0:
224,96,52451,1,0,0:0:0:0:
448,224,52451,1,0,0:0:0:0:
80,152,52451,1,0,0:0:0:0:
80,152,52451,1,0,0:0:0:0:
431,201,52452,1,0,0:0:0:0:
431,201,52452,1,0,0:0:0:0:
280,352,52452,1,0,0:0:0:0:
160,184,52468,1,0,0:0:0:0:
160,184,52468,1,0,0:0:0:0:
104,64,52476,1,0,0:0:0:0:
104,64,52476,1,0,0:0:0:0:
128,88,52476,1,0,0:0:0:0:
128,88,52476,1,0,0:0:0:0:
132,237,52485,1,0,0:0:0:0:
132,237,52485,1,0,0:0:0:0:
363,295,52485,1,0,0:0:0:0:
363,295,52485,1,0,0:0:0:0:
176,232,52493,1,0,0:0:0:0:
176,232,52493,1,0,0:0:0:0:
88,104,52501,1,0,0:0:0:0:
88,104,52501,1,0,0:0:0:0:
435,181,52502,1,0,0:0:0:0:
435,181,52502,1,0,0:0:0:0:
261,349,52502,1,0,0:0:0:0:
400,56,52517,1,0,0:0:0:0:
400,56,52517,1,0,0:0:0:0:
344,368,52518,1,0,0:0:0:0:
192,272,52518,1,0,0:0:0:0:
192,272,52518,1,0,0:0:0:0:
344,368,52518,1,0,0:0:0:0:
96,128,52526,5,0,0:0:0:0:
96,128,52526,5,0,0:0:0:0:
88,160,52526,1,0,0:0:0:0:
88,160,52526,1,0,0:0:0:0:
127,218,52535,1,0,0:0:0:0:
127,218,52535,1,0,0:0:0:0:
378,283,52535,1,0,0:0:0:0:
378,283,52535,1,0,0:0:0:0:
248,208,52543,1,0,0:0:0:0:
248,208,52543,1,0,0:0:0:0:
240,296,52551,5,0,0:0:0:0:
240,296,52551,5,0,0:0:0:0:
96,224,52551,1,0,0:0:0:0:
96,224,52551,1,0,0:0:0:0:
256,192,52552,12,0,52585,0:0:0:0:
437,161,52552,5,0,0:0:0:0:
437,161,52552,1,0,0:0:0:0:
241,344,52552,1,0,0:0:0:0:
264,112,52568,1,0,0:0:0:0:
264,112,52568,1,0,0:0:0:0:
104,320,52576,1,0,0:0:0:0:
104,320,52576,1,0,0:0:0:0:
184,288,52576,1,0,0:0:0:0:
184,288,52576,1,0,0:0:0:0:
128,272,52584,1,14,0:3:0:0:
128,272,52584,1,14,0:3:0:0:
192,80,52584,1,0,0:0:0:0:
192,80,52584,1,0,0:0:0:0:
296,136,52584,1,0,0:0:0:0:
296,136,52584,1,0,0:0:0:0:
124,198,52585,1,0,0:0:0:0:
124,198,52585,1,0,0:0:0:0:
393,269,52585,1,0,0:0:0:0:
393,269,52585,1,0,0:0:0:0:
320,88,52593,1,0,0:0:0:0:
320,88,52593,1,0,0:0:0:0:
168,336,52601,1,0,0:0:0:0:
168,336,52601,1,0,0:0:0:0:
400,216,52601,1,0,0:0:0:0:
400,216,52601,1,0,0:0:0:0:
437,142,52602,1,0,0:0:0:0:
437,142,52602,1,0,0:0:0:0:
223,337,52602,1,0,0:0:0:0:
352,136,52618,1,0,0:0:0:0:
352,136,52618,1,0,0:0:0:0:
280,336,52626,1,0,0:0:0:0:
280,336,52626,1,0,0:0:0:0:
400,128,52626,1,0,0:0:0:0:
400,128,52626,1,0,0:0:0:0:
304,120,52634,1,14,0:3:0:0:
304,120,52634,1,14,0:3:0:0:
123,178,52635,1,0,0:0:0:0:
123,178,52635,1,0,0:0:0:0:
405,254,52635,1,0,0:0:0:0:
405,254,52635,1,0,0:0:0:0:
384,168,52643,1,0,0:0:0:0:
384,168,52643,1,0,0:0:0:0:
352,320,52651,1,0,0:0:0:0:
352,320,52651,1,0,0:0:0:0:
256,344,52651,1,0,0:0:0:0:
392,96,52651,1,0,0:0:0:0:
392,96,52651,1,0,0:0:0:0:
256,344,52651,1,0,0:0:0:0:
144,344,52651,1,0,0:0:0:0:
144,344,52651,1,0,0:0:0:0:
280,240,52652,1,8,0:0:0:0:
434,122,52652,1,0,0:0:0:0:
434,122,52652,1,0,0:0:0:0:
205,327,52652,1,0,0:0:0:0:
416,216,52668,1,0,0:0:0:0:
416,216,52668,1,0,0:0:0:0:
280,272,52676,1,0,0:0:0:0:
280,272,52676,1,0,0:0:0:0:
304,48,52676,1,0,0:0:0:0:
304,48,52676,1,0,0:0:0:0:
72,160,52684,1,14,0:3:0:0:
72,160,52684,1,14,0:3:0:0:
125,159,52685,1,0,0:0:0:0:
125,159,52685,1,0,0:0:0:0:
416,237,52685,1,0,0:0:0:0:
416,237,52685,1,0,0:0:0:0:
416,248,52693,1,0,0:0:0:0:
416,248,52693,1,0,0:0:0:0:
192,208,52701,1,0,0:0:0:0:
192,208,52701,1,0,0:0:0:0:
240,48,52701,1,0,0:0:0:0:
240,48,52701,1,0,0:0:0:0:
429,103,52702,1,0,0:0:0:0:
429,103,52702,1,0,0:0:0:0:
189,316,52702,1,0,0:0:0:0:
248,168,52717,1,0,0:0:0:0:
248,168,52717,1,0,0:0:0:0:
424,152,52717,1,0,0:0:0:0:
424,152,52717,1,0,0:0:0:0:
392,160,52718,1,0,0:0:0:0:
424,280,52718,1,0,0:0:0:0:
424,280,52718,1,0,0:0:0:0:
392,160,52718,1,0,0:0:0:0:
328,160,52718,1,0,0:0:0:0:
256,192,52719,12,0,52952,0:0:0:0:
168,160,52726,5,0,0:0:0:0:
168,160,52726,1,0,0:0:0:0:
200,48,52726,1,0,0:0:0:0:
200,48,52726,1,0,0:0:0:0:
264,264,52734,1,14,0:3:0:0:
264,264,52734,1,14,0:3:0:0:
128,139,52735,1,0,0:0:0:0:
128,139,52735,1,0,0:0:0:0:
424,219,52735,1,0,0:0:0:0:
424,219,52735,1,0,0:0:0:0:
400,312,52743,1,0,0:0:0:0:
400,312,52743,1,0,0:0:0:0:
392,96,52743,1,0,0:0:0:0:
168,88,52751,1,0,0:0:0:0:
168,88,52751,1,0,0:0:0:0:
168,80,52751,1,0,0:0:0:0:
168,80,52751,1,0,0:0:0:0:
422,84,52752,1,0,0:0:0:0:
422,84,52752,1,0,0:0:0:0:
174,303,52752,1,0,0:0:0:0:
336,320,52768,1,0,0:0:0:0:
336,320,52768,1,0,0:0:0:0:
312,32,52768,1,0,0:0:0:0:
208,64,52776,1,0,0:0:0:0:
208,64,52776,1,0,0:0:0:0:
160,128,52776,1,0,0:0:0:0:
160,128,52776,1,0,0:0:0:0:
176,80,52784,1,14,0:3:0:0:
168,280,52784,1,0,0:0:0:0:
168,280,52784,1,0,0:0:0:0:
176,80,52784,1,14,0:3:0:0:
80,152,52784,1,0,0:0:0:0:
80,152,52784,1,0,0:0:0:0:
160,56,52784,1,0,0:0:0:0:
160,56,52784,1,0,0:0:0:0:
120,48,52785,5,14,0:3:0:0:
134,120,52785,1,0,0:0:0:0:
134,120,52785,1,0,0:0:0:0:
431,201,52785,1,0,0:0:0:0:
431,201,52785,1,0,0:0:0:0:
248,72,52801,1,0,0:0:0:0:
248,72,52801,1,0,0:0:0:0:
160,184,52801,1,0,0:0:0:0:
160,184,52801,1,0,0:0:0:0:
413,67,52802,1,0,0:0:0:0:
413,67,52802,1,0,0:0:0:0:
161,289,52802,1,0,0:0:0:0:
368,320,52818,1,0,0:0:0:0:
368,320,52818,1,0,0:0:0:0:
352,56,52818,1,0,0:0:0:0:
352,104,52826,1,0,0:0:0:0:
352,104,52826,1,0,0:0:0:0:
176,232,52826,1,0,0:0:0:0:
176,232,52826,1,0,0:0:0:0:
272,272,52834,1,14,0:3:0:0:
272,272,52834,1,14,0:3:0:0:
143,102,52835,1,0,0:0:0:0:
143,102,52835,1,0,0:0:0:0:
435,181,52835,1,0,0:0:0:0:
435,181,52835,1,0,0:0:0:0:
288,320,52843,1,0,0:0:0:0:
288,320,52843,1,0,0:0:0:0:
264,16,52843,1,0,0:0:0:0:
224,0,52851,1,0,0:0:0:0:
352,224,52851,1,0,0:0:0:0:
352,224,52851,1,0,0:0:0:0:
224,0,52851,1,0,0:0:0:0:
344,368,52851,1,0,0:0:0:0:
192,272,52851,1,0,0:0:0:0:
192,272,52851,1,0,0:0:0:0:
344,368,52851,1,0,0:0:0:0:
416,320,52851,1,0,0:0:0:0:
416,320,52851,1,0,0:0:0:0:
149,272,52852,1,0,0:0:0:0:
240,328,52868,1,0,0:0:0:0:
240,328,52868,1,0,0:0:0:0:
224,8,52868,1,0,0:0:0:0:
360,320,52876,1,0,0:0:0:0:
360,320,52876,1,0,0:0:0:0:
248,208,52876,1,0,0:0:0:0:
248,208,52876,1,0,0:0:0:0:
448,120,52884,1,14,0:3:0:0:
448,120,52884,1,14,0:3:0:0:
153,85,52885,1,0,0:0:0:0:
153,85,52885,1,0,0:0:0:0:
437,161,52885,1,0,0:0:0:0:
437,161,52885,1,0,0:0:0:0:
208,184,52885,1,14,0:3:0:0:
224,344,52893,1,0,0:0:0:0:
224,344,52893,1,0,0:0:0:0:
160,16,52893,1,0,0:0:0:0:
264,112,52901,1,0,0:0:0:0:
264,112,52901,1,0,0:0:0:0:
140,255,52902,1,0,0:0:0:0:
392,48,52917,1,0,0:0:0:0:
392,48,52917,1,0,0:0:0:0:
296,136,52917,1,0,0:0:0:0:
296,136,52917,1,0,0:0:0:0:
432,48,52918,1,0,0:0:0:0:
176,344,52918,1,0,0:0:0:0:
176,344,52918,1,0,0:0:0:0:
432,48,52918,1,0,0:0:0:0:
128,40,52918,1,0,0:0:0:0:
320,352,52926,5,0,0:0:0:0:
320,352,52926,5,0,0:0:0:0:
320,88,52926,1,0,0:0:0:0:
320,88,52926,1,0,0:0:0:0:
160,240,52934,1,14,0:3:0:0:
160,240,52934,1,14,0:3:0:0:
165,70,52935,1,0,0:0:0:0:
165,70,52935,1,0,0:0:0:0:
437,142,52935,1,0,0:0:0:0:
437,142,52935,1,0,0:0:0:0:
144,352,52943,1,0,0:0:0:0:
144,352,52943,1,0,0:0:0:0:
104,64,52943,1,0,0:0:0:0:
152,208,52951,5,0,0:0:0:0:
152,208,52951,5,0,0:0:0:0:
352,136,52951,1,0,0:0:0:0:
352,136,52951,1,0,0:0:0:0:
256,192,52952,12,0,52985,0:0:0:0:
132,237,52952,5,0,0:0:0:0:
96,328,52968,1,0,0:0:0:0:
96,328,52968,1,0,0:0:0:0:
88,104,52968,1,0,0:0:0:0:
160,264,52976,1,0,0:0:0:0:
160,264,52976,1,0,0:0:0:0:
384,168,52976,1,0,0:0:0:0:
384,168,52976,1,0,0:0:0:0:
408,264,52984,1,14,0:3:0:0:
368,256,52984,1,0,0:0:0:0:
368,256,52984,1,0,0:0:0:0:
408,264,52984,1,14,0:3:0:0:
144,344,52984,1,0,0:0:0:0:
144,344,52984,1,0,0:0:0:0:
80,40,52984,1,0,0:0:0:0:
80,40,52984,1,0,0:0:0:0:
179,55,52985,1,0,0:0:0:0:
179,55,52985,1,0,0:0:0:0:
434,122,52985,1,0,0:0:0:0:
434,122,52985,1,0,0:0:0:0:
40,112,52985,1,14,0:3:0:0:
112,280,52993,1,0,0:0:0:0:
112,280,52993,1,0,0:0:0:0:
88,160,52993,1,0,0:0:0:0:
232,48,53001,1,0,0:0:0:0:
232,48,53001,1,0,0:0:0:0:
416,216,53001,1,0,0:0:0:0:
416,216,53001,1,0,0:0:0:0:
127,218,53002,1,0,0:0:0:0:
96,232,53018,1,0,0:0:0:0:
96,232,53018,1,0,0:0:0:0:
96,224,53018,1,0,0:0:0:0:
320,48,53026,1,0,0:0:0:0:
320,48,53026,1,0,0:0:0:0:
416,248,53026,1,0,0:0:0:0:
416,248,53026,1,0,0:0:0:0:
320,80,53034,1,14,0:3:0:0:
320,80,53034,1,14,0:3:0:0:
194,43,53035,1,0,0:0:0:0:
194,43,53035,1,0,0:0:0:0:
429,103,53035,1,0,0:0:0:0:
429,103,53035,1,0,0:0:0:0:
104,176,53043,1,0,0:0:0:0:
104,176,53043,1,0,0:0:0:0:
104,320,53043,1,0,0:0:0:0:
104,192,53051,1,0,0:0:0:0:
352,56,53051,1,0,0:0:0:0:
352,56,53051,1,0,0:0:0:0:
104,192,53051,1,0,0:0:0:0:
392,160,53051,1,0,0:0:0:0:
424,280,53051,1,0,0:0:0:0:
424,280,53051,1,0,0:0:0:0:
392,160,53051,1,0,0:0:0:0:
248,288,53051,1,0,0:0:0:0:
248,288,53051,1,0,0:0:0:0:
128,272,53051,1,14,0:3:0:0:
256,192,53052,12,0,53285,0:0:0:0:
124,198,53052,5,0,0:0:0:0:
128,136,53068,1,0,0:0:0:0:
128,136,53068,1,0,0:0:0:0:
168,336,53068,1,0,0:0:0:0:
400,144,53076,1,0,0:0:0:0:
400,144,53076,1,0,0:0:0:0:
400,312,53076,1,0,0:0:0:0:
400,312,53076,1,0,0:0:0:0:
272,272,53084,1,14,0:3:0:0:
272,272,53084,1,14,0:3:0:0:
211,32,53085,1,0,0:0:0:0:
211,32,53085,1,0,0:0:0:0:
422,84,53085,1,0,0:0:0:0:
422,84,53085,1,0,0:0:0:0:
208,80,53085,1,14,0:3:0:0:
160,104,53093,1,0,0:0:0:0:
160,104,53093,1,0,0:0:0:0:
280,336,53093,1,0,0:0:0:0:
400,208,53101,1,0,0:0:0:0:
400,208,53101,1,0,0:0:0:0:
336,320,53101,1,0,0:0:0:0:
336,320,53101,1,0,0:0:0:0:
304,120,53101,1,14,0:3:0:0:
123,178,53102,1,0,0:0:0:0:
296,24,53117,1,0,0:0:0:0:
296,24,53117,1,0,0:0:0:0:
160,56,53117,1,0,0:0:0:0:
160,56,53117,1,0,0:0:0:0:
352,104,53118,1,0,0:0:0:0:
208,64,53118,1,0,0:0:0:0:
208,64,53118,1,0,0:0:0:0:
352,104,53118,1,0,0:0:0:0:
352,320,53118,1,0,0:0:0:0:
400,248,53126,1,0,0:0:0:0:
400,248,53126,1,0,0:0:0:0:
448,120,53134,1,14,0:3:0:0:
448,120,53134,1,14,0:3:0:0:
229,24,53135,1,0,0:0:0:0:
229,24,53135,1,0,0:0:0:0:
413,67,53135,1,0,0:0:0:0:
413,67,53135,1,0,0:0:0:0:
288,48,53143,1,0,0:0:0:0:
288,48,53143,1,0,0:0:0:0:
280,272,53143,1,0,0:0:0:0:
368,280,53151,1,0,0:0:0:0:
368,280,53151,1,0,0:0:0:0:
368,320,53151,1,0,0:0:0:0:
368,320,53151,1,0,0:0:0:0:
72,160,53151,1,14,0:3:0:0:
125,159,53152,1,0,0:0:0:0:
344,56,53168,1,0,0:0:0:0:
344,56,53168,1,0,0:0:0:0:
192,208,53168,1,0,0:0:0:0:
320,288,53176,1,0,0:0:0:0:
320,288,53176,1,0,0:0:0:0:
288,320,53176,1,0,0:0:0:0:
288,320,53176,1,0,0:0:0:0:
216,160,53184,1,14,0:3:0:0:
296,368,53184,1,0,0:0:0:0:
296,368,53184,1,0,0:0:0:0:
216,160,53184,1,14,0:3:0:0:
416,320,53184,1,0,0:0:0:0:
416,320,53184,1,0,0:0:0:0:
184,112,53184,1,0,0:0:0:0:
184,112,53184,1,0,0:0:0:0:
248,168,53184,1,0,0:0:0:0:
400,328,53185,5,14,0:3:0:0:
400,328,53185,5,14,0:3:0:0:
247,17,53185,1,0,0:0:0:0:
247,17,53185,1,0,0:0:0:0:
168,88,53185,1,14,0:3:0:0:
384,64,53193,1,0,0:0:0:0:
384,64,53193,1,0,0:0:0:0:
168,160,53193,1,0,0:0:0:0:
264,288,53201,1,0,0:0:0:0:
264,288,53201,1,0,0:0:0:0:
240,328,53201,1,0,0:0:0:0:
240,328,53201,1,0,0:0:0:0:
264,264,53201,1,14,0:3:0:0:
128,139,53202,1,0,0:0:0:0:
408,80,53218,1,0,0:0:0:0:
408,80,53218,1,0,0:0:0:0:
168,88,53218,1,0,0:0:0:0:
216,272,53226,1,0,0:0:0:0:
216,272,53226,1,0,0:0:0:0:
224,344,53226,1,0,0:0:0:0:
224,344,53226,1,0,0:0:0:0:
408,264,53234,1,14,0:3:0:0:
408,264,53234,1,14,0:3:0:0:
267,13,53235,1,0,0:0:0:0:
267,13,53235,1,0,0:0:0:0:
208,64,53243,1,0,0:0:0:0:
80,104,53251,1,0,0:0:0:0:
176,256,53251,1,0,0:0:0:0:
176,256,53251,1,0,0:0:0:0:
80,104,53251,1,0,0:0:0:0:
432,48,53251,1,0,0:0:0:0:
176,344,53251,1,0,0:0:0:0:
176,344,53251,1,0,0:0:0:0:
432,48,53251,1,0,0:0:0:0:
176,80,53251,1,14,0:3:0:0:
168,280,53251,1,0,0:0:0:0:
134,120,53252,1,0,0:0:0:0:
248,72,53268,1,0,0:0:0:0:
240,200,53276,1,0,0:0:0:0:
240,200,53276,1,0,0:0:0:0:
144,352,53276,1,0,0:0:0:0:
144,352,53276,1,0,0:0:0:0:
320,80,53284,1,14,0:3:0:0:
320,80,53284,1,14,0:3:0:0:
256,192,53285,12,0,53318,0:0:0:0:
287,11,53285,5,0,0:0:0:0:
287,11,53285,1,0,0:0:0:0:
264,240,53285,1,14,0:3:0:0:
264,240,53285,1,14,0:3:0:0:
224,56,53285,1,14,0:3:0:0:
352,104,53293,1,0,0:0:0:0:
336,184,53301,1,0,0:0:0:0:
336,184,53301,1,0,0:0:0:0:
96,328,53301,1,0,0:0:0:0:
96,328,53301,1,0,0:0:0:0:
272,272,53301,1,14,0:3:0:0:
143,102,53302,1,0,0:0:0:0:
312,152,53317,1,0,0:0:0:0:
312,152,53317,1,0,0:0:0:0:
80,40,53317,1,0,0:0:0:0:
80,40,53317,1,0,0:0:0:0:
224,0,53318,1,0,0:0:0:0:
352,224,53318,1,0,0:0:0:0:
360,128,53326,1,0,0:0:0:0:
360,128,53326,1,0,0:0:0:0:
112,280,53326,1,0,0:0:0:0:
112,280,53326,1,0,0:0:0:0:
306,11,53335,1,0,0:0:0:0:
306,11,53335,1,0,0:0:0:0:
360,320,53343,1,0,0:0:0:0:
312,96,53351,1,0,0:0:0:0:
312,96,53351,1,0,0:0:0:0:
96,232,53351,1,0,0:0:0:0:
96,232,53351,1,0,0:0:0:0:
448,120,53351,1,14,0:3:0:0:
153,85,53352,1,0,0:0:0:0:
280,64,53376,1,0,0:0:0:0:
280,64,53376,1,0,0:0:0:0:
104,176,53376,1,0,0:0:0:0:
104,176,53376,1,0,0:0:0:0:
104,304,53384,1,0,0:0:0:0:
104,304,53384,1,0,0:0:0:0:
248,288,53384,1,0,0:0:0:0:
248,288,53384,1,0,0:0:0:0:
392,48,53384,1,0,0:0:0:0:
326,14,53385,1,0,0:0:0:0:
326,14,53385,1,0,0:0:0:0:
336,408,53385,1,14,0:3:0:0:
336,408,53385,1,14,0:3:0:0:
160,168,53385,1,14,0:3:0:0:
320,352,53393,5,0,0:0:0:0:
232,32,53401,1,0,0:0:0:0:
232,32,53401,1,0,0:0:0:0:
128,136,53401,1,0,0:0:0:0:
128,136,53401,1,0,0:0:0:0:
160,240,53401,1,14,0:3:0:0:
165,70,53402,1,0,0:0:0:0:
152,208,53418,5,0,0:0:0:0:
200,32,53426,1,0,0:0:0:0:
200,32,53426,1,0,0:0:0:0:
160,104,53426,1,0,0:0:0:0:
160,104,53426,1,0,0:0:0:0:
345,19,53435,1,0,0:0:0:0:
345,19,53435,1,0,0:0:0:0:
160,264,53443,1,0,0:0:0:0:
288,56,53451,1,0,0:0:0:0:
168,24,53451,1,0,0:0:0:0:
168,24,53451,1,0,0:0:0:0:
288,56,53451,1,0,0:0:0:0:
352,104,53451,1,0,0:0:0:0:
208,64,53451,1,0,0:0:0:0:
208,64,53451,1,0,0:0:0:0:
352,104,53451,1,0,0:0:0:0:
176,320,53451,1,14,0:3:0:0:
408,264,53451,1,14,0:3:0:0:
368,256,53451,1,0,0:0:0:0:
179,55,53452,1,0,0:0:0:0:
232,48,53468,1,0,0:0:0:0:
136,48,53476,1,0,0:0:0:0:
136,48,53476,1,0,0:0:0:0:
288,48,53476,1,0,0:0:0:0:
288,48,53476,1,0,0:0:0:0:
80,208,53484,1,14,0:3:0:0:
80,208,53484,1,14,0:3:0:0:
364,26,53485,1,0,0:0:0:0:
364,26,53485,1,0,0:0:0:0:
368,240,53485,1,14,0:3:0:0:
368,240,53485,1,14,0:3:0:0:
248,304,53485,1,14,0:3:0:0:
320,48,53493,1,0,0:0:0:0:
128,112,53501,1,0,0:0:0:0:
128,112,53501,1,0,0:0:0:0:
344,56,53501,1,0,0:0:0:0:
344,56,53501,1,0,0:0:0:0:
328,144,53501,1,14,0:3:0:0:
320,80,53501,1,14,0:3:0:0:
194,43,53502,1,0,0:0:0:0:
392,288,53517,1,0,0:0:0:0:
392,288,53517,1,0,0:0:0:0:
184,112,53517,1,0,0:0:0:0:
184,112,53517,1,0,0:0:0:0:
400,328,53518,5,14,0:3:0:0:
400,328,53518,5,14,0:3:0:0:
104,192,53518,1,0,0:0:0:0:
352,56,53518,1,0,0:0:0:0:
384,64,53526,1,0,0:0:0:0:
384,64,53526,1,0,0:0:0:0:
381,35,53535,1,0,0:0:0:0:
381,35,53535,1,0,0:0:0:0:
400,144,53543,1,0,0:0:0:0:
128,80,53551,1,0,0:0:0:0:
128,80,53551,1,0,0:0:0:0:
408,80,53551,1,0,0:0:0:0:
408,80,53551,1,0,0:0:0:0:
288,376,53551,1,14,0:3:0:0:
272,272,53551,1,14,0:3:0:0:
211,32,53552,1,0,0:0:0:0:
400,208,53568,1,0,0:0:0:0:
128,160,53576,1,0,0:0:0:0:
128,160,53576,1,0,0:0:0:0:
208,80,53584,1,14,0:3:0:0:
128,32,53584,1,0,0:0:0:0:
128,32,53584,1,0,0:0:0:0:
208,80,53584,1,14,0:3:0:0:
256,184,53584,1,8,0:0:0:0:
256,184,53584,1,8,0:0:0:0:
296,24,53584,1,0,0:0:0:0:
360,280,53585,1,14,0:3:0:0:
360,280,53585,1,14,0:3:0:0:
80,232,53585,1,14,0:3:0:0:
400,248,53593,1,0,0:0:0:0:
120,208,53601,1,0,0:0:0:0:
120,208,53601,1,0,0:0:0:0:
184,184,53601,1,14,0:3:0:0:
448,120,53601,1,14,0:3:0:0:
229,24,53602,1,0,0:0:0:0:
264,240,53618,1,14,0:3:0:0:
264,240,53618,1,14,0:3:0:0:
368,280,53618,1,0,0:0:0:0:
104,224,53626,1,0,0:0:0:0:
104,224,53626,1,0,0:0:0:0:
320,288,53643,1,0,0:0:0:0:
400,16,53651,1,0,0:0:0:0:
104,272,53651,1,0,0:0:0:0:
104,272,53651,1,0,0:0:0:0:
400,16,53651,1,0,0:0:0:0:
368,272,53651,1,14,0:3:0:0:
216,160,53651,1,14,0:3:0:0:
296,368,53651,1,0,0:0:0:0:
247,17,53652,1,0,0:0:0:0:
264,288,53668,1,0,0:0:0:0:
96,304,53676,1,0,0:0:0:0:
96,304,53676,1,0,0:0:0:0:
40,112,53684,1,14,0:3:0:0:
40,112,53684,1,14,0:3:0:0:
392,224,53685,1,14,0:3:0:0:
392,224,53685,1,14,0:3:0:0:
248,200,53685,1,14,0:3:0:0:
216,272,53693,1,0,0:0:0:0:
120,352,53701,1,0,0:0:0:0:
120,352,53701,1,0,0:0:0:0:
176,176,53701,1,14,0:3:0:0:
408,264,53701,1,14,0:3:0:0:
267,13,53702,1,0,0:0:0:0:
408,368,53717,1,0,0:0:0:0:
408,368,53717,1,0,0:0:0:0:
336,408,53718,1,14,0:3:0:0:
336,408,53718,1,14,0:3:0:0:
80,104,53718,1,0,0:0:0:0:
176,256,53718,1,0,0:0:0:0:
168,336,53726,1,0,0:0:0:0:
168,336,53726,1,0,0:0:0:0:
240,200,53743,1,0,0:0:0:0:
216,352,53751,1,0,0:0:0:0:
216,352,53751,1,0,0:0:0:0:
328,0,53751,1,14,0:3:0:0:
320,80,53751,1,14,0:3:0:0:
256,184,53752,1,8,0:0:0:0:
256,184,53752,1,8,0:0:0:0:
287,11,53752,1,0,0:0:0:0:
336,184,53768,1,0,0:0:0:0:
272,344,53776,1,0,0:0:0:0:
272,344,53776,1,0,0:0:0:0:
208,184,53784,1,14,0:3:0:0:
160,200,53784,1,0,0:0:0:0:
160,200,53784,1,0,0:0:0:0:
208,184,53784,1,14,0:3:0:0:
176,320,53784,1,14,0:3:0:0:
312,152,53784,1,0,0:0:0:0:
280,288,53785,1,14,0:3:0:0:
280,288,53785,1,14,0:3:0:0:
120,48,53785,1,14,0:3:0:0:
360,128,53793,1,0,0:0:0:0:
312,320,53801,1,0,0:0:0:0:
312,320,53801,1,0,0:0:0:0:
208,288,53801,1,14,0:3:0:0:
306,11,53802,1,0,0:0:0:0:
368,240,53818,1,14,0:3:0:0:
368,240,53818,1,14,0:3:0:0:
312,96,53818,1,0,0:0:0:0:
344,288,53826,1,0,0:0:0:0:
344,288,53826,1,0,0:0:0:0:
328,144,53834,1,14,0:3:0:0:
280,64,53843,1,0,0:0:0:0:
344,96,53851,1,0,0:0:0:0:
384,240,53851,1,0,0:0:0:0:
384,240,53851,1,0,0:0:0:0:
344,96,53851,1,0,0:0:0:0:
184,40,53851,1,14,0:3:0:0:
104,304,53851,1,0,0:0:0:0:
326,14,53852,1,0,0:0:0:0:
232,32,53868,1,0,0:0:0:0:
400,160,53876,1,0,0:0:0:0:
400,160,53876,1,0,0:0:0:0:
120,48,53884,1,14,0:3:0:0:
120,48,53884,1,14,0:3:0:0:
288,376,53884,1,14,0:3:0:0:
144,200,53885,1,14,0:3:0:0:
144,200,53885,1,14,0:3:0:0:
208,184,53885,1,14,0:3:0:0:
200,32,53893,1,0,0:0:0:0:
392,104,53901,1,0,0:0:0:0:
392,104,53901,1,0,0:0:0:0:
368,128,53901,1,14,0:3:0:0:
345,19,53902,1,0,0:0:0:0:
336,264,53917,1,0,0:0:0:0:
336,264,53917,1,0,0:0:0:0:
256,184,53917,1,8,0:0:0:0:
256,184,53917,1,8,0:0:0:0:
360,280,53918,1,14,0:3:0:0:
360,280,53918,1,14,0:3:0:0:
182,274,53918,2,0,P|334:313|464:224,1,325
182,274,53918,2,0,P|334:313|464:224,1,325
288,56,53918,1,0,0:0:0:0:
168,24,53918,1,0,0:0:0:0:
384,64,53926,1,0,0:0:0:0:
384,64,53926,1,0,0:0:0:0:
184,184,53934,1,14,0:3:0:0:
136,48,53943,1,0,0:0:0:0:
368,40,53951,1,0,0:0:0:0:
368,40,53951,1,0,0:0:0:0:
176,176,53951,1,14,0:3:0:0:
80,208,53951,1,14,0:3:0:0:
364,26,53952,1,0,0:0:0:0:
128,112,53968,1,0,0:0:0:0:
248,200,53984,1,14,0:3:0:0:
248,200,53984,1,14,0:3:0:0:
368,272,53984,1,14,0:3:0:0:
392,288,53984,1,0,0:0:0:0:
216,368,53985,1,14,0:3:0:0:
216,368,53985,1,14,0:3:0:0:
40,112,53985,1,14,0:3:0:0:
328,0,54001,1,14,0:3:0:0:
381,35,54002,1,0,0:0:0:0:
392,224,54018,1,14,0:3:0:0:
392,224,54018,1,14,0:3:0:0:
288,200,54018,1,0,0:0:0:0:
288,200,54018,1,0,0:0:0:0:
128,80,54018,1,0,0:0:0:0:
176,176,54034,1,14,0:3:0:0:
128,160,54043,1,0,0:0:0:0:
288,232,54051,1,14,0:3:0:0:
208,80,54051,1,14,0:3:0:0:
128,32,54051,1,0,0:0:0:0:
120,208,54068,1,0,0:0:0:0:
80,232,54084,1,14,0:3:0:0:
80,232,54084,1,14,0:3:0:0:
328,0,54084,1,14,0:3:0:0:
256,184,54085,1,8,0:0:0:0:
256,184,54085,1,8,0:0:0:0:
248,200,54085,1,14,0:3:0:0:
248,200,54085,1,14,0:3:0:0:
208,80,54085,1,14,0:3:0:0:
104,224,54093,1,0,0:0:0:0:
184,40,54101,1,14,0:3:0:0:
280,288,54118,1,14,0:3:0:0:
280,288,54118,1,14,0:3:0:0:
400,16,54118,1,0,0:0:0:0:
104,272,54118,1,0,0:0:0:0:
208,288,54134,1,14,0:3:0:0:
96,304,54143,1,0,0:0:0:0:
368,128,54151,1,14,0:3:0:0:
40,112,54151,1,14,0:3:0:0:
184,112,54152,1,0,0:0:0:0:
184,112,54152,1,0,0:0:0:0:
120,352,54168,1,0,0:0:0:0:
248,304,54184,1,14,0:3:0:0:
248,304,54184,1,14,0:3:0:0:
184,40,54184,1,14,0:3:0:0:
408,368,54184,1,0,0:0:0:0:
400,328,54185,1,14,0:3:0:0:
400,328,54185,1,14,0:3:0:0:
80,208,54185,1,14,0:3:0:0:
168,336,54193,1,0,0:0:0:0:
144,200,54218,1,14,0:3:0:0:
144,200,54218,1,14,0:3:0:0:
352,104,54218,1,0,0:0:0:0:
352,104,54218,1,0,0:0:0:0:
216,352,54218,1,0,0:0:0:0:
368,128,54234,1,14,0:3:0:0:
272,344,54243,1,0,0:0:0:0:
182,274,54251,2,0,P|334:313|464:224,1,325
182,274,54251,2,0,P|334:313|464:224,1,325
208,184,54251,1,14,0:3:0:0:
160,200,54251,1,0,0:0:0:0:
312,320,54268,1,0,0:0:0:0:
160,168,54284,1,14,0:3:0:0:
160,168,54284,1,14,0:3:0:0:
176,176,54284,1,14,0:3:0:0:
264,240,54285,1,14,0:3:0:0:
264,240,54285,1,14,0:3:0:0:
344,288,54293,1,0,0:0:0:0:
264,192,54317,1,8,0:0:0:0:
264,192,54317,1,8,0:0:0:0:
216,368,54318,1,14,0:3:0:0:
216,368,54318,1,14,0:3:0:0:
344,96,54318,1,0,0:0:0:0:
384,240,54318,1,0,0:0:0:0:
328,0,54334,1,14,0:3:0:0:
400,160,54343,1,0,0:0:0:0:
288,200,54351,1,0,0:0:0:0:
288,200,54351,1,0,0:0:0:0:
240,368,54351,1,14,0:3:0:0:
120,48,54351,1,14,0:3:0:0:
80,40,54352,1,0,0:0:0:0:
80,40,54352,1,0,0:0:0:0:
392,104,54368,1,0,0:0:0:0:
224,56,54384,1,14,0:3:0:0:
224,56,54384,1,14,0:3:0:0:
288,232,54384,1,14,0:3:0:0:
336,264,54384,1,0,0:0:0:0:
336,408,54385,1,14,0:3:0:0:
336,408,54385,1,14,0:3:0:0:
320,80,54385,1,14,0:3:0:0:
384,64,54393,1,0,0:0:0:0:
248,200,54418,1,14,0:3:0:0:
248,200,54418,1,14,0:3:0:0:
432,48,54418,1,0,0:0:0:0:
432,48,54418,1,0,0:0:0:0:
368,40,54418,1,0,0:0:0:0:
184,40,54434,1,14,0:3:0:0:
408,264,54435,1,14,0:3:0:0:
368,240,54451,1,14,0:3:0:0:
248,200,54451,1,14,0:3:0:0:
168,88,54484,5,14,0:3:0:0:
168,88,54484,5,14,0:3:0:0:
368,128,54484,1,14,0:3:0:0:
264,192,54485,1,8,0:0:0:0:
264,192,54485,1,8,0:0:0:0:
184,112,54485,1,0,0:0:0:0:
184,112,54485,1,0,0:0:0:0:
368,240,54485,1,14,0:3:0:0:
368,240,54485,1,14,0:3:0:0:
216,160,54485,1,14,0:3:0:0:
139,351,54518,2,0,B|520:304|264:136|304:24|304:24|24:160|296:144,1,800
139,351,54518,2,0,B|520:304|264:136|304:24|304:24|24:160|296:144,1,800
400,328,54518,1,14,0:3:0:0:
400,328,54518,1,14,0:3:0:0:
413,67,54534,1,0,0:0:0:0:
413,67,54534,1,0,0:0:0:0:
448,120,54535,1,14,0:3:0:0:
352,104,54551,1,0,0:0:0:0:
352,104,54551,1,0,0:0:0:0:
336,408,54551,1,14,0:3:0:0:
80,232,54551,1,14,0:3:0:0:
160,56,54552,1,0,0:0:0:0:
160,56,54552,1,0,0:0:0:0:
208,80,54584,5,14,0:3:0:0:
208,80,54584,5,14,0:3:0:0:
422,84,54584,1,0,0:0:0:0:
422,84,54584,1,0,0:0:0:0:
240,368,54585,1,14,0:3:0:0:
240,368,54585,1,14,0:3:0:0:
272,272,54585,1,14,0:3:0:0:
264,240,54618,1,14,0:3:0:0:
264,240,54618,1,14,0:3:0:0:
392,160,54618,1,0,0:0:0:0:
392,160,54618,1,0,0:0:0:0:
429,103,54634,1,0,0:0:0:0:
429,103,54634,1,0,0:0:0:0:
320,80,54635,1,14,0:3:0:0:
173,265,54651,2,0,P|134:113|224:-16,1,325
173,265,54651,2,0,P|134:113|224:-16,1,325
264,240,54651,1,14,0:3:0:0:
248,304,54651,1,14,0:3:0:0:
40,112,54684,1,14,0:3:0:0:
40,112,54684,1,14,0:3:0:0:
240,368,54684,1,14,0:3:0:0:
434,122,54684,1,0,0:0:0:0:
434,122,54684,1,0,0:0:0:0:
80,40,54685,1,0,0:0:0:0:
80,40,54685,1,0,0:0:0:0:
144,344,54685,1,0,0:0:0:0:
144,344,54685,1,0,0:0:0:0:
408,264,54685,1,14,0:3:0:0:
336,408,54718,1,14,0:3:0:0:
336,408,54718,1,14,0:3:0:0:
437,142,54734,1,0,0:0:0:0:
437,142,54734,1,0,0:0:0:0:
160,240,54735,1,14,0:3:0:0:
248,160,54751,1,0,0:0:0:0:
248,160,54751,1,0,0:0:0:0:
432,48,54751,1,0,0:0:0:0:
432,48,54751,1,0,0:0:0:0:
400,328,54751,1,14,0:3:0:0:
160,168,54751,1,14,0:3:0:0:
296,136,54752,1,0,0:0:0:0:
296,136,54752,1,0,0:0:0:0:
208,184,54784,5,14,0:3:0:0:
208,184,54784,5,14,0:3:0:0:
368,240,54784,1,14,0:3:0:0:
437,161,54784,1,0,0:0:0:0:
437,161,54784,1,0,0:0:0:0:
264,192,54784,1,8,0:0:0:0:
368,128,54785,1,14,0:3:0:0:
368,128,54785,1,14,0:3:0:0:
448,120,54785,1,14,0:3:0:0:
368,240,54818,1,14,0:3:0:0:
368,240,54818,1,14,0:3:0:0:
344,368,54818,1,0,0:0:0:0:
167,196,54818,2,0,P|246:102|368:128,1,260,8|6,0:0|0:0,0:0:0:0:
167,196,54818,2,0,P|246:102|368:128,1,260,8|6,0:0|0:0,0:0:0:0:
344,368,54818,1,0,0:0:0:0:
435,181,54834,1,0,0:0:0:0:
435,181,54834,1,0,0:0:0:0:
184,40,54835,1,14,0:3:0:0:
184,40,54835,1,14,0:3:0:0:
272,272,54835,1,14,0:3:0:0:
248,200,54851,1,14,0:3:0:0:
224,56,54851,1,14,0:3:0:0:
413,67,54867,1,0,0:0:0:0:
413,67,54867,1,0,0:0:0:0:
120,48,54884,5,14,0:3:0:0:
120,48,54884,5,14,0:3:0:0:
336,408,54884,1,14,0:3:0:0:
431,201,54884,1,0,0:0:0:0:
431,201,54884,1,0,0:0:0:0:
336,264,54885,1,0,0:0:0:0:
336,264,54885,1,0,0:0:0:0:
160,56,54885,1,0,0:0:0:0:
160,56,54885,1,0,0:0:0:0:
288,232,54885,1,14,0:3:0:0:
288,232,54885,1,14,0:3:0:0:
176,80,54885,1,14,0:3:0:0:
422,84,54917,1,0,0:0:0:0:
422,84,54917,1,0,0:0:0:0:
240,368,54918,1,14,0:3:0:0:
240,368,54918,1,14,0:3:0:0:
424,219,54934,1,0,0:0:0:0:
424,219,54934,1,0,0:0:0:0:
328,0,54935,1,14,0:3:0:0:
328,0,54935,1,14,0:3:0:0:
264,264,54935,1,14,0:3:0:0:
168,88,54951,5,14,0:3:0:0:
344,96,54951,1,0,0:0:0:0:
344,96,54951,1,0,0:0:0:0:
392,160,54951,1,0,0:0:0:0:
392,160,54951,1,0,0:0:0:0:
216,368,54951,1,14,0:3:0:0:
424,152,54952,1,0,0:0:0:0:
424,152,54952,1,0,0:0:0:0:
264,192,54952,1,8,0:0:0:0:
429,103,54967,1,0,0:0:0:0:
429,103,54967,1,0,0:0:0:0:
264,240,54984,1,14,0:3:0:0:
416,237,54984,1,0,0:0:0:0:
416,237,54984,1,0,0:0:0:0:
176,176,54985,1,14,0:3:0:0:
176,176,54985,1,14,0:3:0:0:
72,160,54985,1,14,0:3:0:0:
434,122,55017,1,0,0:0:0:0:
434,122,55017,1,0,0:0:0:0:
160,200,55018,1,0,0:0:0:0:
160,200,55018,1,0,0:0:0:0:
144,344,55018,1,0,0:0:0:0:
144,344,55018,1,0,0:0:0:0:
256,344,55018,1,0,0:0:0:0:
256,344,55018,1,0,0:0:0:0:
405,254,55034,1,0,0:0:0:0:
405,254,55034,1,0,0:0:0:0:
368,128,55035,1,14,0:3:0:0:
368,128,55035,1,14,0:3:0:0:
304,120,55035,1,14,0:3:0:0:
208,80,55051,5,14,0:3:0:0:
144,200,55051,1,14,0:3:0:0:
437,142,55067,1,0,0:0:0:0:
437,142,55067,1,0,0:0:0:0:
400,328,55084,1,14,0:3:0:0:
393,269,55084,1,0,0:0:0:0:
393,269,55084,1,0,0:0:0:0:
408,368,55085,1,0,0:0:0:0:
408,368,55085,1,0,0:0:0:0:
296,136,55085,1,0,0:0:0:0:
296,136,55085,1,0,0:0:0:0:
184,40,55085,1,14,0:3:0:0:
184,40,55085,1,14,0:3:0:0:
128,272,55085,1,14,0:3:0:0:
437,161,55117,1,0,0:0:0:0:
437,161,55117,1,0,0:0:0:0:
368,128,55118,1,14,0:3:0:0:
368,128,55118,1,14,0:3:0:0:
173,265,55118,2,0,P|134:113|224:-16,1,325
378,283,55134,1,0,0:0:0:0:
378,283,55134,1,0,0:0:0:0:
208,288,55135,1,14,0:3:0:0:
208,288,55135,1,14,0:3:0:0:
400,16,55151,1,0,0:0:0:0:
400,16,55151,1,0,0:0:0:0:
344,368,55151,1,0,0:0:0:0:
167,196,55151,2,0,P|246:102|368:128,1,260,8|6,0:0|0:0,0:0:0:0:
167,196,55151,2,0,P|246:102|368:128,1,260,8|6,0:0|0:0,0:0:0:0:
344,368,55151,1,0,0:0:0:0:
280,288,55151,1,14,0:3:0:0:
40,112,55151,1,14,0:3:0:0:
400,56,55152,1,0,0:0:0:0:
400,56,55152,1,0,0:0:0:0:
435,181,55167,1,0,0:0:0:0:
435,181,55167,1,0,0:0:0:0:
184,40,55168,1,14,0:3:0:0:
184,40,55168,1,14,0:3:0:0:
248,200,55184,1,14,0:3:0:0:
363,295,55184,1,0,0:0:0:0:
363,295,55184,1,0,0:0:0:0:
328,0,55185,1,14,0:3:0:0:
328,0,55185,1,14,0:3:0:0:
431,201,55217,1,0,0:0:0:0:
431,201,55217,1,0,0:0:0:0:
128,32,55218,1,0,0:0:0:0:
128,32,55218,1,0,0:0:0:0:
288,232,55218,1,14,0:3:0:0:
288,232,55218,1,14,0:3:0:0:
448,224,55218,1,0,0:0:0:0:
448,224,55218,1,0,0:0:0:0:
248,160,55218,1,0,0:0:0:0:
346,305,55234,1,0,0:0:0:0:
346,305,55234,1,0,0:0:0:0:
176,176,55235,1,14,0:3:0:0:
176,176,55235,1,14,0:3:0:0:
208,184,55251,5,14,0:3:0:0:
392,224,55251,1,14,0:3:0:0:
381,35,55267,1,0,0:0:0:0:
381,35,55267,1,0,0:0:0:0:
424,219,55267,1,0,0:0:0:0:
424,219,55267,1,0,0:0:0:0:
328,0,55268,5,14,0:3:0:0:
328,0,55268,5,14,0:3:0:0:
256,192,55268,8,0,56168,0:0:0:0:
256,192,55268,8,0,56168,0:0:0:0:
216,368,55284,1,14,0:3:0:0:
328,314,55284,1,0,0:0:0:0:
328,314,55284,1,0,0:0:0:0:
392,288,55285,1,0,0:0:0:0:
392,288,55285,1,0,0:0:0:0:
424,152,55285,1,0,0:0:0:0:
424,152,55285,1,0,0:0:0:0:
368,272,55285,1,14,0:3:0:0:
368,272,55285,1,14,0:3:0:0:
364,26,55317,1,0,0:0:0:0:
364,26,55317,1,0,0:0:0:0:
416,237,55317,1,0,0:0:0:0:
416,237,55317,1,0,0:0:0:0:
176,176,55318,1,14,0:3:0:0:
176,176,55318,1,14,0:3:0:0:
309,320,55334,1,0,0:0:0:0:
309,320,55334,1,0,0:0:0:0:
184,184,55335,1,14,0:3:0:0:
184,184,55335,1,14,0:3:0:0:
360,280,55351,5,14,0:3:0:0:
120,48,55351,5,14,0:3:0:0:
288,56,55351,1,0,0:0:0:0:
288,56,55351,1,0,0:0:0:0:
256,344,55351,1,0,0:0:0:0:
256,344,55351,1,0,0:0:0:0:
280,200,55352,1,0,0:0:0:0:
280,200,55352,1,0,0:0:0:0:
336,264,55352,1,0,0:0:0:0:
345,19,55367,1,0,0:0:0:0:
345,19,55367,1,0,0:0:0:0:
405,254,55367,1,0,0:0:0:0:
405,254,55367,1,0,0:0:0:0:
368,128,55368,1,14,0:3:0:0:
368,128,55368,1,14,0:3:0:0:
144,200,55384,1,14,0:3:0:0:
289,323,55384,1,0,0:0:0:0:
289,323,55384,1,0,0:0:0:0:
96,308,55385,2,0,B|144:-72|312:184|424:144|424:144|288:424|304:152,1,800
288,376,55385,1,14,0:3:0:0:
288,376,55385,1,14,0:3:0:0:
326,14,55417,1,0,0:0:0:0:
326,14,55417,1,0,0:0:0:0:
393,269,55417,1,0,0:0:0:0:
393,269,55417,1,0,0:0:0:0:
104,304,55418,1,0,0:0:0:0:
104,304,55418,1,0,0:0:0:0:
184,40,55418,1,14,0:3:0:0:
184,40,55418,1,14,0:3:0:0:
344,96,55418,1,0,0:0:0:0:
270,325,55434,1,0,0:0:0:0:
270,325,55434,1,0,0:0:0:0:
328,144,55435,1,14,0:3:0:0:
328,144,55435,1,14,0:3:0:0:
368,240,55451,5,14,0:3:0:0:
306,11,55467,1,0,0:0:0:0:
306,11,55467,1,0,0:0:0:0:
378,283,55467,1,0,0:0:0:0:
378,283,55467,1,0,0:0:0:0:
208,288,55468,1,14,0:3:0:0:
208,288,55468,1,14,0:3:0:0:
280,288,55484,1,14,0:3:0:0:
250,324,55484,1,0,0:0:0:0:
250,324,55484,1,0,0:0:0:0:
312,152,55485,1,0,0:0:0:0:
312,152,55485,1,0,0:0:0:0:
400,56,55485,1,0,0:0:0:0:
400,56,55485,1,0,0:0:0:0:
176,320,55485,1,14,0:3:0:0:
176,320,55485,1,14,0:3:0:0:
160,200,55485,1,0,0:0:0:0:
287,11,55517,1,0,0:0:0:0:
287,11,55517,1,0,0:0:0:0:
363,295,55517,1,0,0:0:0:0:
363,295,55517,1,0,0:0:0:0:
328,0,55518,1,14,0:3:0:0:
328,0,55518,1,14,0:3:0:0:
230,321,55534,1,0,0:0:0:0:
230,321,55534,1,0,0:0:0:0:
256,192,55551,12,0,55584,0:0:0:0:
80,104,55551,5,0,0:0:0:0:
251,280,55551,2,0,P|345:201|320:80,1,260,8|6,0:0|0:0,0:0:0:0:
251,280,55551,2,0,P|345:201|320:80,1,260,8|6,0:0|0:0,0:0:0:0:
80,104,55551,1,0,0:0:0:0:
448,224,55551,1,0,0:0:0:0:
448,224,55551,1,0,0:0:0:0:
336,408,55551,1,14,0:3:0:0:
408,368,55552,1,0,0:0:0:0:
267,13,55567,1,0,0:0:0:0:
267,13,55567,1,0,0:0:0:0:
346,305,55567,1,0,0:0:0:0:
346,305,55567,1,0,0:0:0:0:
176,176,55568,1,14,0:3:0:0:
176,176,55568,1,14,0:3:0:0:
392,224,55584,1,14,0:3:0:0:
211,316,55584,1,0,0:0:0:0:
211,316,55584,1,0,0:0:0:0:
256,192,55584,8,0,55817,0:0:0:0:
247,17,55617,5,0,0:0:0:0:
247,17,55617,1,0,0:0:0:0:
328,314,55617,1,0,0:0:0:0:
328,314,55617,1,0,0:0:0:0:
296,368,55618,1,0,0:0:0:0:
296,368,55618,1,0,0:0:0:0:
368,272,55618,1,14,0:3:0:0:
368,272,55618,1,14,0:3:0:0:
400,16,55618,1,0,0:0:0:0:
193,308,55634,1,0,0:0:0:0:
193,308,55634,1,0,0:0:0:0:
264,240,55651,5,14,0:3:0:0:
229,24,55667,1,0,0:0:0:0:
229,24,55667,1,0,0:0:0:0:
309,320,55667,1,0,0:0:0:0:
309,320,55667,1,0,0:0:0:0:
184,184,55668,1,14,0:3:0:0:
184,184,55668,1,14,0:3:0:0:
360,280,55684,5,14,0:3:0:0:
176,299,55684,1,0,0:0:0:0:
176,299,55684,1,0,0:0:0:0:
296,24,55685,1,0,0:0:0:0:
296,24,55685,1,0,0:0:0:0:
280,200,55685,1,0,0:0:0:0:
280,200,55685,1,0,0:0:0:0:
128,32,55685,1,0,0:0:0:0:
211,32,55717,1,0,0:0:0:0:
211,32,55717,1,0,0:0:0:0:
289,323,55717,1,0,0:0:0:0:
289,323,55717,1,0,0:0:0:0:
96,308,55718,2,0,B|144:-72|312:184|424:144|424:144|288:424|304:152,1,800
288,376,55718,1,14,0:3:0:0:
288,376,55718,1,14,0:3:0:0:
159,287,55734,1,0,0:0:0:0:
159,287,55734,1,0,0:0:0:0:
381,35,55734,1,0,0:0:0:0:
256,192,55735,8,0,56635,0:0:0:0:
400,328,55751,5,14,0:3:0:0:
104,192,55751,1,0,0:0:0:0:
104,192,55751,1,0,0:0:0:0:
392,288,55752,1,0,0:0:0:0:
194,43,55767,1,0,0:0:0:0:
194,43,55767,1,0,0:0:0:0:
270,325,55767,1,0,0:0:0:0:
270,325,55767,1,0,0:0:0:0:
328,144,55768,1,14,0:3:0:0:
328,144,55768,1,14,0:3:0:0:
368,240,55784,5,14,0:3:0:0:
145,274,55784,1,0,0:0:0:0:
145,274,55784,1,0,0:0:0:0:
364,26,55784,1,0,0:0:0:0:
179,55,55817,1,0,0:0:0:0:
179,55,55817,1,0,0:0:0:0:
250,324,55817,1,0,0:0:0:0:
250,324,55817,1,0,0:0:0:0:
368,256,55818,1,0,0:0:0:0:
368,256,55818,1,0,0:0:0:0:
176,320,55818,1,14,0:3:0:0:
176,320,55818,1,14,0:3:0:0:
288,56,55818,1,0,0:0:0:0:
132,259,55834,1,0,0:0:0:0:
132,259,55834,1,0,0:0:0:0:
345,19,55834,1,0,0:0:0:0:
165,70,55867,1,0,0:0:0:0:
165,70,55867,1,0,0:0:0:0:
230,321,55867,1,0,0:0:0:0:
230,321,55867,1,0,0:0:0:0:
336,408,55884,1,14,0:3:0:0:
121,243,55884,1,0,0:0:0:0:
121,243,55884,1,0,0:0:0:0:
326,14,55884,1,0,0:0:0:0:
392,48,55885,1,0,0:0:0:0:
392,48,55885,1,0,0:0:0:0:
104,304,55885,1,0,0:0:0:0:
153,85,55917,1,0,0:0:0:0:
153,85,55917,1,0,0:0:0:0:
211,316,55917,1,0,0:0:0:0:
211,316,55917,1,0,0:0:0:0:
111,225,55934,1,0,0:0:0:0:
111,225,55934,1,0,0:0:0:0:
306,11,55934,1,0,0:0:0:0:
256,192,55935,12,0,56835,0:0:0:0:
256,192,55935,12,0,56835,0:0:0:0:
256,192,55951,12,0,55984,0:0:0:0:
256,192,55951,12,0,55984,0:0:0:0:
224,0,55951,5,0,0:0:0:0:
224,0,55951,1,0,0:0:0:0:
312,152,55952,1,0,0:0:0:0:
143,102,55967,1,0,0:0:0:0:
143,102,55967,1,0,0:0:0:0:
193,308,55967,1,0,0:0:0:0:
193,308,55967,1,0,0:0:0:0:
264,240,55984,5,14,0:3:0:0:
287,11,55984,5,0,0:0:0:0:
256,192,55984,8,0,56217,0:0:0:0:
256,192,55984,8,0,56217,0:0:0:0:
134,120,56017,5,0,0:0:0:0:
134,120,56017,1,0,0:0:0:0:
176,299,56017,1,0,0:0:0:0:
176,299,56017,1,0,0:0:0:0:
168,280,56018,1,0,0:0:0:0:
168,280,56018,1,0,0:0:0:0:
80,104,56018,1,0,0:0:0:0:
251,280,56018,2,0,P|345:201|320:80,1,260,8|6,0:0|0:0,0:0:0:0:
99,187,56034,1,0,0:0:0:0:
99,187,56034,1,0,0:0:0:0:
267,13,56034,1,0,0:0:0:0:
128,139,56067,1,0,0:0:0:0:
128,139,56067,1,0,0:0:0:0:
159,287,56067,1,0,0:0:0:0:
159,287,56067,1,0,0:0:0:0:
400,328,56084,5,14,0:3:0:0:
96,168,56084,1,0,0:0:0:0:
96,168,56084,1,0,0:0:0:0:
247,17,56084,1,0,0:0:0:0:
248,168,56085,1,0,0:0:0:0:
248,168,56085,1,0,0:0:0:0:
296,368,56085,1,0,0:0:0:0:
125,159,56117,1,0,0:0:0:0:
125,159,56117,1,0,0:0:0:0:
145,274,56117,1,0,0:0:0:0:
145,274,56117,1,0,0:0:0:0:
96,148,56134,1,0,0:0:0:0:
96,148,56134,1,0,0:0:0:0:
229,24,56134,1,0,0:0:0:0:
256,192,56135,8,0,57035,0:0:0:0:
296,24,56152,5,0,0:0:0:0:
123,178,56167,1,0,0:0:0:0:
123,178,56167,1,0,0:0:0:0:
132,259,56167,1,0,0:0:0:0:
132,259,56167,1,0,0:0:0:0:
98,128,56184,1,0,0:0:0:0:
98,128,56184,1,0,0:0:0:0:
211,32,56184,1,0,0:0:0:0:
124,198,56217,1,0,0:0:0:0:
124,198,56217,1,0,0:0:0:0:
121,243,56217,1,0,0:0:0:0:
121,243,56217,1,0,0:0:0:0:
208,168,56217,1,8,0:0:0:0:
208,168,56217,1,8,0:0:0:0:
104,192,56218,1,0,0:0:0:0:
102,109,56234,1,0,0:0:0:0:
102,109,56234,1,0,0:0:0:0:
194,43,56234,1,0,0:0:0:0:
127,218,56267,1,0,0:0:0:0:
127,218,56267,1,0,0:0:0:0:
111,225,56267,1,0,0:0:0:0:
111,225,56267,1,0,0:0:0:0:
256,192,56284,12,0,56317,0:0:0:0:
256,192,56284,12,0,56317,0:0:0:0:
108,90,56284,5,0,0:0:0:0:
108,90,56284,1,0,0:0:0:0:
179,55,56284,1,0,0:0:0:0:
368,256,56285,1,0,0:0:0:0:
132,237,56317,1,0,0:0:0:0:
132,237,56317,1,0,0:0:0:0:
256,192,56317,8,0,56550,0:0:0:0:
256,192,56317,8,0,56550,0:0:0:0:
117,72,56334,5,0,0:0:0:0:
117,72,56334,1,0,0:0:0:0:
165,70,56334,1,0,0:0:0:0:
256,192,56335,12,0,57235,0:0:0:0:
256,192,56335,12,0,57235,0:0:0:0:
392,48,56352,5,0,0:0:0:0:
140,255,56367,1,0,0:0:0:0:
140,255,56367,1,0,0:0:0:0:
99,187,56367,1,0,0:0:0:0:
99,187,56367,1,0,0:0:0:0:
128,56,56384,1,0,0:0:0:0:
128,56,56384,1,0,0:0:0:0:
153,85,56384,1,0,0:0:0:0:
149,272,56417,1,0,0:0:0:0:
149,272,56417,1,0,0:0:0:0:
96,168,56417,1,0,0:0:0:0:
96,168,56417,1,0,0:0:0:0:
232,200,56418,1,0,0:0:0:0:
232,200,56418,1,0,0:0:0:0:
224,0,56418,1,0,0:0:0:0:
143,102,56434,1,0,0:0:0:0:
161,289,56467,1,0,0:0:0:0:
161,289,56467,1,0,0:0:0:0:
96,148,56467,1,0,0:0:0:0:
96,148,56467,1,0,0:0:0:0:
256,192,56468,8,0,57368,0:0:0:0:
134,120,56484,5,0,0:0:0:0:
344,280,56485,1,0,0:0:0:0:
344,280,56485,1,0,0:0:0:0:
168,280,56485,1,0,0:0:0:0:
174,303,56517,1,0,0:0:0:0:
174,303,56517,1,0,0:0:0:0:
98,128,56517,1,0,0:0:0:0:
98,128,56517,1,0,0:0:0:0:
352,296,56534,1,0,0:0:0:0:
352,296,56534,1,0,0:0:0:0:
128,139,56534,1,0,0:0:0:0:
64,224,56552,1,0,0:0:0:0:
64,224,56552,1,0,0:0:0:0:
248,168,56552,1,0,0:0:0:0:
189,316,56567,1,0,0:0:0:0:
189,316,56567,1,0,0:0:0:0:
102,109,56567,1,0,0:0:0:0:
102,109,56567,1,0,0:0:0:0:
464,136,56584,1,0,0:0:0:0:
464,136,56584,1,0,0:0:0:0:
125,159,56584,1,0,0:0:0:0:
205,327,56617,1,0,0:0:0:0:
205,327,56617,1,0,0:0:0:0:
108,90,56617,1,0,0:0:0:0:
108,90,56617,1,0,0:0:0:0:
280,240,56617,1,8,0:0:0:0:
280,240,56617,1,8,0:0:0:0:
112,56,56618,1,0,0:0:0:0:
112,56,56618,1,0,0:0:0:0:
256,176,56634,1,0,0:0:0:0:
256,176,56634,1,0,0:0:0:0:
123,178,56634,1,0,0:0:0:0:
223,337,56667,1,0,0:0:0:0:
223,337,56667,1,0,0:0:0:0:
117,72,56667,1,0,0:0:0:0:
117,72,56667,1,0,0:0:0:0:
256,192,56668,12,0,57568,0:0:0:0:
256,192,56668,12,0,57568,0:0:0:0:
464,240,56684,5,0,0:0:0:0:
464,240,56684,1,0,0:0:0:0:
124,198,56684,1,0,0:0:0:0:
320,80,56685,1,0,0:0:0:0:
320,80,56685,1,0,0:0:0:0:
241,344,56717,1,0,0:0:0:0:
241,344,56717,1,0,0:0:0:0:
128,56,56717,1,0,0:0:0:0:
128,56,56717,1,0,0:0:0:0:
424,64,56734,1,0,0:0:0:0:
424,64,56734,1,0,0:0:0:0:
127,218,56734,1,0,0:0:0:0:
232,200,56751,1,0,0:0:0:0:
232,200,56751,1,0,0:0:0:0:
256,344,56752,1,0,0:0:0:0:
256,344,56752,1,0,0:0:0:0:
261,349,56767,1,0,0:0:0:0:
261,349,56767,1,0,0:0:0:0:
168,304,56784,1,0,0:0:0:0:
168,304,56784,1,0,0:0:0:0:
132,237,56784,1,0,0:0:0:0:
280,352,56817,1,0,0:0:0:0:
280,352,56817,1,0,0:0:0:0:
344,280,56818,1,0,0:0:0:0:
344,280,56818,1,0,0:0:0:0:
88,152,56818,1,0,0:0:0:0:
88,152,56818,1,0,0:0:0:0:
296,136,56834,1,0,0:0:0:0:
296,136,56834,1,0,0:0:0:0:
140,255,56834,1,0,0:0:0:0:
300,352,56867,1,0,0:0:0:0:
300,352,56867,1,0,0:0:0:0:
352,296,56867,1,0,0:0:0:0:
352,296,56867,1,0,0:0:0:0:
104,184,56884,1,0,0:0:0:0:
104,184,56884,1,0,0:0:0:0:
149,272,56884,1,0,0:0:0:0:
64,224,56885,1,0,0:0:0:0:
64,224,56885,1,0,0:0:0:0:
432,152,56885,1,0,0:0:0:0:
432,152,56885,1,0,0:0:0:0:
320,350,56917,1,0,0:0:0:0:
320,350,56917,1,0,0:0:0:0:
464,136,56917,1,0,0:0:0:0:
464,136,56917,1,0,0:0:0:0:
296,272,56934,1,0,0:0:0:0:
296,272,56934,1,0,0:0:0:0:
161,289,56934,1,0,0:0:0:0:
280,240,56950,1,8,0:0:0:0:
280,240,56950,1,8,0:0:0:0:
112,56,56951,1,0,0:0:0:0:
112,56,56951,1,0,0:0:0:0:
144,128,56952,2,0,P|344:192|344:240,1,260,8|6,0:0|0:0,0:0:0:0:
168,368,56952,1,0,0:0:0:0:
168,368,56952,1,0,0:0:0:0:
144,128,56952,2,0,P|344:192|344:240,1,260,8|6,0:0|0:0,0:0:0:0:
339,346,56967,1,0,0:0:0:0:
339,346,56967,1,0,0:0:0:0:
256,176,56967,1,0,0:0:0:0:
256,176,56967,1,0,0:0:0:0:
224,96,56984,1,0,0:0:0:0:
224,96,56984,1,0,0:0:0:0:
174,303,56984,1,0,0:0:0:0:
358,340,57017,1,0,0:0:0:0:
358,340,57017,1,0,0:0:0:0:
464,240,57017,1,0,0:0:0:0:
464,240,57017,1,0,0:0:0:0:
384,272,57018,1,14,0:3:0:0:
384,272,57018,1,14,0:3:0:0:
320,80,57018,1,0,0:0:0:0:
320,80,57018,1,0,0:0:0:0:
216,136,57018,1,0,0:0:0:0:
216,136,57018,1,0,0:0:0:0:
184,320,57034,1,0,0:0:0:0:
184,320,57034,1,0,0:0:0:0:
189,316,57034,1,0,0:0:0:0:
376,331,57067,1,0,0:0:0:0:
376,331,57067,1,0,0:0:0:0:
424,64,57067,1,0,0:0:0:0:
424,64,57067,1,0,0:0:0:0:
208,120,57068,1,14,0:3:0:0:
208,120,57068,1,14,0:3:0:0:
432,296,57084,1,0,0:0:0:0:
432,296,57084,1,0,0:0:0:0:
205,327,57084,1,0,0:0:0:0:
256,344,57085,1,0,0:0:0:0:
256,344,57085,1,0,0:0:0:0:
368,344,57085,1,0,0:0:0:0:
368,344,57085,1,0,0:0:0:0:
392,320,57117,1,0,0:0:0:0:
392,320,57117,1,0,0:0:0:0:
168,304,57117,1,0,0:0:0:0:
168,304,57117,1,0,0:0:0:0:
440,160,57118,1,14,0:3:0:0:
440,160,57118,1,14,0:3:0:0:
96,48,57134,1,0,0:0:0:0:
96,48,57134,1,0,0:0:0:0:
223,337,57134,1,0,0:0:0:0:
248,216,57151,1,0,0:0:0:0:
248,216,57151,1,0,0:0:0:0:
88,152,57151,1,0,0:0:0:0:
88,152,57151,1,0,0:0:0:0:
120,160,57152,1,0,0:0:0:0:
120,160,57152,1,0,0:0:0:0:
296,136,57167,1,0,0:0:0:0:
296,136,57167,1,0,0:0:0:0:
248,264,57168,1,14,0:3:0:0:
248,264,57168,1,14,0:3:0:0:
80,336,57184,1,0,0:0:0:0:
80,336,57184,1,0,0:0:0:0:
241,344,57184,1,0,0:0:0:0:
104,184,57217,1,0,0:0:0:0:
104,184,57217,1,0,0:0:0:0:
336,80,57218,1,14,0:3:0:0:
168,104,57218,1,0,0:0:0:0:
168,104,57218,1,0,0:0:0:0:
336,80,57218,1,14,0:3:0:0:
432,152,57218,1,0,0:0:0:0:
432,152,57218,1,0,0:0:0:0:
352,56,57218,1,0,0:0:0:0:
352,56,57218,1,0,0:0:0:0:
304,192,57234,1,0,0:0:0:0:
304,192,57234,1,0,0:0:0:0:
261,349,57234,1,0,0:0:0:0:
152,96,57267,1,0,0:0:0:0:
152,96,57267,1,0,0:0:0:0:
296,272,57267,1,0,0:0:0:0:
296,272,57267,1,0,0:0:0:0:
240,272,57268,1,14,0:3:0:0:
240,272,57268,1,14,0:3:0:0:
448,176,57284,1,0,0:0:0:0:
448,176,57284,1,0,0:0:0:0:
280,352,57284,1,0,0:0:0:0:
224,384,57285,1,0,0:0:0:0:
224,384,57285,1,0,0:0:0:0:
144,128,57285,2,0,P|344:192|344:240,1,260,8|6,0:0|0:0,0:0:0:0:
168,368,57285,1,0,0:0:0:0:
168,368,57285,1,0,0:0:0:0:
144,128,57285,2,0,P|344:192|344:240,1,260,8|6,0:0|0:0,0:0:0:0:
96,320,57285,1,0,0:0:0:0:
96,320,57285,1,0,0:0:0:0:
312,0,57317,1,0,0:0:0:0:
312,0,57317,1,0,0:0:0:0:
224,96,57317,1,0,0:0:0:0:
224,96,57317,1,0,0:0:0:0:
64,120,57318,1,14,0:3:0:0:
64,120,57318,1,14,0:3:0:0:
416,368,57334,1,0,0:0:0:0:
416,368,57334,1,0,0:0:0:0:
300,352,57334,1,0,0:0:0:0:
392,336,57351,1,0,0:0:0:0:
392,336,57351,1,0,0:0:0:0:
216,136,57351,1,0,0:0:0:0:
216,136,57351,1,0,0:0:0:0:
80,48,57352,1,0,0:0:0:0:
80,48,57352,1,0,0:0:0:0:
272,192,57367,1,0,0:0:0:0:
272,192,57367,1,0,0:0:0:0:
184,320,57367,1,0,0:0:0:0:
184,320,57367,1,0,0:0:0:0:
352,240,57368,1,14,0:3:0:0:
352,240,57368,1,14,0:3:0:0:
240,64,57384,1,0,0:0:0:0:
240,64,57384,1,0,0:0:0:0:
320,350,57384,1,0,0:0:0:0:
208,0,57417,1,0,0:0:0:0:
208,0,57417,1,0,0:0:0:0:
432,296,57417,1,0,0:0:0:0:
432,296,57417,1,0,0:0:0:0:
104,264,57418,1,14,0:3:0:0:
368,128,57418,1,0,0:0:0:0:
368,128,57418,1,0,0:0:0:0:
104,264,57418,1,14,0:3:0:0:
368,344,57418,1,0,0:0:0:0:
368,344,57418,1,0,0:0:0:0:
432,40,57418,1,0,0:0:0:0:
432,40,57418,1,0,0:0:0:0:
280,272,57434,1,0,0:0:0:0:
280,272,57434,1,0,0:0:0:0:
339,346,57434,1,0,0:0:0:0:
384,24,57467,1,0,0:0:0:0:
384,24,57467,1,0,0:0:0:0:
96,48,57467,1,0,0:0:0:0:
96,48,57467,1,0,0:0:0:0:
192,80,57468,1,14,0:3:0:0:
192,80,57468,1,14,0:3:0:0:
424,88,57484,1,0,0:0:0:0:
424,88,57484,1,0,0:0:0:0:
358,340,57484,1,0,0:0:0:0:
104,192,57485,1,0,0:0:0:0:
104,192,57485,1,0,0:0:0:0:
120,160,57485,1,0,0:0:0:0:
120,160,57485,1,0,0:0:0:0:
264,288,57485,1,0,0:0:0:0:
264,288,57485,1,0,0:0:0:0:
384,272,57485,1,14,0:3:0:0:
144,280,57517,1,0,0:0:0:0:
144,280,57517,1,0,0:0:0:0:
80,336,57517,1,0,0:0:0:0:
80,336,57517,1,0,0:0:0:0:
240,272,57518,1,14,0:3:0:0:
240,272,57518,1,14,0:3:0:0:
240,336,57534,1,0,0:0:0:0:
240,336,57534,1,0,0:0:0:0:
376,331,57534,1,0,0:0:0:0:
208,120,57535,1,14,0:3:0:0:
296,360,57551,1,0,0:0:0:0:
296,360,57551,1,0,0:0:0:0:
352,56,57551,1,0,0:0:0:0:
352,56,57551,1,0,0:0:0:0:
160,104,57552,1,0,0:0:0:0:
160,104,57552,1,0,0:0:0:0:
312,152,57567,1,0,0:0:0:0:
312,152,57567,1,0,0:0:0:0:
304,192,57567,1,0,0:0:0:0:
304,192,57567,1,0,0:0:0:0:
64,120,57568,1,14,0:3:0:0:
64,120,57568,1,14,0:3:0:0:
48,48,57584,1,0,0:0:0:0:
48,48,57584,1,0,0:0:0:0:
392,320,57584,1,0,0:0:0:0:
216,144,57585,6,0,B|488:160|208:24|208:24|248:136|-8:304|376:352,1,800
216,144,57585,6,0,B|488:160|208:24|208:24|248:136|-8:304|376:352,1,800
440,160,57585,1,14,0:3:0:0:
264,344,57617,1,0,0:0:0:0:
264,344,57617,1,0,0:0:0:0:
448,176,57617,1,0,0:0:0:0:
448,176,57617,1,0,0:0:0:0:
296,160,57618,1,14,0:3:0:0:
296,16,57618,1,0,0:0:0:0:
296,16,57618,1,0,0:0:0:0:
296,160,57618,1,14,0:3:0:0:
96,320,57618,1,0,0:0:0:0:
96,320,57618,1,0,0:0:0:0:
328,112,57618,1,0,0:0:0:0:
328,112,57618,1,0,0:0:0:0:
248,216,57618,1,0,0:0:0:0:
32,280,57634,1,0,0:0:0:0:
32,280,57634,1,0,0:0:0:0:
248,264,57635,1,14,0:3:0:0:
176,152,57667,1,0,0:0:0:0:
176,152,57667,1,0,0:0:0:0:
416,368,57667,1,0,0:0:0:0:
416,368,57667,1,0,0:0:0:0:
104,264,57668,1,14,0:3:0:0:
104,264,57668,1,14,0:3:0:0:
416,288,57684,1,0,0:0:0:0:
416,288,57684,1,0,0:0:0:0:
320,304,57685,2,0,P|256:104|208:104,1,260,8|6,0:0|0:0,0:0:0:0:
80,280,57685,1,0,0:0:0:0:
80,280,57685,1,0,0:0:0:0:
320,304,57685,2,0,P|256:104|208:104,1,260,8|6,0:0|0:0,0:0:0:0:
80,48,57685,1,0,0:0:0:0:
80,48,57685,1,0,0:0:0:0:
336,80,57685,1,14,0:3:0:0:
168,104,57685,1,0,0:0:0:0:
352,224,57717,1,0,0:0:0:0:
352,224,57717,1,0,0:0:0:0:
240,64,57717,1,0,0:0:0:0:
240,64,57717,1,0,0:0:0:0:
192,80,57718,1,14,0:3:0:0:
192,80,57718,1,14,0:3:0:0:
328,72,57734,1,0,0:0:0:0:
328,72,57734,1,0,0:0:0:0:
152,96,57734,1,0,0:0:0:0:
240,272,57735,1,14,0:3:0:0:
312,232,57751,1,0,0:0:0:0:
312,232,57751,1,0,0:0:0:0:
432,40,57751,1,0,0:0:0:0:
432,40,57751,1,0,0:0:0:0:
224,200,57752,1,0,0:0:0:0:
224,200,57752,1,0,0:0:0:0:
224,384,57752,1,0,0:0:0:0:
128,264,57767,1,0,0:0:0:0:
128,264,57767,1,0,0:0:0:0:
280,272,57767,1,0,0:0:0:0:
280,272,57767,1,0,0:0:0:0:
168,256,57784,1,0,0:0:0:0:
168,256,57784,1,0,0:0:0:0:
312,0,57784,1,0,0:0:0:0:
64,120,57785,1,14,0:3:0:0:
152,16,57817,1,0,0:0:0:0:
152,16,57817,1,0,0:0:0:0:
424,88,57817,1,0,0:0:0:0:
424,88,57817,1,0,0:0:0:0:
104,80,57818,1,0,0:0:0:0:
104,80,57818,1,0,0:0:0:0:
264,288,57818,1,0,0:0:0:0:
264,288,57818,1,0,0:0:0:0:
392,336,57818,1,0,0:0:0:0:
144,112,57834,1,0,0:0:0:0:
144,112,57834,1,0,0:0:0:0:
272,192,57834,1,0,0:0:0:0:
352,240,57835,1,14,0:3:0:0:
48,224,57852,2,0,P|168:312|368:232,1,325
48,224,57852,2,0,P|168:312|368:232,1,325
400,352,57867,1,0,0:0:0:0:
400,352,57867,1,0,0:0:0:0:
240,336,57867,1,0,0:0:0:0:
240,336,57867,1,0,0:0:0:0:
208,0,57884,1,0,0:0:0:0:
288,328,57885,1,0,0:0:0:0:
288,328,57885,1,0,0:0:0:0:
160,104,57885,1,0,0:0:0:0:
160,104,57885,1,0,0:0:0:0:
176,64,57885,1,14,0:3:0:0:
104,264,57885,1,14,0:3:0:0:
368,128,57885,1,0,0:0:0:0:
112,368,57917,1,0,0:0:0:0:
112,368,57917,1,0,0:0:0:0:
48,48,57917,1,0,0:0:0:0:
48,48,57917,1,0,0:0:0:0:
432,208,57918,1,14,0:3:0:0:
432,208,57918,1,14,0:3:0:0:
384,24,57934,1,0,0:0:0:0:
328,240,57935,1,14,0:3:0:0:
192,80,57935,1,14,0:3:0:0:
392,96,57951,1,0,0:0:0:0:
392,96,57951,1,0,0:0:0:0:
328,112,57951,1,0,0:0:0:0:
328,112,57951,1,0,0:0:0:0:
104,192,57952,1,0,0:0:0:0:
256,144,57967,1,0,0:0:0:0:
256,144,57967,1,0,0:0:0:0:
32,280,57967,1,0,0:0:0:0:
32,280,57967,1,0,0:0:0:0:
144,280,57984,1,0,0:0:0:0:
304,232,57985,6,0,B|288:-40|424:240|424:240|312:200|144:456|96:72,1,800
304,232,57985,6,0,B|288:-40|424:240|424:240|312:200|144:456|96:72,1,800
240,272,57985,1,14,0:3:0:0:
288,8,57985,1,14,0:3:0:0:
272,0,58017,1,0,0:0:0:0:
272,0,58017,1,0,0:0:0:0:
416,288,58017,1,0,0:0:0:0:
416,288,58017,1,0,0:0:0:0:
304,80,58018,1,14,0:3:0:0:
128,352,58018,1,0,0:0:0:0:
128,352,58018,1,0,0:0:0:0:
304,80,58018,1,14,0:3:0:0:
256,184,58018,1,8,0:0:0:0:
256,184,58018,1,8,0:0:0:0:
296,360,58018,1,0,0:0:0:0:
312,152,58034,1,0,0:0:0:0:
184,200,58035,1,14,0:3:0:0:
64,120,58035,1,14,0:3:0:0:
80,32,58067,1,0,0:0:0:0:
80,32,58067,1,0,0:0:0:0:
328,72,58067,1,0,0:0:0:0:
328,72,58067,1,0,0:0:0:0:
264,344,58084,1,0,0:0:0:0:
400,368,58085,1,0,0:0:0:0:
400,368,58085,1,0,0:0:0:0:
224,200,58085,1,0,0:0:0:0:
224,200,58085,1,0,0:0:0:0:
368,112,58085,1,14,0:3:0:0:
296,160,58085,1,14,0:3:0:0:
296,16,58085,1,0,0:0:0:0:
384,208,58117,1,0,0:0:0:0:
384,208,58117,1,0,0:0:0:0:
168,256,58117,1,0,0:0:0:0:
168,256,58117,1,0,0:0:0:0:
472,112,58118,1,14,0:3:0:0:
472,112,58118,1,14,0:3:0:0:
176,152,58134,1,0,0:0:0:0:
176,208,58135,1,14,0:3:0:0:
104,264,58135,1,14,0:3:0:0:
408,16,58151,1,0,0:0:0:0:
408,16,58151,1,0,0:0:0:0:
320,304,58152,2,0,P|256:104|208:104,1,260,8|6,0:0|0:0,0:0:0:0:
80,280,58152,1,0,0:0:0:0:
176,168,58167,1,0,0:0:0:0:
176,168,58167,1,0,0:0:0:0:
144,112,58167,1,0,0:0:0:0:
144,112,58167,1,0,0:0:0:0:
352,224,58184,1,0,0:0:0:0:
48,224,58185,2,0,P|168:312|368:232,1,325
48,224,58185,2,0,P|168:312|368:232,1,325
328,384,58185,1,14,0:3:0:0:
192,80,58185,1,14,0:3:0:0:
360,24,58217,1,0,0:0:0:0:
360,24,58217,1,0,0:0:0:0:
304,184,58218,1,14,0:3:0:0:
160,184,58218,1,0,0:0:0:0:
160,184,58218,1,0,0:0:0:0:
304,184,58218,1,14,0:3:0:0:
176,64,58218,1,14,0:3:0:0:
312,232,58218,1,0,0:0:0:0:
128,264,58234,1,0,0:0:0:0:
208,96,58235,1,14,0:3:0:0:
112,208,58267,1,0,0:0:0:0:
112,208,58267,1,0,0:0:0:0:
328,240,58268,1,14,0:3:0:0:
152,16,58284,1,0,0:0:0:0:
344,288,58285,1,0,0:0:0:0:
344,288,58285,1,0,0:0:0:0:
184,344,58285,1,14,0:3:0:0:
104,80,58285,1,0,0:0:0:0:
400,400,58317,1,0,0:0:0:0:
400,400,58317,1,0,0:0:0:0:
304,232,58318,6,0,B|288:-40|424:240|424:240|312:200|144:456|96:72,1,800
304,232,58318,6,0,B|288:-40|424:240|424:240|312:200|144:456|96:72,1,800
392,48,58318,1,14,0:3:0:0:
392,48,58318,1,14,0:3:0:0:
288,8,58318,1,14,0:3:0:0:
400,352,58334,1,0,0:0:0:0:
368,256,58335,1,14,0:3:0:0:
336,120,58351,1,0,0:0:0:0:
336,120,58351,1,0,0:0:0:0:
256,184,58351,1,8,0:0:0:0:
256,184,58351,1,8,0:0:0:0:
288,328,58352,1,0,0:0:0:0:
168,416,58367,1,0,0:0:0:0:
168,416,58367,1,0,0:0:0:0:
184,200,58368,1,14,0:3:0:0:
196,259,58384,2,0,B|256:80|200:192,1,162.5
196,259,58384,2,0,B|256:80|200:192,1,162.5
112,368,58384,1,0,0:0:0:0:
176,208,58385,1,14,0:3:0:0:
432,208,58385,1,14,0:3:0:0:
160,32,58417,1,0,0:0:0:0:
160,32,58417,1,0,0:0:0:0:
264,200,58418,1,14,0:3:0:0:
264,200,58418,1,14,0:3:0:0:
368,112,58418,1,14,0:3:0:0:
392,96,58418,1,0,0:0:0:0:
256,144,58434,1,0,0:0:0:0:
328,384,58435,1,14,0:3:0:0:
376,120,58467,1,0,0:0:0:0:
376,120,58467,1,0,0:0:0:0:
176,208,58468,1,14,0:3:0:0:
272,0,58484,1,0,0:0:0:0:
248,224,58485,1,0,0:0:0:0:
248,224,58485,1,0,0:0:0:0:
288,152,58485,1,14,0:3:0:0:
304,80,58485,1,14,0:3:0:0:
128,352,58485,1,0,0:0:0:0:
192,280,58517,1,0,0:0:0:0:
192,280,58517,1,0,0:0:0:0:
432,232,58518,1,14,0:3:0:0:
432,232,58518,1,14,0:3:0:0:
328,384,58518,1,14,0:3:0:0:
80,32,58534,1,0,0:0:0:0:
184,344,58535,1,14,0:3:0:0:
104,80,58552,1,0,0:0:0:0:
104,80,58552,1,0,0:0:0:0:
400,368,58552,1,0,0:0:0:0:
336,304,58567,1,0,0:0:0:0:
336,304,58567,1,0,0:0:0:0:
208,96,58568,1,14,0:3:0:0:
128,64,58577,1,0,0:0:0:0:
128,64,58577,1,0,0:0:0:0:
384,208,58584,1,0,0:0:0:0:
224,400,58585,2,0,P|136:280|216:80,1,325
224,400,58585,2,0,P|136:280|216:80,1,325
368,256,58585,1,14,0:3:0:0:
472,112,58585,1,14,0:3:0:0:
168,56,58602,1,0,0:0:0:0:
168,56,58602,1,0,0:0:0:0:
264,304,58618,1,14,0:3:0:0:
264,304,58618,1,14,0:3:0:0:
184,344,58618,1,14,0:3:0:0:
408,16,58618,1,0,0:0:0:0:
224,48,58627,1,0,0:0:0:0:
224,48,58627,1,0,0:0:0:0:
176,168,58634,1,0,0:0:0:0:
304,64,58652,1,0,0:0:0:0:
304,64,58652,1,0,0:0:0:0:
368,256,58668,1,14,0:3:0:0:
352,104,58677,1,0,0:0:0:0:
352,104,58677,1,0,0:0:0:0:
360,24,58684,1,0,0:0:0:0:
304,184,58685,1,14,0:3:0:0:
160,184,58685,1,0,0:0:0:0:
384,136,58702,1,0,0:0:0:0:
384,136,58702,1,0,0:0:0:0:
196,259,58717,2,0,B|256:80|200:192,1,162.5
196,259,58717,2,0,B|256:80|200:192,1,162.5
352,168,58718,1,14,0:3:0:0:
352,168,58718,1,14,0:3:0:0:
176,208,58718,1,14,0:3:0:0:
408,176,58727,1,0,0:0:0:0:
408,176,58727,1,0,0:0:0:0:
112,208,58734,1,0,0:0:0:0:
264,192,58751,1,8,0:0:0:0:
264,192,58751,1,8,0:0:0:0:
416,232,58752,1,0,0:0:0:0:
416,232,58752,1,0,0:0:0:0:
344,288,58752,1,0,0:0:0:0:
328,384,58768,1,14,0:3:0:0:
400,280,58777,1,0,0:0:0:0:
400,280,58777,1,0,0:0:0:0:
400,400,58784,1,0,0:0:0:0:
240,16,58785,1,14,0:3:0:0:
392,48,58785,1,14,0:3:0:0:
416,328,58802,1,0,0:0:0:0:
416,328,58802,1,0,0:0:0:0:
288,56,58818,1,14,0:3:0:0:
288,56,58818,1,14,0:3:0:0:
288,152,58818,1,14,0:3:0:0:
336,120,58818,1,0,0:0:0:0:
368,352,58827,1,0,0:0:0:0:
368,352,58827,1,0,0:0:0:0:
168,416,58834,1,0,0:0:0:0:
336,344,58852,1,0,0:0:0:0:
336,344,58852,1,0,0:0:0:0:
184,344,58868,1,14,0:3:0:0:
288,344,58877,1,0,0:0:0:0:
288,344,58877,1,0,0:0:0:0:
160,32,58884,1,0,0:0:0:0:
104,80,58885,1,0,0:0:0:0:
104,80,58885,1,0,0:0:0:0:
368,144,58885,1,14,0:3:0:0:
264,200,58885,1,14,0:3:0:0:
272,328,58902,1,0,0:0:0:0:
272,328,58902,1,0,0:0:0:0:
128,64,58910,1,0,0:0:0:0:
128,64,58910,1,0,0:0:0:0:
344,88,58918,5,14,0:3:0:0:
344,88,58918,5,14,0:3:0:0:
368,256,58918,1,14,0:3:0:0:
224,320,58927,1,0,0:0:0:0:
224,320,58927,1,0,0:0:0:0:
376,120,58934,1,0,0:0:0:0:
168,56,58935,1,0,0:0:0:0:
168,56,58935,1,0,0:0:0:0:
144,320,58952,1,0,0:0:0:0:
144,320,58952,1,0,0:0:0:0:
248,224,58952,1,0,0:0:0:0:
224,48,58960,1,0,0:0:0:0:
224,48,58960,1,0,0:0:0:0:
99,67,58968,1,0,0:0:0:0:
99,67,58968,1,0,0:0:0:0:
192,280,58984,1,0,0:0:0:0:
304,64,58985,1,0,0:0:0:0:
304,64,58985,1,0,0:0:0:0:
336,0,58985,1,14,0:3:0:0:
432,232,58985,1,14,0:3:0:0:
176,320,59002,1,0,0:0:0:0:
176,320,59002,1,0,0:0:0:0:
352,104,59010,1,0,0:0:0:0:
352,104,59010,1,0,0:0:0:0:
152,97,59017,2,0,B|184:304|152:80,3,216.666666666667
152,97,59017,2,0,B|184:304|152:80,3,216.666666666667
304,80,59018,5,14,0:3:0:0:
304,80,59018,5,14,0:3:0:0:
90,84,59018,1,0,0:0:0:0:
90,84,59018,1,0,0:0:0:0:
112,312,59027,1,0,0:0:0:0:
112,312,59027,1,0,0:0:0:0:
336,304,59034,1,0,0:0:0:0:
384,136,59035,1,0,0:0:0:0:
384,136,59035,1,0,0:0:0:0:
88,280,59052,1,0,0:0:0:0:
88,280,59052,1,0,0:0:0:0:
224,400,59052,2,0,P|136:280|216:80,1,325
408,176,59060,1,0,0:0:0:0:
408,176,59060,1,0,0:0:0:0:
83,103,59068,1,0,0:0:0:0:
83,103,59068,1,0,0:0:0:0:
96,248,59077,1,0,0:0:0:0:
96,248,59077,1,0,0:0:0:0:
416,232,59085,1,0,0:0:0:0:
416,232,59085,1,0,0:0:0:0:
264,144,59085,1,14,0:3:0:0:
264,304,59085,1,14,0:3:0:0:
96,216,59102,1,0,0:0:0:0:
96,216,59102,1,0,0:0:0:0:
400,280,59110,1,0,0:0:0:0:
400,280,59110,1,0,0:0:0:0:
188,251,59117,2,0,B|368:192|256:248,1,162.5
188,251,59117,2,0,B|368:192|256:248,1,162.5
472,112,59118,1,14,0:3:0:0:
472,112,59118,1,14,0:3:0:0:
240,16,59118,1,14,0:3:0:0:
78,122,59118,1,0,0:0:0:0:
78,122,59118,1,0,0:0:0:0:
128,168,59127,1,0,0:0:0:0:
128,168,59127,1,0,0:0:0:0:
416,328,59135,1,0,0:0:0:0:
416,328,59135,1,0,0:0:0:0:
160,136,59152,1,0,0:0:0:0:
160,136,59152,1,0,0:0:0:0:
368,352,59160,1,0,0:0:0:0:
368,352,59160,1,0,0:0:0:0:
75,142,59168,1,0,0:0:0:0:
75,142,59168,1,0,0:0:0:0:
192,88,59177,1,0,0:0:0:0:
192,88,59177,1,0,0:0:0:0:
336,344,59185,1,0,0:0:0:0:
336,344,59185,1,0,0:0:0:0:
400,56,59185,1,14,0:3:0:0:
352,168,59185,1,14,0:3:0:0:
248,112,59202,1,0,0:0:0:0:
248,112,59202,1,0,0:0:0:0:
288,344,59210,1,0,0:0:0:0:
288,344,59210,1,0,0:0:0:0:
304,184,59218,5,14,0:3:0:0:
304,184,59218,5,14,0:3:0:0:
368,144,59218,1,14,0:3:0:0:
75,161,59218,1,0,0:0:0:0:
75,161,59218,1,0,0:0:0:0:
264,192,59218,1,8,0:0:0:0:
264,208,59227,1,0,0:0:0:0:
264,208,59227,1,0,0:0:0:0:
272,328,59235,1,0,0:0:0:0:
272,328,59235,1,0,0:0:0:0:
320,272,59252,1,0,0:0:0:0:
320,272,59252,1,0,0:0:0:0:
224,320,59260,1,0,0:0:0:0:
224,320,59260,1,0,0:0:0:0:
77,181,59268,1,0,0:0:0:0:
77,181,59268,1,0,0:0:0:0:
336,232,59277,1,0,0:0:0:0:
336,232,59277,1,0,0:0:0:0:
368,344,59285,1,0,0:0:0:0:
368,344,59285,1,0,0:0:0:0:
144,320,59285,1,0,0:0:0:0:
144,320,59285,1,0,0:0:0:0:
248,184,59285,1,14,0:3:0:0:
288,56,59285,1,14,0:3:0:0:
99,67,59301,1,0,0:0:0:0:
99,67,59301,1,0,0:0:0:0:
352,184,59302,1,0,0:0:0:0:
352,184,59302,1,0,0:0:0:0:
384,320,59310,1,0,0:0:0:0:
384,320,59310,1,0,0:0:0:0:
392,48,59318,5,14,0:3:0:0:
392,48,59318,5,14,0:3:0:0:
336,0,59318,1,14,0:3:0:0:
81,201,59318,1,0,0:0:0:0:
81,201,59318,1,0,0:0:0:0:
352,128,59327,1,0,0:0:0:0:
352,128,59327,1,0,0:0:0:0:
392,280,59335,1,0,0:0:0:0:
392,280,59335,1,0,0:0:0:0:
176,320,59335,1,0,0:0:0:0:
176,320,59335,1,0,0:0:0:0:
90,84,59351,1,0,0:0:0:0:
90,84,59351,1,0,0:0:0:0:
344,80,59352,1,0,0:0:0:0:
344,80,59352,1,0,0:0:0:0:
400,224,59360,1,0,0:0:0:0:
400,224,59360,1,0,0:0:0:0:
112,312,59360,1,0,0:0:0:0:
112,312,59360,1,0,0:0:0:0:
88,219,59368,1,0,0:0:0:0:
88,219,59368,1,0,0:0:0:0:
312,48,59377,1,0,0:0:0:0:
312,48,59377,1,0,0:0:0:0:
344,88,59385,5,14,0:3:0:0:
384,144,59385,1,0,0:0:0:0:
384,144,59385,1,0,0:0:0:0:
88,280,59385,1,0,0:0:0:0:
88,280,59385,1,0,0:0:0:0:
216,16,59385,1,14,0:3:0:0:
83,103,59401,1,0,0:0:0:0:
83,103,59401,1,0,0:0:0:0:
272,48,59402,1,0,0:0:0:0:
272,48,59402,1,0,0:0:0:0:
344,96,59410,1,0,0:0:0:0:
344,96,59410,1,0,0:0:0:0:
96,248,59410,1,0,0:0:0:0:
96,248,59410,1,0,0:0:0:0:
350,295,59417,2,0,B|144:264|368:296,3,216.666666666667
350,295,59417,2,0,B|144:264|368:296,3,216.666666666667
256,192,59417,8,8,59617,0:0:0:0:
256,192,59417,8,8,59617,0:0:0:0:
264,144,59418,5,14,0:3:0:0:
96,237,59418,1,0,0:0:0:0:
96,237,59418,1,0,0:0:0:0:
208,48,59427,1,0,0:0:0:0:
208,48,59427,1,0,0:0:0:0:
312,64,59435,1,0,0:0:0:0:
312,64,59435,1,0,0:0:0:0:
96,216,59435,1,0,0:0:0:0:
96,216,59435,1,0,0:0:0:0:
78,122,59451,1,0,0:0:0:0:
78,122,59451,1,0,0:0:0:0:
120,96,59452,1,0,0:0:0:0:
120,96,59452,1,0,0:0:0:0:
272,40,59460,1,0,0:0:0:0:
272,40,59460,1,0,0:0:0:0:
128,168,59460,1,0,0:0:0:0:
128,168,59460,1,0,0:0:0:0:
107,254,59468,1,0,0:0:0:0:
107,254,59468,1,0,0:0:0:0:
112,128,59477,1,0,0:0:0:0:
112,128,59477,1,0,0:0:0:0:
304,80,59485,5,14,0:3:0:0:
216,32,59485,1,0,0:0:0:0:
216,32,59485,1,0,0:0:0:0:
160,136,59485,1,0,0:0:0:0:
160,136,59485,1,0,0:0:0:0:
144,184,59485,1,14,0:3:0:0:
75,142,59501,1,0,0:0:0:0:
75,142,59501,1,0,0:0:0:0:
112,216,59502,1,0,0:0:0:0:
112,216,59502,1,0,0:0:0:0:
168,48,59510,1,0,0:0:0:0:
168,48,59510,1,0,0:0:0:0:
192,88,59510,1,0,0:0:0:0:
192,88,59510,1,0,0:0:0:0:
400,56,59518,1,14,0:3:0:0:
119,269,59518,1,0,0:0:0:0:
119,269,59518,1,0,0:0:0:0:
328,288,59527,1,0,0:0:0:0:
328,288,59527,1,0,0:0:0:0:
120,32,59535,1,0,0:0:0:0:
120,32,59535,1,0,0:0:0:0:
248,112,59535,1,0,0:0:0:0:
248,112,59535,1,0,0:0:0:0:
75,161,59551,1,0,0:0:0:0:
75,161,59551,1,0,0:0:0:0:
272,296,59552,1,0,0:0:0:0:
272,296,59552,1,0,0:0:0:0:
96,80,59560,1,0,0:0:0:0:
96,80,59560,1,0,0:0:0:0:
264,208,59560,1,0,0:0:0:0:
264,208,59560,1,0,0:0:0:0:
134,283,59568,1,0,0:0:0:0:
134,283,59568,1,0,0:0:0:0:
416,128,59577,1,0,0:0:0:0:
416,128,59577,1,0,0:0:0:0:
188,251,59584,2,0,B|368:192|256:248,1,162.5
104,112,59585,1,0,0:0:0:0:
104,112,59585,1,0,0:0:0:0:
320,272,59585,1,0,0:0:0:0:
320,272,59585,1,0,0:0:0:0:
280,96,59585,1,14,0:3:0:0:
472,112,59585,1,14,0:3:0:0:
77,181,59601,1,0,0:0:0:0:
77,181,59601,1,0,0:0:0:0:
104,160,59610,1,0,0:0:0:0:
104,160,59610,1,0,0:0:0:0:
336,232,59610,1,0,0:0:0:0:
336,232,59610,1,0,0:0:0:0:
248,184,59618,1,14,0:3:0:0:
149,295,59618,1,0,0:0:0:0:
149,295,59618,1,0,0:0:0:0:
384,88,59627,1,0,0:0:0:0:
384,88,59627,1,0,0:0:0:0:
120,176,59635,1,0,0:0:0:0:
120,176,59635,1,0,0:0:0:0:
352,184,59635,1,0,0:0:0:0:
352,184,59635,1,0,0:0:0:0:
81,201,59651,1,0,0:0:0:0:
81,201,59651,1,0,0:0:0:0:
288,96,59652,1,0,0:0:0:0:
288,96,59652,1,0,0:0:0:0:
128,224,59660,1,0,0:0:0:0:
128,224,59660,1,0,0:0:0:0:
352,128,59660,1,0,0:0:0:0:
352,128,59660,1,0,0:0:0:0:
166,305,59668,1,0,0:0:0:0:
166,305,59668,1,0,0:0:0:0:
168,96,59677,1,0,0:0:0:0:
168,96,59677,1,0,0:0:0:0:
304,184,59685,5,14,0:3:0:0:
128,304,59685,1,0,0:0:0:0:
128,304,59685,1,0,0:0:0:0:
344,80,59685,1,0,0:0:0:0:
344,80,59685,1,0,0:0:0:0:
392,160,59685,1,14,0:3:0:0:
381,349,59701,1,0,0:0:0:0:
381,349,59701,1,0,0:0:0:0:
88,219,59701,1,0,0:0:0:0:
88,219,59701,1,0,0:0:0:0:
136,200,59702,1,0,0:0:0:0:
136,200,59702,1,0,0:0:0:0:
312,48,59710,1,0,0:0:0:0:
312,48,59710,1,0,0:0:0:0:
216,16,59718,1,14,0:3:0:0:
184,314,59718,1,0,0:0:0:0:
184,314,59718,1,0,0:0:0:0:
128,240,59727,1,0,0:0:0:0:
128,240,59727,1,0,0:0:0:0:
128,272,59735,1,0,0:0:0:0:
128,272,59735,1,0,0:0:0:0:
272,48,59735,1,0,0:0:0:0:
272,48,59735,1,0,0:0:0:0:
350,295,59750,2,0,B|144:264|368:296,3,216.666666666667
350,295,59750,2,0,B|144:264|368:296,3,216.666666666667
364,358,59751,1,0,0:0:0:0:
364,358,59751,1,0,0:0:0:0:
96,237,59751,1,0,0:0:0:0:
96,237,59751,1,0,0:0:0:0:
152,280,59752,1,0,0:0:0:0:
152,280,59752,1,0,0:0:0:0:
368,344,59752,1,0,0:0:0:0:
136,336,59760,1,0,0:0:0:0:
136,336,59760,1,0,0:0:0:0:
208,48,59760,1,0,0:0:0:0:
208,48,59760,1,0,0:0:0:0:
203,320,59768,1,0,0:0:0:0:
203,320,59768,1,0,0:0:0:0:
224,280,59777,1,0,0:0:0:0:
224,280,59777,1,0,0:0:0:0:
384,320,59777,1,0,0:0:0:0:
360,104,59785,5,14,0:3:0:0:
392,48,59785,5,14,0:3:0:0:
168,360,59785,1,0,0:0:0:0:
168,360,59785,1,0,0:0:0:0:
120,96,59785,1,0,0:0:0:0:
120,96,59785,1,0,0:0:0:0:
345,365,59801,1,0,0:0:0:0:
345,365,59801,1,0,0:0:0:0:
107,254,59801,1,0,0:0:0:0:
107,254,59801,1,0,0:0:0:0:
272,256,59802,1,0,0:0:0:0:
272,256,59802,1,0,0:0:0:0:
392,280,59802,1,0,0:0:0:0:
200,352,59810,1,0,0:0:0:0:
200,352,59810,1,0,0:0:0:0:
112,128,59810,1,0,0:0:0:0:
112,128,59810,1,0,0:0:0:0:
256,192,59817,8,8,60017,0:0:0:0:
256,192,59817,8,8,60017,0:0:0:0:
144,184,59818,5,14,0:3:0:0:
223,323,59818,1,0,0:0:0:0:
223,323,59818,1,0,0:0:0:0:
336,168,59827,1,0,0:0:0:0:
336,168,59827,1,0,0:0:0:0:
400,224,59827,1,0,0:0:0:0:
232,352,59835,1,0,0:0:0:0:
232,352,59835,1,0,0:0:0:0:
112,216,59835,1,0,0:0:0:0:
112,216,59835,1,0,0:0:0:0:
326,370,59851,1,0,0:0:0:0:
326,370,59851,1,0,0:0:0:0:
119,269,59851,1,0,0:0:0:0:
119,269,59851,1,0,0:0:0:0:
384,96,59852,1,0,0:0:0:0:
384,96,59852,1,0,0:0:0:0:
384,144,59852,1,0,0:0:0:0:
280,320,59860,1,0,0:0:0:0:
280,320,59860,1,0,0:0:0:0:
328,288,59860,1,0,0:0:0:0:
328,288,59860,1,0,0:0:0:0:
242,325,59868,1,0,0:0:0:0:
242,325,59868,1,0,0:0:0:0:
400,168,59877,1,0,0:0:0:0:
400,168,59877,1,0,0:0:0:0:
344,96,59877,1,0,0:0:0:0:
368,144,59885,5,14,0:3:0:0:
312,288,59885,1,0,0:0:0:0:
312,288,59885,1,0,0:0:0:0:
272,296,59885,1,0,0:0:0:0:
272,296,59885,1,0,0:0:0:0:
306,373,59901,1,0,0:0:0:0:
306,373,59901,1,0,0:0:0:0:
134,283,59901,1,0,0:0:0:0:
134,283,59901,1,0,0:0:0:0:
400,280,59902,1,0,0:0:0:0:
400,280,59902,1,0,0:0:0:0:
312,64,59902,1,0,0:0:0:0:
360,256,59910,1,0,0:0:0:0:
360,256,59910,1,0,0:0:0:0:
416,128,59910,1,0,0:0:0:0:
416,128,59910,1,0,0:0:0:0:
280,96,59918,1,14,0:3:0:0:
262,324,59918,1,0,0:0:0:0:
262,324,59918,1,0,0:0:0:0:
384,344,59927,1,0,0:0:0:0:
384,344,59927,1,0,0:0:0:0:
272,40,59927,1,0,0:0:0:0:
336,200,59935,1,0,0:0:0:0:
336,200,59935,1,0,0:0:0:0:
287,373,59951,1,0,0:0:0:0:
287,373,59951,1,0,0:0:0:0:
149,295,59951,1,0,0:0:0:0:
149,295,59951,1,0,0:0:0:0:
288,352,59952,1,0,0:0:0:0:
288,352,59952,1,0,0:0:0:0:
216,32,59952,1,0,0:0:0:0:
240,184,59960,1,0,0:0:0:0:
240,184,59960,1,0,0:0:0:0:
384,88,59960,1,0,0:0:0:0:
384,88,59960,1,0,0:0:0:0:
282,321,59968,1,0,0:0:0:0:
282,321,59968,1,0,0:0:0:0:
224,360,59977,1,0,0:0:0:0:
224,360,59977,1,0,0:0:0:0:
168,48,59977,1,0,0:0:0:0:
256,192,59985,12,0,60018,0:0:0:0:
256,192,59985,12,0,60018,0:0:0:0:
176,128,59985,5,0,0:0:0:0:
176,128,59985,1,0,0:0:0:0:
288,96,59985,1,0,0:0:0:0:
288,96,59985,1,0,0:0:0:0:
336,0,59985,1,14,0:3:0:0:
267,371,60001,1,0,0:0:0:0:
267,371,60001,1,0,0:0:0:0:
166,305,60001,1,0,0:0:0:0:
166,305,60001,1,0,0:0:0:0:
168,360,60002,1,0,0:0:0:0:
168,360,60002,1,0,0:0:0:0:
120,32,60002,1,0,0:0:0:0:
216,112,60010,1,0,0:0:0:0:
216,112,60010,1,0,0:0:0:0:
168,96,60010,1,0,0:0:0:0:
168,96,60010,1,0,0:0:0:0:
392,160,60018,1,14,0:3:0:0:
301,316,60018,1,0,0:0:0:0:
301,316,60018,1,0,0:0:0:0:
256,192,60018,8,0,60251,0:0:0:0:
256,192,60018,8,0,60251,0:0:0:0:
128,344,60027,5,0,0:0:0:0:
128,344,60027,1,0,0:0:0:0:
96,80,60027,1,0,0:0:0:0:
264,96,60035,1,0,0:0:0:0:
264,96,60035,1,0,0:0:0:0:
136,200,60035,1,0,0:0:0:0:
136,200,60035,1,0,0:0:0:0:
247,367,60051,1,0,0:0:0:0:
247,367,60051,1,0,0:0:0:0:
184,314,60051,1,0,0:0:0:0:
184,314,60051,1,0,0:0:0:0:
104,320,60052,1,0,0:0:0:0:
104,320,60052,1,0,0:0:0:0:
104,112,60052,1,0,0:0:0:0:
320,96,60060,1,0,0:0:0:0:
320,96,60060,1,0,0:0:0:0:
128,240,60060,1,0,0:0:0:0:
128,240,60060,1,0,0:0:0:0:
319,308,60068,1,0,0:0:0:0:
319,308,60068,1,0,0:0:0:0:
80,288,60077,1,0,0:0:0:0:
80,288,60077,1,0,0:0:0:0:
104,160,60077,1,0,0:0:0:0:
264,144,60085,5,14,0:3:0:0:
368,104,60085,1,0,0:0:0:0:
368,104,60085,1,0,0:0:0:0:
152,280,60085,1,0,0:0:0:0:
152,280,60085,1,0,0:0:0:0:
229,360,60101,1,0,0:0:0:0:
229,360,60101,1,0,0:0:0:0:
203,320,60101,1,0,0:0:0:0:
203,320,60101,1,0,0:0:0:0:
72,224,60102,1,0,0:0:0:0:
72,224,60102,1,0,0:0:0:0:
120,176,60102,1,0,0:0:0:0:
400,136,60110,1,0,0:0:0:0:
400,136,60110,1,0,0:0:0:0:
224,280,60110,1,0,0:0:0:0:
224,280,60110,1,0,0:0:0:0:
360,104,60118,5,14,0:3:0:0:
336,299,60118,1,0,0:0:0:0:
336,299,60118,1,0,0:0:0:0:
80,184,60127,1,0,0:0:0:0:
80,184,60127,1,0,0:0:0:0:
128,224,60127,1,0,0:0:0:0:
400,176,60135,1,0,0:0:0:0:
400,176,60135,1,0,0:0:0:0:
272,256,60135,1,0,0:0:0:0:
272,256,60135,1,0,0:0:0:0:
256,192,60150,8,8,60350,0:0:0:0:
256,192,60150,8,8,60350,0:0:0:0:
211,352,60151,5,0,0:0:0:0:
211,352,60151,1,0,0:0:0:0:
223,323,60151,1,0,0:0:0:0:
223,323,60151,1,0,0:0:0:0:
120,96,60152,1,0,0:0:0:0:
120,96,60152,1,0,0:0:0:0:
128,304,60152,1,0,0:0:0:0:
400,240,60160,1,0,0:0:0:0:
400,240,60160,1,0,0:0:0:0:
336,168,60160,1,0,0:0:0:0:
336,168,60160,1,0,0:0:0:0:
353,287,60168,1,0,0:0:0:0:
353,287,60168,1,0,0:0:0:0:
381,349,60168,1,0,0:0:0:0:
400,56,60185,5,14,0:3:0:0:
352,328,60185,1,0,0:0:0:0:
352,328,60185,1,0,0:0:0:0:
384,96,60185,1,0,0:0:0:0:
384,96,60185,1,0,0:0:0:0:
194,341,60201,1,0,0:0:0:0:
194,341,60201,1,0,0:0:0:0:
242,325,60201,1,0,0:0:0:0:
242,325,60201,1,0,0:0:0:0:
96,136,60202,1,0,0:0:0:0:
96,136,60202,1,0,0:0:0:0:
128,272,60202,1,0,0:0:0:0:
320,336,60210,1,0,0:0:0:0:
320,336,60210,1,0,0:0:0:0:
400,168,60210,1,0,0:0:0:0:
400,168,60210,1,0,0:0:0:0:
368,144,60218,5,14,0:3:0:0:
367,274,60218,1,0,0:0:0:0:
367,274,60218,1,0,0:0:0:0:
364,358,60218,1,0,0:0:0:0:
160,56,60227,1,0,0:0:0:0:
160,56,60227,1,0,0:0:0:0:
136,336,60227,1,0,0:0:0:0:
232,336,60235,1,0,0:0:0:0:
232,336,60235,1,0,0:0:0:0:
400,280,60235,1,0,0:0:0:0:
400,280,60235,1,0,0:0:0:0:
179,329,60251,1,0,0:0:0:0:
179,329,60251,1,0,0:0:0:0:
262,324,60251,1,0,0:0:0:0:
262,324,60251,1,0,0:0:0:0:
224,120,60252,1,0,0:0:0:0:
224,120,60252,1,0,0:0:0:0:
168,360,60252,1,0,0:0:0:0:
160,120,60260,1,0,0:0:0:0:
160,120,60260,1,0,0:0:0:0:
384,344,60260,1,0,0:0:0:0:
384,344,60260,1,0,0:0:0:0:
380,259,60268,1,0,0:0:0:0:
380,259,60268,1,0,0:0:0:0:
345,365,60268,1,0,0:0:0:0:
200,352,60277,1,0,0:0:0:0:
152,176,60285,1,0,0:0:0:0:
152,176,60285,1,0,0:0:0:0:
288,352,60285,1,0,0:0:0:0:
288,352,60285,1,0,0:0:0:0:
165,314,60301,1,0,0:0:0:0:
165,314,60301,1,0,0:0:0:0:
282,321,60301,1,0,0:0:0:0:
282,321,60301,1,0,0:0:0:0:
232,352,60302,1,0,0:0:0:0:
320,32,60310,1,0,0:0:0:0:
320,32,60310,1,0,0:0:0:0:
224,360,60310,1,0,0:0:0:0:
224,360,60310,1,0,0:0:0:0:
336,0,60318,1,14,0:3:0:0:
391,243,60318,1,0,0:0:0:0:
391,243,60318,1,0,0:0:0:0:
326,370,60318,1,0,0:0:0:0:
280,320,60327,1,0,0:0:0:0:
168,360,60335,1,0,0:0:0:0:
168,360,60335,1,0,0:0:0:0:
153,299,60351,1,0,0:0:0:0:
153,299,60351,1,0,0:0:0:0:
301,316,60351,1,0,0:0:0:0:
301,316,60351,1,0,0:0:0:0:
312,288,60352,1,0,0:0:0:0:
360,64,60360,1,0,0:0:0:0:
360,64,60360,1,0,0:0:0:0:
128,344,60360,1,0,0:0:0:0:
128,344,60360,1,0,0:0:0:0:
401,225,60368,1,0,0:0:0:0:
401,225,60368,1,0,0:0:0:0:
306,373,60368,1,0,0:0:0:0:
360,256,60377,1,0,0:0:0:0:
256,192,60385,12,0,60418,0:0:0:0:
256,192,60385,12,0,60418,0:0:0:0:
352,160,60385,5,0,0:0:0:0:
352,160,60385,1,0,0:0:0:0:
104,320,60385,1,0,0:0:0:0:
104,320,60385,1,0,0:0:0:0:
143,282,60401,1,0,0:0:0:0:
143,282,60401,1,0,0:0:0:0:
319,308,60401,1,0,0:0:0:0:
319,308,60401,1,0,0:0:0:0:
336,200,60402,1,0,0:0:0:0:
352,280,60410,1,0,0:0:0:0:
352,280,60410,1,0,0:0:0:0:
80,288,60410,1,0,0:0:0:0:
80,288,60410,1,0,0:0:0:0:
264,144,60418,5,14,0:3:0:0:
408,207,60418,5,0,0:0:0:0:
287,373,60418,5,0,0:0:0:0:
408,207,60418,1,0,0:0:0:0:
256,192,60418,8,0,60651,0:0:0:0:
256,192,60418,8,0,60651,0:0:0:0:
240,184,60427,1,0,0:0:0:0:
248,312,60435,1,0,0:0:0:0:
248,312,60435,1,0,0:0:0:0:
72,224,60435,1,0,0:0:0:0:
72,224,60435,1,0,0:0:0:0:
134,264,60451,1,0,0:0:0:0:
134,264,60451,1,0,0:0:0:0:
336,299,60451,1,0,0:0:0:0:
336,299,60451,1,0,0:0:0:0:
176,128,60452,1,0,0:0:0:0:
208,320,60460,1,0,0:0:0:0:
208,320,60460,1,0,0:0:0:0:
80,184,60460,1,0,0:0:0:0:
80,184,60460,1,0,0:0:0:0:
413,187,60468,1,0,0:0:0:0:
413,187,60468,1,0,0:0:0:0:
267,371,60468,1,0,0:0:0:0:
216,112,60477,1,0,0:0:0:0:
168,296,60485,1,0,0:0:0:0:
168,296,60485,1,0,0:0:0:0:
120,96,60485,1,0,0:0:0:0:
120,96,60485,1,0,0:0:0:0:
128,245,60501,1,0,0:0:0:0:
128,245,60501,1,0,0:0:0:0:
353,287,60501,1,0,0:0:0:0:
353,287,60501,1,0,0:0:0:0:
264,96,60502,1,0,0:0:0:0:
168,224,60510,1,0,0:0:0:0:
168,224,60510,1,0,0:0:0:0:
224,120,60517,1,0,0:0:0:0:
224,120,60517,1,0,0:0:0:0:
400,56,60518,5,14,0:3:0:0:
416,168,60518,1,0,0:0:0:0:
416,168,60518,1,0,0:0:0:0:
247,367,60518,1,0,0:0:0:0:
320,96,60527,1,0,0:0:0:0:
192,176,60535,1,0,0:0:0:0:
192,176,60535,1,0,0:0:0:0:
96,136,60535,1,0,0:0:0:0:
96,136,60535,1,0,0:0:0:0:
160,56,60542,1,0,0:0:0:0:
160,56,60542,1,0,0:0:0:0:
125,225,60551,1,0,0:0:0:0:
125,225,60551,1,0,0:0:0:0:
367,274,60551,1,0,0:0:0:0:
367,274,60551,1,0,0:0:0:0:
368,104,60552,1,0,0:0:0:0:
280,112,60560,1,0,0:0:0:0:
280,112,60560,1,0,0:0:0:0:
160,56,60560,1,0,0:0:0:0:
160,56,60560,1,0,0:0:0:0:
96,136,60567,1,0,0:0:0:0:
96,136,60567,1,0,0:0:0:0:
416,148,60568,1,0,0:0:0:0:
416,148,60568,1,0,0:0:0:0:
229,360,60568,1,0,0:0:0:0:
400,136,60577,1,0,0:0:0:0:
352,64,60585,1,0,0:0:0:0:
352,64,60585,1,0,0:0:0:0:
224,120,60585,1,0,0:0:0:0:
224,120,60585,1,0,0:0:0:0:
123,206,60601,1,0,0:0:0:0:
123,206,60601,1,0,0:0:0:0:
380,259,60601,1,0,0:0:0:0:
380,259,60601,1,0,0:0:0:0:
400,176,60602,1,0,0:0:0:0:
280,48,60610,1,0,0:0:0:0:
280,48,60610,1,0,0:0:0:0:
120,96,60617,1,0,0:0:0:0:
120,96,60617,1,0,0:0:0:0:
414,128,60618,1,0,0:0:0:0:
414,128,60618,1,0,0:0:0:0:
211,352,60618,1,0,0:0:0:0:
400,240,60627,1,0,0:0:0:0:
168,48,60635,1,0,0:0:0:0:
168,48,60635,1,0,0:0:0:0:
80,184,60642,1,0,0:0:0:0:
80,184,60642,1,0,0:0:0:0:
124,186,60651,1,0,0:0:0:0:
124,186,60651,1,0,0:0:0:0:
391,243,60651,1,0,0:0:0:0:
391,243,60651,1,0,0:0:0:0:
304,168,60651,1,8,0:0:0:0:
304,168,60651,1,8,0:0:0:0:
352,328,60652,1,0,0:0:0:0:
104,64,60660,1,0,0:0:0:0:
104,64,60660,1,0,0:0:0:0:
72,224,60667,1,0,0:0:0:0:
72,224,60667,1,0,0:0:0:0:
410,109,60668,1,0,0:0:0:0:
410,109,60668,1,0,0:0:0:0:
194,341,60668,1,0,0:0:0:0:
320,336,60677,1,0,0:0:0:0:
96,160,60685,1,0,0:0:0:0:
96,160,60685,1,0,0:0:0:0:
80,288,60692,1,0,0:0:0:0:
80,288,60692,1,0,0:0:0:0:
127,166,60701,1,0,0:0:0:0:
127,166,60701,1,0,0:0:0:0:
401,225,60701,1,0,0:0:0:0:
401,225,60701,1,0,0:0:0:0:
232,336,60702,1,0,0:0:0:0:
88,224,60710,1,0,0:0:0:0:
88,224,60710,1,0,0:0:0:0:
104,320,60717,1,0,0:0:0:0:
104,320,60717,1,0,0:0:0:0:
256,192,60718,12,0,60751,0:0:0:0:
256,192,60718,12,0,60751,0:0:0:0:
404,90,60718,5,0,0:0:0:0:
404,90,60718,1,0,0:0:0:0:
179,329,60718,1,0,0:0:0:0:
160,120,60727,1,0,0:0:0:0:
88,280,60735,1,0,0:0:0:0:
88,280,60735,1,0,0:0:0:0:
128,344,60742,1,0,0:0:0:0:
128,344,60742,1,0,0:0:0:0:
408,207,60751,5,0,0:0:0:0:
132,147,60751,1,0,0:0:0:0:
132,147,60751,1,0,0:0:0:0:
408,207,60751,1,0,0:0:0:0:
256,192,60751,8,0,60984,0:0:0:0:
256,192,60751,8,0,60984,0:0:0:0:
152,176,60752,5,0,0:0:0:0:
104,320,60760,1,0,0:0:0:0:
104,320,60760,1,0,0:0:0:0:
168,360,60767,1,0,0:0:0:0:
168,360,60767,1,0,0:0:0:0:
395,72,60768,1,0,0:0:0:0:
395,72,60768,1,0,0:0:0:0:
165,314,60768,1,0,0:0:0:0:
320,32,60777,1,0,0:0:0:0:
128,344,60785,1,0,0:0:0:0:
128,344,60785,1,0,0:0:0:0:
224,360,60792,1,0,0:0:0:0:
224,360,60792,1,0,0:0:0:0:
140,129,60801,1,0,0:0:0:0:
140,129,60801,1,0,0:0:0:0:
413,187,60801,1,0,0:0:0:0:
413,187,60801,1,0,0:0:0:0:
160,368,60810,1,0,0:0:0:0:
160,368,60810,1,0,0:0:0:0:
288,352,60817,1,0,0:0:0:0:
288,352,60817,1,0,0:0:0:0:
384,56,60818,1,0,0:0:0:0:
384,56,60818,1,0,0:0:0:0:
153,299,60818,1,0,0:0:0:0:
360,64,60827,1,0,0:0:0:0:
224,376,60835,1,0,0:0:0:0:
224,376,60835,1,0,0:0:0:0:
384,344,60842,1,0,0:0:0:0:
384,344,60842,1,0,0:0:0:0:
149,112,60851,1,0,0:0:0:0:
149,112,60851,1,0,0:0:0:0:
416,168,60851,1,0,0:0:0:0:
416,168,60851,1,0,0:0:0:0:
352,160,60852,1,0,0:0:0:0:
264,368,60860,1,0,0:0:0:0:
264,368,60860,1,0,0:0:0:0:
400,280,60867,1,0,0:0:0:0:
400,280,60867,1,0,0:0:0:0:
143,282,60868,1,0,0:0:0:0:
352,280,60877,1,0,0:0:0:0:
352,328,60885,1,0,0:0:0:0:
352,328,60885,1,0,0:0:0:0:
400,168,60892,1,0,0:0:0:0:
400,168,60892,1,0,0:0:0:0:
161,95,60901,1,0,0:0:0:0:
161,95,60901,1,0,0:0:0:0:
416,148,60901,1,0,0:0:0:0:
416,148,60901,1,0,0:0:0:0:
248,312,60902,1,0,0:0:0:0:
328,224,60917,1,0,0:0:0:0:
328,224,60917,1,0,0:0:0:0:
384,96,60917,1,0,0:0:0:0:
384,96,60917,1,0,0:0:0:0:
134,264,60918,1,0,0:0:0:0:
208,320,60927,1,0,0:0:0:0:
312,352,60935,1,0,0:0:0:0:
312,352,60935,1,0,0:0:0:0:
392,288,60942,1,0,0:0:0:0:
392,288,60942,1,0,0:0:0:0:
336,168,60942,1,0,0:0:0:0:
336,168,60942,1,0,0:0:0:0:
174,81,60951,1,0,0:0:0:0:
174,81,60951,1,0,0:0:0:0:
414,128,60951,1,0,0:0:0:0:
414,128,60951,1,0,0:0:0:0:
168,296,60952,1,0,0:0:0:0:
392,288,60960,1,0,0:0:0:0:
392,288,60960,1,0,0:0:0:0:
312,352,60967,1,0,0:0:0:0:
312,352,60967,1,0,0:0:0:0:
272,256,60967,1,0,0:0:0:0:
272,256,60967,1,0,0:0:0:0:
160,296,60968,1,0,0:0:0:0:
160,296,60968,1,0,0:0:0:0:
128,245,60968,1,0,0:0:0:0:
168,224,60977,1,0,0:0:0:0:
328,224,60985,1,0,0:0:0:0:
328,224,60985,1,0,0:0:0:0:
224,280,60992,1,0,0:0:0:0:
224,280,60992,1,0,0:0:0:0:
189,68,61001,1,0,0:0:0:0:
189,68,61001,1,0,0:0:0:0:
410,109,61001,1,0,0:0:0:0:
410,109,61001,1,0,0:0:0:0:
192,176,61002,1,0,0:0:0:0:
352,328,61017,1,0,0:0:0:0:
352,328,61017,1,0,0:0:0:0:
152,280,61017,1,0,0:0:0:0:
152,280,61017,1,0,0:0:0:0:
48,136,61018,1,0,0:0:0:0:
48,136,61018,1,0,0:0:0:0:
125,225,61018,1,0,0:0:0:0:
280,112,61027,1,0,0:0:0:0:
264,368,61042,1,0,0:0:0:0:
264,368,61042,1,0,0:0:0:0:
128,240,61042,1,0,0:0:0:0:
128,240,61042,1,0,0:0:0:0:
205,57,61051,1,0,0:0:0:0:
205,57,61051,1,0,0:0:0:0:
404,90,61051,1,0,0:0:0:0:
404,90,61051,1,0,0:0:0:0:
280,144,61051,1,8,0:0:0:0:
280,144,61051,1,8,0:0:0:0:
352,64,61052,1,0,0:0:0:0:
224,376,61067,1,0,0:0:0:0:
224,376,61067,1,0,0:0:0:0:
136,200,61067,1,0,0:0:0:0:
136,200,61067,1,0,0:0:0:0:
256,176,61068,1,0,0:0:0:0:
256,176,61068,1,0,0:0:0:0:
123,206,61068,1,0,0:0:0:0:
280,48,61077,1,0,0:0:0:0:
160,368,61092,1,0,0:0:0:0:
160,368,61092,1,0,0:0:0:0:
168,96,61092,1,0,0:0:0:0:
168,96,61092,1,0,0:0:0:0:
223,47,61101,1,0,0:0:0:0:
223,47,61101,1,0,0:0:0:0:
395,72,61101,1,0,0:0:0:0:
395,72,61101,1,0,0:0:0:0:
168,48,61102,1,0,0:0:0:0:
128,344,61117,1,0,0:0:0:0:
128,344,61117,1,0,0:0:0:0:
288,96,61117,1,0,0:0:0:0:
288,96,61117,1,0,0:0:0:0:
48,240,61118,1,0,0:0:0:0:
48,240,61118,1,0,0:0:0:0:
124,186,61118,1,0,0:0:0:0:
104,64,61127,1,0,0:0:0:0:
104,320,61142,1,0,0:0:0:0:
104,320,61142,1,0,0:0:0:0:
384,88,61142,1,0,0:0:0:0:
384,88,61142,1,0,0:0:0:0:
241,40,61151,1,0,0:0:0:0:
241,40,61151,1,0,0:0:0:0:
384,56,61151,1,0,0:0:0:0:
384,56,61151,1,0,0:0:0:0:
256,192,61152,12,8,61352,0:0:0:0:
256,192,61152,12,8,61352,0:0:0:0:
96,160,61152,5,0,0:0:0:0:
88,280,61167,1,0,0:0:0:0:
88,280,61167,1,0,0:0:0:0:
88,64,61168,1,0,0:0:0:0:
88,64,61168,1,0,0:0:0:0:
127,166,61168,1,0,0:0:0:0:
88,224,61177,1,0,0:0:0:0:
416,128,61192,5,0,0:0:0:0:
416,128,61192,5,0,0:0:0:0:
88,224,61192,1,0,0:0:0:0:
88,224,61192,1,0,0:0:0:0:
261,35,61201,1,0,0:0:0:0:
261,35,61201,1,0,0:0:0:0:
88,280,61202,1,0,0:0:0:0:
272,296,61217,5,0,0:0:0:0:
272,296,61217,5,0,0:0:0:0:
96,160,61217,1,0,0:0:0:0:
96,160,61217,1,0,0:0:0:0:
344,304,61218,1,0,0:0:0:0:
344,304,61218,1,0,0:0:0:0:
132,147,61218,1,0,0:0:0:0:
104,320,61227,1,0,0:0:0:0:
104,64,61242,1,0,0:0:0:0:
104,64,61242,1,0,0:0:0:0:
328,288,61242,1,0,0:0:0:0:
328,288,61242,1,0,0:0:0:0:
328,224,61250,1,0,0:0:0:0:
328,224,61250,1,0,0:0:0:0:
280,32,61251,1,0,0:0:0:0:
280,32,61251,1,0,0:0:0:0:
128,344,61252,1,0,0:0:0:0:
168,48,61267,1,0,0:0:0:0:
168,48,61267,1,0,0:0:0:0:
112,216,61267,1,0,0:0:0:0:
112,216,61267,1,0,0:0:0:0:
216,136,61268,1,0,0:0:0:0:
216,136,61268,1,0,0:0:0:0:
140,129,61268,1,0,0:0:0:0:
392,288,61275,1,0,0:0:0:0:
392,288,61275,1,0,0:0:0:0:
160,368,61277,1,0,0:0:0:0:
280,48,61292,1,0,0:0:0:0:
280,48,61292,1,0,0:0:0:0:
112,128,61292,1,0,0:0:0:0:
112,128,61292,1,0,0:0:0:0:
312,352,61300,1,0,0:0:0:0:
312,352,61300,1,0,0:0:0:0:
300,32,61301,1,0,0:0:0:0:
300,32,61301,1,0,0:0:0:0:
160,296,61301,1,0,0:0:0:0:
160,296,61301,1,0,0:0:0:0:
224,376,61302,1,0,0:0:0:0:
352,64,61317,1,0,0:0:0:0:
352,64,61317,1,0,0:0:0:0:
120,96,61317,1,0,0:0:0:0:
120,96,61317,1,0,0:0:0:0:
408,184,61318,1,0,0:0:0:0:
408,184,61318,1,0,0:0:0:0:
149,112,61318,1,0,0:0:0:0:
264,368,61327,1,0,0:0:0:0:
280,112,61342,1,0,0:0:0:0:
280,112,61342,1,0,0:0:0:0:
208,48,61342,1,0,0:0:0:0:
208,48,61342,1,0,0:0:0:0:
352,328,61350,1,0,0:0:0:0:
352,328,61350,1,0,0:0:0:0:
320,34,61351,1,0,0:0:0:0:
320,34,61351,1,0,0:0:0:0:
48,136,61351,1,0,0:0:0:0:
48,136,61351,1,0,0:0:0:0:
352,328,61352,1,0,0:0:0:0:
192,176,61367,1,0,0:0:0:0:
192,176,61367,1,0,0:0:0:0:
272,48,61367,1,0,0:0:0:0:
272,48,61367,1,0,0:0:0:0:
216,272,61368,1,0,0:0:0:0:
216,272,61368,1,0,0:0:0:0:
161,95,61368,1,0,0:0:0:0:
264,368,61375,1,0,0:0:0:0:
264,368,61375,1,0,0:0:0:0:
280,144,61384,1,8,0:0:0:0:
280,144,61384,1,8,0:0:0:0:
168,224,61392,1,0,0:0:0:0:
168,224,61392,1,0,0:0:0:0:
312,48,61392,1,0,0:0:0:0:
312,48,61392,1,0,0:0:0:0:
224,376,61400,1,0,0:0:0:0:
224,376,61400,1,0,0:0:0:0:
339,38,61401,1,0,0:0:0:0:
339,38,61401,1,0,0:0:0:0:
256,176,61401,1,0,0:0:0:0:
256,176,61401,1,0,0:0:0:0:
312,352,61402,1,0,0:0:0:0:
168,296,61417,1,0,0:0:0:0:
168,296,61417,1,0,0:0:0:0:
344,80,61417,1,0,0:0:0:0:
344,80,61417,1,0,0:0:0:0:
288,96,61418,1,0,0:0:0:0:
288,96,61418,1,0,0:0:0:0:
174,81,61418,1,0,0:0:0:0:
160,368,61425,1,0,0:0:0:0:
160,368,61425,1,0,0:0:0:0:
392,288,61427,1,0,0:0:0:0:
208,320,61442,1,0,0:0:0:0:
208,320,61442,1,0,0:0:0:0:
352,128,61442,1,0,0:0:0:0:
352,128,61442,1,0,0:0:0:0:
128,344,61450,1,0,0:0:0:0:
128,344,61450,1,0,0:0:0:0:
358,44,61451,1,0,0:0:0:0:
358,44,61451,1,0,0:0:0:0:
48,240,61451,1,0,0:0:0:0:
48,240,61451,1,0,0:0:0:0:
328,224,61452,1,0,0:0:0:0:
248,312,61467,1,0,0:0:0:0:
248,312,61467,1,0,0:0:0:0:
352,184,61467,1,0,0:0:0:0:
352,184,61467,1,0,0:0:0:0:
328,320,61468,1,0,0:0:0:0:
328,320,61468,1,0,0:0:0:0:
189,68,61468,1,0,0:0:0:0:
104,320,61475,1,0,0:0:0:0:
104,320,61475,1,0,0:0:0:0:
256,192,61485,12,8,61685,0:0:0:0:
256,192,61485,12,8,61685,0:0:0:0:
352,280,61492,5,0,0:0:0:0:
352,280,61492,1,0,0:0:0:0:
336,232,61492,1,0,0:0:0:0:
336,232,61492,1,0,0:0:0:0:
88,280,61500,1,0,0:0:0:0:
88,280,61500,1,0,0:0:0:0:
376,53,61501,1,0,0:0:0:0:
376,53,61501,1,0,0:0:0:0:
88,64,61501,1,0,0:0:0:0:
88,64,61501,1,0,0:0:0:0:
352,160,61517,1,0,0:0:0:0:
352,160,61517,1,0,0:0:0:0:
320,272,61517,1,0,0:0:0:0:
320,272,61517,1,0,0:0:0:0:
80,296,61518,1,0,0:0:0:0:
80,296,61518,1,0,0:0:0:0:
205,57,61518,1,0,0:0:0:0:
88,224,61525,1,0,0:0:0:0:
88,224,61525,1,0,0:0:0:0:
360,64,61542,1,0,0:0:0:0:
360,64,61542,1,0,0:0:0:0:
264,208,61542,1,0,0:0:0:0:
264,208,61542,1,0,0:0:0:0:
96,160,61550,1,0,0:0:0:0:
96,160,61550,1,0,0:0:0:0:
392,64,61551,1,0,0:0:0:0:
392,64,61551,1,0,0:0:0:0:
344,304,61551,1,0,0:0:0:0:
344,304,61551,1,0,0:0:0:0:
248,112,61567,1,0,0:0:0:0:
248,112,61567,1,0,0:0:0:0:
416,48,61568,1,0,0:0:0:0:
416,48,61568,1,0,0:0:0:0:
223,47,61568,1,0,0:0:0:0:
104,64,61575,1,0,0:0:0:0:
104,64,61575,1,0,0:0:0:0:
320,32,61592,5,0,0:0:0:0:
320,32,61592,5,0,0:0:0:0:
192,88,61592,1,0,0:0:0:0:
192,88,61592,1,0,0:0:0:0:
168,48,61600,1,0,0:0:0:0:
168,48,61600,1,0,0:0:0:0:
216,136,61601,1,0,0:0:0:0:
216,136,61601,1,0,0:0:0:0:
152,176,61617,5,0,0:0:0:0:
152,176,61617,5,0,0:0:0:0:
160,136,61617,1,0,0:0:0:0:
160,136,61617,1,0,0:0:0:0:
432,336,61618,1,0,0:0:0:0:
432,336,61618,1,0,0:0:0:0:
241,40,61618,1,0,0:0:0:0:
280,48,61625,1,0,0:0:0:0:
280,48,61625,1,0,0:0:0:0:
160,120,61642,1,0,0:0:0:0:
160,120,61642,1,0,0:0:0:0:
128,168,61642,1,0,0:0:0:0:
128,168,61642,1,0,0:0:0:0:
352,64,61650,1,0,0:0:0:0:
352,64,61650,1,0,0:0:0:0:
408,184,61651,1,0,0:0:0:0:
408,184,61651,1,0,0:0:0:0:
232,336,61667,1,0,0:0:0:0:
232,336,61667,1,0,0:0:0:0:
96,216,61667,1,0,0:0:0:0:
96,216,61667,1,0,0:0:0:0:
208,192,61668,1,0,0:0:0:0:
208,192,61668,1,0,0:0:0:0:
261,35,61668,1,0,0:0:0:0:
280,112,61675,1,0,0:0:0:0:
280,112,61675,1,0,0:0:0:0:
320,336,61692,1,0,0:0:0:0:
320,336,61692,1,0,0:0:0:0:
96,248,61692,1,0,0:0:0:0:
96,248,61692,1,0,0:0:0:0:
192,176,61700,1,0,0:0:0:0:
192,176,61700,1,0,0:0:0:0:
152,288,61701,1,0,0:0:0:0:
152,288,61701,1,0,0:0:0:0:
216,272,61701,1,0,0:0:0:0:
216,272,61701,1,0,0:0:0:0:
352,328,61717,1,0,0:0:0:0:
352,328,61717,1,0,0:0:0:0:
88,280,61717,1,0,0:0:0:0:
88,280,61717,1,0,0:0:0:0:
64,176,61718,1,0,0:0:0:0:
64,176,61718,1,0,0:0:0:0:
280,32,61718,1,0,0:0:0:0:
168,224,61725,1,0,0:0:0:0:
168,224,61725,1,0,0:0:0:0:
400,240,61742,1,0,0:0:0:0:
400,240,61742,1,0,0:0:0:0:
112,312,61742,1,0,0:0:0:0:
112,312,61742,1,0,0:0:0:0:
168,296,61750,1,0,0:0:0:0:
168,296,61750,1,0,0:0:0:0:
312,400,61751,1,0,0:0:0:0:
312,400,61751,1,0,0:0:0:0:
288,96,61751,1,0,0:0:0:0:
288,96,61751,1,0,0:0:0:0:
152,80,61752,6,0,B|184:304|152:96,3,216.666666666667
152,80,61752,6,0,B|184:304|152:96,3,216.666666666667
400,176,61767,1,0,0:0:0:0:
400,176,61767,1,0,0:0:0:0:
176,320,61767,1,0,0:0:0:0:
176,320,61767,1,0,0:0:0:0:
96,368,61768,1,0,0:0:0:0:
96,368,61768,1,0,0:0:0:0:
300,32,61768,1,0,0:0:0:0:
208,320,61775,1,0,0:0:0:0:
208,320,61775,1,0,0:0:0:0:
400,136,61792,1,0,0:0:0:0:
400,136,61792,1,0,0:0:0:0:
248,312,61800,1,0,0:0:0:0:
248,312,61800,1,0,0:0:0:0:
272,192,61801,1,0,0:0:0:0:
272,192,61801,1,0,0:0:0:0:
328,320,61801,1,0,0:0:0:0:
328,320,61801,1,0,0:0:0:0:
368,104,61817,1,0,0:0:0:0:
368,104,61817,1,0,0:0:0:0:
144,320,61817,1,0,0:0:0:0:
144,320,61817,1,0,0:0:0:0:
272,64,61818,1,0,0:0:0:0:
272,64,61818,1,0,0:0:0:0:
320,34,61818,1,0,0:0:0:0:
352,280,61825,1,0,0:0:0:0:
352,280,61825,1,0,0:0:0:0:
320,96,61842,1,0,0:0:0:0:
320,96,61842,1,0,0:0:0:0:
224,320,61842,1,0,0:0:0:0:
224,320,61842,1,0,0:0:0:0:
352,160,61850,1,0,0:0:0:0:
352,160,61850,1,0,0:0:0:0:
208,400,61851,1,0,0:0:0:0:
208,400,61851,1,0,0:0:0:0:
80,296,61851,1,0,0:0:0:0:
80,296,61851,1,0,0:0:0:0:
264,96,61867,1,0,0:0:0:0:
264,96,61867,1,0,0:0:0:0:
272,328,61867,1,0,0:0:0:0:
272,328,61867,1,0,0:0:0:0:
232,272,61868,1,0,0:0:0:0:
232,272,61868,1,0,0:0:0:0:
339,38,61868,1,0,0:0:0:0:
360,64,61875,1,0,0:0:0:0:
360,64,61875,1,0,0:0:0:0:
256,192,61885,12,8,62085,0:0:0:0:
256,192,61885,12,8,62085,0:0:0:0:
216,112,61892,5,0,0:0:0:0:
216,112,61892,1,0,0:0:0:0:
288,344,61892,1,0,0:0:0:0:
288,344,61892,1,0,0:0:0:0:
384,360,61901,1,0,0:0:0:0:
384,360,61901,1,0,0:0:0:0:
416,48,61901,1,0,0:0:0:0:
416,48,61901,1,0,0:0:0:0:
176,128,61917,1,0,0:0:0:0:
176,128,61917,1,0,0:0:0:0:
336,344,61917,1,0,0:0:0:0:
336,344,61917,1,0,0:0:0:0:
88,88,61918,1,0,0:0:0:0:
88,88,61918,1,0,0:0:0:0:
358,44,61918,1,0,0:0:0:0:
320,32,61925,5,0,0:0:0:0:
320,32,61925,5,0,0:0:0:0:
240,184,61942,1,0,0:0:0:0:
240,184,61942,1,0,0:0:0:0:
368,352,61942,1,0,0:0:0:0:
368,352,61942,1,0,0:0:0:0:
152,176,61950,5,0,0:0:0:0:
152,176,61950,5,0,0:0:0:0:
144,104,61951,1,0,0:0:0:0:
144,104,61951,1,0,0:0:0:0:
432,336,61951,1,0,0:0:0:0:
432,336,61951,1,0,0:0:0:0:
336,200,61967,1,0,0:0:0:0:
336,200,61967,1,0,0:0:0:0:
416,328,61967,1,0,0:0:0:0:
416,328,61967,1,0,0:0:0:0:
272,336,61968,1,0,0:0:0:0:
272,336,61968,1,0,0:0:0:0:
376,53,61968,1,0,0:0:0:0:
160,120,61975,1,0,0:0:0:0:
160,120,61975,1,0,0:0:0:0:
360,256,61992,1,0,0:0:0:0:
360,256,61992,1,0,0:0:0:0:
400,280,61992,1,0,0:0:0:0:
400,280,61992,1,0,0:0:0:0:
232,336,62000,1,0,0:0:0:0:
232,336,62000,1,0,0:0:0:0:
312,232,62001,1,0,0:0:0:0:
312,232,62001,1,0,0:0:0:0:
208,192,62001,1,0,0:0:0:0:
208,192,62001,1,0,0:0:0:0:
312,288,62017,1,0,0:0:0:0:
312,288,62017,1,0,0:0:0:0:
416,232,62017,1,0,0:0:0:0:
416,232,62017,1,0,0:0:0:0:
464,48,62018,1,0,0:0:0:0:
464,48,62018,1,0,0:0:0:0:
392,64,62018,1,0,0:0:0:0:
320,336,62025,1,0,0:0:0:0:
320,336,62025,1,0,0:0:0:0:
280,320,62042,1,0,0:0:0:0:
280,320,62042,1,0,0:0:0:0:
408,176,62042,1,0,0:0:0:0:
408,176,62042,1,0,0:0:0:0:
352,328,62050,1,0,0:0:0:0:
352,328,62050,1,0,0:0:0:0:
264,40,62051,1,0,0:0:0:0:
264,40,62051,1,0,0:0:0:0:
64,176,62051,1,0,0:0:0:0:
64,176,62051,1,0,0:0:0:0:
232,352,62067,1,0,0:0:0:0:
232,352,62067,1,0,0:0:0:0:
384,136,62067,1,0,0:0:0:0:
384,136,62067,1,0,0:0:0:0:
480,280,62068,1,0,0:0:0:0:
480,280,62068,1,0,0:0:0:0:
400,240,62075,1,0,0:0:0:0:
400,240,62075,1,0,0:0:0:0:
152,80,62085,6,0,B|184:304|152:96,3,216.666666666667
152,80,62085,6,0,B|184:304|152:96,3,216.666666666667
200,352,62092,1,0,0:0:0:0:
200,352,62092,1,0,0:0:0:0:
352,104,62092,1,0,0:0:0:0:
352,104,62092,1,0,0:0:0:0:
400,176,62100,1,0,0:0:0:0:
400,176,62100,1,0,0:0:0:0:
176,232,62101,1,0,0:0:0:0:
176,232,62101,1,0,0:0:0:0:
96,368,62101,1,0,0:0:0:0:
96,368,62101,1,0,0:0:0:0:
168,360,62117,1,0,0:0:0:0:
168,360,62117,1,0,0:0:0:0:
304,64,62117,1,0,0:0:0:0:
304,64,62117,1,0,0:0:0:0:
96,288,62118,1,0,0:0:0:0:
96,288,62118,1,0,0:0:0:0:
400,136,62125,1,0,0:0:0:0:
400,136,62125,1,0,0:0:0:0:
136,336,62142,1,0,0:0:0:0:
136,336,62142,1,0,0:0:0:0:
224,48,62142,1,0,0:0:0:0:
224,48,62142,1,0,0:0:0:0:
368,104,62150,1,0,0:0:0:0:
368,104,62150,1,0,0:0:0:0:
352,160,62151,1,0,0:0:0:0:
352,160,62151,1,0,0:0:0:0:
272,64,62151,1,0,0:0:0:0:
272,64,62151,1,0,0:0:0:0:
128,272,62167,1,0,0:0:0:0:
128,272,62167,1,0,0:0:0:0:
168,56,62167,1,0,0:0:0:0:
168,56,62167,1,0,0:0:0:0:
184,72,62168,1,0,0:0:0:0:
184,72,62168,1,0,0:0:0:0:
152,288,62168,1,0,0:0:0:0:
320,96,62175,1,0,0:0:0:0:
320,96,62175,1,0,0:0:0:0:
128,64,62192,1,0,0:0:0:0:
128,64,62192,1,0,0:0:0:0:
264,96,62200,1,0,0:0:0:0:
264,96,62200,1,0,0:0:0:0:
128,120,62201,1,0,0:0:0:0:
128,120,62201,1,0,0:0:0:0:
232,272,62201,1,0,0:0:0:0:
232,272,62201,1,0,0:0:0:0:
128,304,62217,1,0,0:0:0:0:
128,304,62217,1,0,0:0:0:0:
104,80,62217,1,0,0:0:0:0:
104,80,62217,1,0,0:0:0:0:
344,256,62218,1,0,0:0:0:0:
344,256,62218,1,0,0:0:0:0:
312,400,62218,1,0,0:0:0:0:
216,112,62225,1,0,0:0:0:0:
216,112,62225,1,0,0:0:0:0:
128,224,62242,1,0,0:0:0:0:
128,224,62242,1,0,0:0:0:0:
176,128,62250,1,0,0:0:0:0:
176,128,62250,1,0,0:0:0:0:
152,368,62251,1,0,0:0:0:0:
152,368,62251,1,0,0:0:0:0:
88,88,62251,1,0,0:0:0:0:
88,88,62251,1,0,0:0:0:0:
120,176,62267,1,0,0:0:0:0:
120,176,62267,1,0,0:0:0:0:
368,112,62268,1,0,0:0:0:0:
368,112,62268,1,0,0:0:0:0:
272,192,62268,1,0,0:0:0:0:
240,184,62275,1,0,0:0:0:0:
240,184,62275,1,0,0:0:0:0:
104,160,62292,1,0,0:0:0:0:
104,160,62292,1,0,0:0:0:0:
336,200,62300,1,0,0:0:0:0:
336,200,62300,1,0,0:0:0:0:
400,32,62301,1,0,0:0:0:0:
400,32,62301,1,0,0:0:0:0:
272,336,62301,1,0,0:0:0:0:
272,336,62301,1,0,0:0:0:0:
104,112,62317,1,0,0:0:0:0:
104,112,62317,1,0,0:0:0:0:
208,400,62318,1,0,0:0:0:0:
360,256,62325,1,0,0:0:0:0:
360,256,62325,1,0,0:0:0:0:
96,80,62342,1,0,0:0:0:0:
96,80,62342,1,0,0:0:0:0:
312,288,62350,1,0,0:0:0:0:
312,288,62350,1,0,0:0:0:0:
112,16,62351,1,0,0:0:0:0:
112,16,62351,1,0,0:0:0:0:
464,48,62351,1,0,0:0:0:0:
464,48,62351,1,0,0:0:0:0:
256,192,62352,12,8,62552,0:0:0:0:
120,32,62367,5,0,0:0:0:0:
120,32,62367,1,0,0:0:0:0:
384,360,62368,1,0,0:0:0:0:
280,320,62375,1,0,0:0:0:0:
280,320,62375,1,0,0:0:0:0:
200,192,62385,2,0,B|256:80|192:272,1,162.5
200,192,62385,2,0,B|256:80|192:272,1,162.5
168,48,62392,1,0,0:0:0:0:
168,48,62392,1,0,0:0:0:0:
232,352,62400,1,0,0:0:0:0:
232,352,62400,1,0,0:0:0:0:
256,240,62401,1,0,0:0:0:0:
256,240,62401,1,0,0:0:0:0:
480,280,62401,1,0,0:0:0:0:
480,280,62401,1,0,0:0:0:0:
216,32,62417,1,0,0:0:0:0:
216,32,62417,1,0,0:0:0:0:
144,104,62418,1,0,0:0:0:0:
200,352,62425,1,0,0:0:0:0:
200,352,62425,1,0,0:0:0:0:
272,40,62442,1,0,0:0:0:0:
272,40,62442,1,0,0:0:0:0:
168,360,62450,1,0,0:0:0:0:
168,360,62450,1,0,0:0:0:0:
272,384,62451,1,0,0:0:0:0:
272,384,62451,1,0,0:0:0:0:
96,288,62451,1,0,0:0:0:0:
96,288,62451,1,0,0:0:0:0:
312,64,62467,1,0,0:0:0:0:
312,64,62467,1,0,0:0:0:0:
312,232,62468,1,0,0:0:0:0:
136,336,62475,1,0,0:0:0:0:
136,336,62475,1,0,0:0:0:0:
368,296,62485,6,0,B|144:264|352:296,3,216.666666666667
368,296,62485,6,0,B|144:264|352:296,3,216.666666666667
344,96,62492,1,0,0:0:0:0:
344,96,62492,1,0,0:0:0:0:
128,272,62500,1,0,0:0:0:0:
128,272,62500,1,0,0:0:0:0:
80,352,62501,1,0,0:0:0:0:
80,352,62501,1,0,0:0:0:0:
184,72,62501,1,0,0:0:0:0:
184,72,62501,1,0,0:0:0:0:
384,144,62517,1,0,0:0:0:0:
384,144,62517,1,0,0:0:0:0:
264,40,62518,1,0,0:0:0:0:
400,224,62542,1,0,0:0:0:0:
400,224,62542,1,0,0:0:0:0:
128,304,62550,1,0,0:0:0:0:
128,304,62550,1,0,0:0:0:0:
384,176,62551,1,0,0:0:0:0:
384,176,62551,1,0,0:0:0:0:
344,256,62551,1,0,0:0:0:0:
344,256,62551,1,0,0:0:0:0:
392,280,62567,1,0,0:0:0:0:
392,280,62567,1,0,0:0:0:0:
176,232,62568,1,0,0:0:0:0:
128,224,62575,1,0,0:0:0:0:
128,224,62575,1,0,0:0:0:0:
384,320,62592,1,0,0:0:0:0:
384,320,62592,1,0,0:0:0:0:
120,176,62600,1,0,0:0:0:0:
120,176,62600,1,0,0:0:0:0:
176,216,62601,1,0,0:0:0:0:
176,216,62601,1,0,0:0:0:0:
368,112,62601,1,0,0:0:0:0:
368,112,62601,1,0,0:0:0:0:
368,344,62617,1,0,0:0:0:0:
368,344,62617,1,0,0:0:0:0:
352,160,62618,1,0,0:0:0:0:
104,160,62625,1,0,0:0:0:0:
104,160,62625,1,0,0:0:0:0:
104,112,62650,1,0,0:0:0:0:
104,112,62650,1,0,0:0:0:0:
360,360,62651,1,0,0:0:0:0:
360,360,62651,1,0,0:0:0:0:
128,120,62668,1,0,0:0:0:0:
96,80,62675,1,0,0:0:0:0:
96,80,62675,1,0,0:0:0:0:
120,32,62700,1,0,0:0:0:0:
120,32,62700,1,0,0:0:0:0:
112,176,62701,1,0,0:0:0:0:
112,176,62701,1,0,0:0:0:0:
152,368,62718,1,0,0:0:0:0:
168,48,62725,1,0,0:0:0:0:
168,48,62725,1,0,0:0:0:0:
216,32,62750,1,0,0:0:0:0:
216,32,62750,1,0,0:0:0:0:
400,0,62751,1,0,0:0:0:0:
400,0,62751,1,0,0:0:0:0:
400,32,62768,1,0,0:0:0:0:
272,40,62775,1,0,0:0:0:0:
272,40,62775,1,0,0:0:0:0:
256,248,62785,2,0,B|368:192|176:256,1,162.5
256,248,62785,2,0,B|368:192|176:256,1,162.5
312,64,62800,1,0,0:0:0:0:
312,64,62800,1,0,0:0:0:0:
168,0,62801,1,0,0:0:0:0:
168,0,62801,1,0,0:0:0:0:
315,259,62818,2,0,B|256:80|312:192,1,162.5
315,259,62818,2,0,B|256:80|312:192,1,162.5
112,16,62818,1,0,0:0:0:0:
344,96,62825,1,0,0:0:0:0:
344,96,62825,1,0,0:0:0:0:
384,144,62850,1,0,0:0:0:0:
384,144,62850,1,0,0:0:0:0:
160,352,62851,1,0,0:0:0:0:
160,352,62851,1,0,0:0:0:0:
256,240,62868,1,0,0:0:0:0:
400,224,62875,1,0,0:0:0:0:
400,224,62875,1,0,0:0:0:0:
392,280,62900,1,0,0:0:0:0:
392,280,62900,1,0,0:0:0:0:
376,264,62901,1,0,0:0:0:0:
376,264,62901,1,0,0:0:0:0:
329,274,62917,2,0,P|177:313|48:224,1,325
329,274,62917,2,0,P|177:313|48:224,1,325
272,384,62918,1,0,0:0:0:0:
384,320,62925,1,0,0:0:0:0:
384,320,62925,1,0,0:0:0:0:
144,112,62935,1,0,0:0:0:0:
144,112,62935,1,0,0:0:0:0:
368,344,62950,1,0,0:0:0:0:
368,344,62950,1,0,0:0:0:0:
192,104,62951,1,0,0:0:0:0:
192,104,62951,1,0,0:0:0:0:
368,296,62952,6,0,B|144:264|352:296,3,216.666666666667
80,352,62968,1,0,0:0:0:0:
168,256,62985,1,0,0:0:0:0:
168,256,62985,1,0,0:0:0:0:
336,80,63001,1,0,0:0:0:0:
336,80,63001,1,0,0:0:0:0:
224,200,63017,1,0,0:0:0:0:
224,200,63017,1,0,0:0:0:0:
384,176,63018,1,0,0:0:0:0:
328,72,63035,1,0,0:0:0:0:
328,72,63035,1,0,0:0:0:0:
176,216,63068,1,0,0:0:0:0:
416,288,63085,1,0,0:0:0:0:
416,288,63085,1,0,0:0:0:0:
256,248,63118,2,0,B|368:192|176:256,1,162.5
256,248,63118,2,0,B|368:192|176:256,1,162.5
360,360,63118,1,0,0:0:0:0:
32,280,63135,1,0,0:0:0:0:
32,280,63135,1,0,0:0:0:0:
315,259,63151,2,0,B|256:80|312:192,1,162.5
315,259,63151,2,0,B|256:80|312:192,1,162.5
112,176,63168,1,0,0:0:0:0:
372,351,63184,2,0,B|-8:304|248:136|208:24|208:24|488:160|216:144,1,800
372,351,63184,2,0,B|-8:304|248:136|208:24|208:24|488:160|216:144,1,800
48,48,63185,1,0,0:0:0:0:
48,48,63185,1,0,0:0:0:0:
400,0,63218,1,0,0:0:0:0:
240,336,63235,1,0,0:0:0:0:
240,336,63235,1,0,0:0:0:0:
168,0,63268,1,0,0:0:0:0:
424,88,63285,1,0,0:0:0:0:
424,88,63285,1,0,0:0:0:0:
173,118,63317,2,0,P|134:270|224:400,1,325
173,118,63317,2,0,P|134:270|224:400,1,325
160,352,63318,1,0,0:0:0:0:
336,304,63335,1,0,0:0:0:0:
336,304,63335,1,0,0:0:0:0:
280,272,63335,1,0,0:0:0:0:
280,272,63335,1,0,0:0:0:0:
376,264,63368,1,0,0:0:0:0:
192,280,63385,1,0,0:0:0:0:
192,280,63385,1,0,0:0:0:0:
240,64,63385,1,0,0:0:0:0:
240,64,63385,1,0,0:0:0:0:
248,224,63417,1,0,0:0:0:0:
248,224,63417,1,0,0:0:0:0:
192,104,63418,1,0,0:0:0:0:
376,120,63435,1,0,0:0:0:0:
376,120,63435,1,0,0:0:0:0:
416,368,63435,1,0,0:0:0:0:
416,368,63435,1,0,0:0:0:0:
359,97,63451,2,0,B|328:304|360:80,3,216.666666666667
359,97,63451,2,0,B|328:304|360:80,3,216.666666666667
336,80,63468,1,0,0:0:0:0:
160,32,63485,1,0,0:0:0:0:
160,32,63485,1,0,0:0:0:0:
448,176,63485,1,0,0:0:0:0:
448,176,63485,1,0,0:0:0:0:
372,351,63517,2,0,B|-8:304|248:136|208:24|208:24|488:160|216:144,1,800
372,351,63517,2,0,B|-8:304|248:136|208:24|208:24|488:160|216:144,1,800
168,416,63535,1,0,0:0:0:0:
168,416,63535,1,0,0:0:0:0:
304,192,63535,1,0,0:0:0:0:
304,192,63535,1,0,0:0:0:0:
188,132,63551,2,0,B|368:192|256:136,1,162.5
188,132,63551,2,0,B|368:192|256:136,1,162.5
400,400,63585,1,0,0:0:0:0:
400,400,63585,1,0,0:0:0:0:
80,336,63585,1,0,0:0:0:0:
80,336,63585,1,0,0:0:0:0:
112,208,63635,1,0,0:0:0:0:
112,208,63635,1,0,0:0:0:0:
96,48,63635,1,0,0:0:0:0:
96,48,63635,1,0,0:0:0:0:
173,118,63650,2,0,P|134:270|224:400,1,325
173,118,63650,2,0,P|134:270|224:400,1,325
336,304,63668,1,0,0:0:0:0:
336,304,63668,1,0,0:0:0:0:
360,24,63685,1,0,0:0:0:0:
360,24,63685,1,0,0:0:0:0:
432,296,63685,1,0,0:0:0:0:
432,296,63685,1,0,0:0:0:0:
192,280,63718,1,0,0:0:0:0:
192,280,63718,1,0,0:0:0:0:
176,168,63735,1,0,0:0:0:0:
176,168,63735,1,0,0:0:0:0:
184,320,63735,1,0,0:0:0:0:
184,320,63735,1,0,0:0:0:0:
248,224,63750,1,0,0:0:0:0:
248,224,63750,1,0,0:0:0:0:
376,120,63768,1,0,0:0:0:0:
376,120,63768,1,0,0:0:0:0:
384,208,63785,1,0,0:0:0:0:
384,208,63785,1,0,0:0:0:0:
224,96,63785,1,0,0:0:0:0:
224,96,63785,1,0,0:0:0:0:
344,196,63817,2,0,P|265:102|144:128,1,260,8|6,0:0|0:0,0:0:0:0:
344,196,63817,2,0,P|265:102|144:128,1,260,8|6,0:0|0:0,0:0:0:0:
160,32,63818,1,0,0:0:0:0:
160,32,63818,1,0,0:0:0:0:
80,32,63835,1,0,0:0:0:0:
80,32,63835,1,0,0:0:0:0:
296,272,63835,1,0,0:0:0:0:
296,272,63835,1,0,0:0:0:0:
350,88,63851,2,0,B|144:120|368:88,3,216.666666666667
350,88,63851,2,0,B|144:120|368:88,3,216.666666666667
256,192,63851,8,8,64051,0:0:0:0:
256,192,63851,8,8,64051,0:0:0:0:
168,416,63868,5,0,0:0:0:0:
168,416,63868,1,0,0:0:0:0:
272,0,63885,1,0,0:0:0:0:
272,0,63885,1,0,0:0:0:0:
104,184,63885,1,0,0:0:0:0:
104,184,63885,1,0,0:0:0:0:
96,75,63917,2,0,B|144:456|312:200|424:240|424:240|288:-40|304:232,1,800
96,75,63917,2,0,B|144:456|312:200|424:240|424:240|288:-40|304:232,1,800
400,400,63918,1,0,0:0:0:0:
400,400,63918,1,0,0:0:0:0:
256,192,63934,8,0,64834,0:0:0:0:
256,192,63934,8,0,64834,0:0:0:0:
256,144,63935,5,0,0:0:0:0:
256,144,63935,1,0,0:0:0:0:
296,136,63935,1,0,0:0:0:0:
296,136,63935,1,0,0:0:0:0:
112,208,63968,1,0,0:0:0:0:
112,208,63968,1,0,0:0:0:0:
112,368,63985,1,0,0:0:0:0:
112,368,63985,1,0,0:0:0:0:
168,304,63985,1,0,0:0:0:0:
168,304,63985,1,0,0:0:0:0:
360,24,64018,1,0,0:0:0:0:
360,24,64018,1,0,0:0:0:0:
188,132,64018,2,0,B|368:192|256:136,1,162.5
400,352,64035,1,0,0:0:0:0:
400,352,64035,1,0,0:0:0:0:
424,64,64035,1,0,0:0:0:0:
424,64,64035,1,0,0:0:0:0:
176,168,64068,1,0,0:0:0:0:
176,168,64068,1,0,0:0:0:0:
152,16,64085,1,0,0:0:0:0:
152,16,64085,1,0,0:0:0:0:
464,240,64085,1,0,0:0:0:0:
464,240,64085,1,0,0:0:0:0:
384,208,64118,1,0,0:0:0:0:
384,208,64118,1,0,0:0:0:0:
128,264,64135,1,0,0:0:0:0:
128,264,64135,1,0,0:0:0:0:
256,176,64135,1,0,0:0:0:0:
256,176,64135,1,0,0:0:0:0:
80,32,64168,1,0,0:0:0:0:
80,32,64168,1,0,0:0:0:0:
350,88,64184,2,0,B|144:120|368:88,3,216.666666666667
350,88,64184,2,0,B|144:120|368:88,3,216.666666666667
352,224,64185,1,0,0:0:0:0:
352,224,64185,1,0,0:0:0:0:
464,136,64185,1,0,0:0:0:0:
464,136,64185,1,0,0:0:0:0:
251,103,64217,2,0,P|345:182|320:304,1,260,8|6,0:0|0:0,0:0:0:0:
251,103,64217,2,0,P|345:182|320:304,1,260,8|6,0:0|0:0,0:0:0:0:
272,0,64218,1,0,0:0:0:0:
272,0,64218,1,0,0:0:0:0:
176,152,64235,1,0,0:0:0:0:
176,152,64235,1,0,0:0:0:0:
352,296,64235,1,0,0:0:0:0:
352,296,64235,1,0,0:0:0:0:
256,192,64251,8,8,64451,0:0:0:0:
256,192,64251,8,8,64451,0:0:0:0:
256,192,64267,8,0,65167,0:0:0:0:
256,192,64267,8,0,65167,0:0:0:0:
256,144,64268,5,0,0:0:0:0:
256,144,64268,1,0,0:0:0:0:
264,344,64285,1,0,0:0:0:0:
264,344,64285,1,0,0:0:0:0:
112,368,64318,1,0,0:0:0:0:
112,368,64318,1,0,0:0:0:0:
312,152,64335,1,0,0:0:0:0:
312,152,64335,1,0,0:0:0:0:
400,352,64368,1,0,0:0:0:0:
400,352,64368,1,0,0:0:0:0:
96,75,64384,2,0,B|144:456|312:200|424:240|424:240|288:-40|304:232,1,800
144,280,64385,1,0,0:0:0:0:
144,280,64385,1,0,0:0:0:0:
128,56,64385,1,0,0:0:0:0:
128,56,64385,1,0,0:0:0:0:
152,16,64418,1,0,0:0:0:0:
152,16,64418,1,0,0:0:0:0:
384,24,64435,1,0,0:0:0:0:
384,24,64435,1,0,0:0:0:0:
117,72,64435,1,0,0:0:0:0:
117,72,64435,1,0,0:0:0:0:
128,264,64468,1,0,0:0:0:0:
128,264,64468,1,0,0:0:0:0:
208,0,64485,1,0,0:0:0:0:
208,0,64485,1,0,0:0:0:0:
108,90,64485,1,0,0:0:0:0:
108,90,64485,1,0,0:0:0:0:
352,224,64518,1,0,0:0:0:0:
352,224,64518,1,0,0:0:0:0:
272,192,64535,1,0,0:0:0:0:
272,192,64535,1,0,0:0:0:0:
102,109,64535,1,0,0:0:0:0:
102,109,64535,1,0,0:0:0:0:
251,103,64550,2,0,P|345:182|320:304,1,260,8|6,0:0|0:0,0:0:0:0:
251,103,64550,2,0,P|345:182|320:304,1,260,8|6,0:0|0:0,0:0:0:0:
208,168,64552,1,8,0:0:0:0:
208,168,64552,1,8,0:0:0:0:
176,152,64568,1,0,0:0:0:0:
176,152,64568,1,0,0:0:0:0:
256,192,64584,8,8,64784,0:0:0:0:
256,192,64584,8,8,64784,0:0:0:0:
312,0,64585,5,0,0:0:0:0:
312,0,64585,1,0,0:0:0:0:
98,128,64585,1,0,0:0:0:0:
98,128,64585,1,0,0:0:0:0:
264,344,64618,1,0,0:0:0:0:
264,344,64618,1,0,0:0:0:0:
152,96,64635,1,0,0:0:0:0:
152,96,64635,1,0,0:0:0:0:
96,148,64635,1,0,0:0:0:0:
96,148,64635,1,0,0:0:0:0:
256,192,64667,8,0,65567,0:0:0:0:
256,192,64667,8,0,65567,0:0:0:0:
312,152,64668,5,0,0:0:0:0:
312,152,64668,1,0,0:0:0:0:
96,168,64685,1,0,0:0:0:0:
96,168,64685,1,0,0:0:0:0:
144,280,64718,1,0,0:0:0:0:
144,280,64718,1,0,0:0:0:0:
99,187,64735,1,0,0:0:0:0:
99,187,64735,1,0,0:0:0:0:
384,24,64768,1,0,0:0:0:0:
384,24,64768,1,0,0:0:0:0:
392,320,64785,1,0,0:0:0:0:
392,320,64785,1,0,0:0:0:0:
104,207,64785,1,0,0:0:0:0:
104,207,64785,1,0,0:0:0:0:
208,0,64818,1,0,0:0:0:0:
208,0,64818,1,0,0:0:0:0:
376,331,64835,1,0,0:0:0:0:
376,331,64835,1,0,0:0:0:0:
111,225,64835,1,0,0:0:0:0:
111,225,64835,1,0,0:0:0:0:
272,192,64868,1,0,0:0:0:0:
272,192,64868,1,0,0:0:0:0:
208,168,64885,1,8,0:0:0:0:
208,168,64885,1,8,0:0:0:0:
358,340,64885,1,0,0:0:0:0:
358,340,64885,1,0,0:0:0:0:
121,243,64885,1,0,0:0:0:0:
121,243,64885,1,0,0:0:0:0:
312,0,64918,1,0,0:0:0:0:
312,0,64918,1,0,0:0:0:0:
339,346,64935,1,0,0:0:0:0:
339,346,64935,1,0,0:0:0:0:
132,259,64935,1,0,0:0:0:0:
132,259,64935,1,0,0:0:0:0:
288,120,64951,1,0,0:0:0:0:
288,120,64951,1,0,0:0:0:0:
256,192,64952,12,0,65185,0:0:0:0:
256,192,64952,12,0,65185,0:0:0:0:
152,96,64968,5,0,0:0:0:0:
152,96,64968,1,0,0:0:0:0:
352,56,64976,1,0,0:0:0:0:
352,56,64976,1,0,0:0:0:0:
320,350,64985,1,0,0:0:0:0:
320,350,64985,1,0,0:0:0:0:
145,274,64985,1,0,0:0:0:0:
145,274,64985,1,0,0:0:0:0:
416,136,65001,1,0,0:0:0:0:
416,136,65001,1,0,0:0:0:0:
300,352,65035,1,0,0:0:0:0:
300,352,65035,1,0,0:0:0:0:
159,287,65035,1,0,0:0:0:0:
159,287,65035,1,0,0:0:0:0:
392,96,65051,1,0,0:0:0:0:
392,96,65051,1,0,0:0:0:0:
432,184,65076,1,0,0:0:0:0:
432,184,65076,1,0,0:0:0:0:
280,352,65085,1,0,0:0:0:0:
280,352,65085,1,0,0:0:0:0:
176,299,65085,1,0,0:0:0:0:
176,299,65085,1,0,0:0:0:0:
440,224,65101,1,0,0:0:0:0:
440,224,65101,1,0,0:0:0:0:
392,320,65118,1,0,0:0:0:0:
392,320,65118,1,0,0:0:0:0:
432,288,65126,1,0,0:0:0:0:
432,288,65126,1,0,0:0:0:0:
256,192,65134,8,0,66034,0:0:0:0:
261,349,65135,5,0,0:0:0:0:
261,349,65135,1,0,0:0:0:0:
193,308,65135,1,0,0:0:0:0:
193,308,65135,1,0,0:0:0:0:
408,320,65151,1,0,0:0:0:0:
408,320,65151,1,0,0:0:0:0:
376,331,65168,1,0,0:0:0:0:
376,331,65168,1,0,0:0:0:0:
384,344,65176,1,0,0:0:0:0:
384,344,65176,1,0,0:0:0:0:
256,192,65185,12,0,65218,0:0:0:0:
256,192,65185,12,0,65218,0:0:0:0:
211,316,65185,5,0,0:0:0:0:
241,344,65185,1,0,0:0:0:0:
241,344,65185,1,0,0:0:0:0:
211,316,65185,1,0,0:0:0:0:
344,360,65201,1,0,0:0:0:0:
344,360,65201,1,0,0:0:0:0:
358,340,65218,1,0,0:0:0:0:
358,340,65218,1,0,0:0:0:0:
288,360,65226,1,0,0:0:0:0:
288,360,65226,1,0,0:0:0:0:
223,337,65235,1,0,0:0:0:0:
223,337,65235,1,0,0:0:0:0:
230,321,65235,1,0,0:0:0:0:
230,321,65235,1,0,0:0:0:0:
224,352,65251,1,0,0:0:0:0:
224,352,65251,1,0,0:0:0:0:
339,346,65268,1,0,0:0:0:0:
339,346,65268,1,0,0:0:0:0:
128,344,65276,1,0,0:0:0:0:
128,344,65276,1,0,0:0:0:0:
256,192,65285,12,0,65518,0:0:0:0:
256,192,65285,12,0,65518,0:0:0:0:
280,240,65285,5,8,0:0:0:0:
280,240,65285,1,8,0:0:0:0:
205,327,65285,1,0,0:0:0:0:
205,327,65285,1,0,0:0:0:0:
250,324,65285,1,0,0:0:0:0:
250,324,65285,1,0,0:0:0:0:
112,280,65301,1,0,0:0:0:0:
112,280,65301,1,0,0:0:0:0:
320,350,65318,1,0,0:0:0:0:
320,350,65318,1,0,0:0:0:0:
112,168,65326,1,0,0:0:0:0:
112,168,65326,1,0,0:0:0:0:
189,316,65335,1,0,0:0:0:0:
189,316,65335,1,0,0:0:0:0:
270,325,65335,1,0,0:0:0:0:
270,325,65335,1,0,0:0:0:0:
328,160,65351,1,0,0:0:0:0:
328,160,65351,1,0,0:0:0:0:
128,96,65351,1,0,0:0:0:0:
128,96,65351,1,0,0:0:0:0:
300,352,65368,1,0,0:0:0:0:
300,352,65368,1,0,0:0:0:0:
392,96,65376,1,0,0:0:0:0:
392,96,65376,1,0,0:0:0:0:
176,168,65376,1,0,0:0:0:0:
176,168,65376,1,0,0:0:0:0:
174,303,65385,1,0,0:0:0:0:
174,303,65385,1,0,0:0:0:0:
289,323,65385,1,0,0:0:0:0:
289,323,65385,1,0,0:0:0:0:
312,32,65401,1,0,0:0:0:0:
312,32,65401,1,0,0:0:0:0:
240,256,65401,1,0,0:0:0:0:
240,256,65401,1,0,0:0:0:0:
280,200,65417,1,0,0:0:0:0:
280,200,65417,1,0,0:0:0:0:
280,352,65418,1,0,0:0:0:0:
280,352,65418,1,0,0:0:0:0:
288,280,65426,1,0,0:0:0:0:
288,280,65426,1,0,0:0:0:0:
161,289,65435,1,0,0:0:0:0:
161,289,65435,1,0,0:0:0:0:
309,320,65435,1,0,0:0:0:0:
309,320,65435,1,0,0:0:0:0:
352,56,65451,1,0,0:0:0:0:
352,56,65451,1,0,0:0:0:0:
360,280,65451,1,0,0:0:0:0:
360,280,65451,1,0,0:0:0:0:
261,349,65468,1,0,0:0:0:0:
261,349,65468,1,0,0:0:0:0:
264,16,65476,1,0,0:0:0:0:
264,16,65476,1,0,0:0:0:0:
384,240,65476,1,0,0:0:0:0:
384,240,65476,1,0,0:0:0:0:
168,280,65484,1,0,0:0:0:0:
168,280,65484,1,0,0:0:0:0:
149,272,65485,1,0,0:0:0:0:
149,272,65485,1,0,0:0:0:0:
328,314,65485,1,0,0:0:0:0:
328,314,65485,1,0,0:0:0:0:
224,8,65501,1,0,0:0:0:0:
224,8,65501,1,0,0:0:0:0:
376,200,65501,1,0,0:0:0:0:
376,200,65501,1,0,0:0:0:0:
256,192,65518,12,0,65551,0:0:0:0:
256,192,65518,12,0,65551,0:0:0:0:
241,344,65518,5,0,0:0:0:0:
241,344,65518,1,0,0:0:0:0:
160,16,65526,1,0,0:0:0:0:
160,16,65526,1,0,0:0:0:0:
344,96,65526,1,0,0:0:0:0:
344,96,65526,1,0,0:0:0:0:
140,255,65535,1,0,0:0:0:0:
140,255,65535,1,0,0:0:0:0:
346,305,65535,1,0,0:0:0:0:
346,305,65535,1,0,0:0:0:0:
128,40,65551,1,0,0:0:0:0:
128,40,65551,1,0,0:0:0:0:
448,224,65551,1,0,0:0:0:0:
224,96,65551,1,0,0:0:0:0:
224,96,65551,1,0,0:0:0:0:
448,224,65551,1,0,0:0:0:0:
223,337,65568,1,0,0:0:0:0:
223,337,65568,1,0,0:0:0:0:
104,64,65576,1,0,0:0:0:0:
104,64,65576,1,0,0:0:0:0:
128,88,65576,1,0,0:0:0:0:
128,88,65576,1,0,0:0:0:0:
132,237,65585,1,0,0:0:0:0:
132,237,65585,1,0,0:0:0:0:
363,295,65585,1,0,0:0:0:0:
363,295,65585,1,0,0:0:0:0:
88,104,65601,1,0,0:0:0:0:
88,104,65601,1,0,0:0:0:0:
400,56,65617,1,0,0:0:0:0:
400,56,65617,1,0,0:0:0:0:
205,327,65618,1,0,0:0:0:0:
205,327,65618,1,0,0:0:0:0:
96,128,65626,5,0,0:0:0:0:
96,128,65626,5,0,0:0:0:0:
88,160,65626,1,0,0:0:0:0:
88,160,65626,1,0,0:0:0:0:
127,218,65635,1,0,0:0:0:0:
127,218,65635,1,0,0:0:0:0:
378,283,65635,1,0,0:0:0:0:
378,283,65635,1,0,0:0:0:0:
240,296,65651,5,0,0:0:0:0:
240,296,65651,5,0,0:0:0:0:
96,224,65651,1,0,0:0:0:0:
96,224,65651,1,0,0:0:0:0:
189,316,65668,1,0,0:0:0:0:
189,316,65668,1,0,0:0:0:0:
104,320,65676,1,0,0:0:0:0:
104,320,65676,1,0,0:0:0:0:
184,288,65676,1,0,0:0:0:0:
184,288,65676,1,0,0:0:0:0:
328,160,65684,1,0,0:0:0:0:
328,160,65684,1,0,0:0:0:0:
128,272,65684,1,14,0:3:0:0:
128,272,65684,1,14,0:3:0:0:
192,80,65684,1,0,0:0:0:0:
192,80,65684,1,0,0:0:0:0:
256,192,65685,12,0,65918,0:0:0:0:
256,192,65685,12,0,65918,0:0:0:0:
124,198,65685,5,0,0:0:0:0:
124,198,65685,1,0,0:0:0:0:
393,269,65685,1,0,0:0:0:0:
393,269,65685,1,0,0:0:0:0:
168,336,65701,1,0,0:0:0:0:
168,336,65701,1,0,0:0:0:0:
400,216,65701,1,0,0:0:0:0:
400,216,65701,1,0,0:0:0:0:
392,96,65709,1,0,0:0:0:0:
392,96,65709,1,0,0:0:0:0:
174,303,65718,1,0,0:0:0:0:
174,303,65718,1,0,0:0:0:0:
280,336,65726,1,0,0:0:0:0:
280,336,65726,1,0,0:0:0:0:
400,128,65726,1,0,0:0:0:0:
400,128,65726,1,0,0:0:0:0:
312,32,65734,1,0,0:0:0:0:
312,32,65734,1,0,0:0:0:0:
304,120,65734,1,14,0:3:0:0:
304,120,65734,1,14,0:3:0:0:
123,178,65735,1,0,0:0:0:0:
123,178,65735,1,0,0:0:0:0:
405,254,65735,1,0,0:0:0:0:
405,254,65735,1,0,0:0:0:0:
352,320,65751,1,0,0:0:0:0:
352,320,65751,1,0,0:0:0:0:
256,344,65751,1,0,0:0:0:0:
392,96,65751,1,0,0:0:0:0:
392,96,65751,1,0,0:0:0:0:
256,344,65751,1,0,0:0:0:0:
280,240,65752,1,8,0:0:0:0:
161,289,65768,1,0,0:0:0:0:
161,289,65768,1,0,0:0:0:0:
280,272,65776,1,0,0:0:0:0:
280,272,65776,1,0,0:0:0:0:
304,48,65776,1,0,0:0:0:0:
304,48,65776,1,0,0:0:0:0:
352,56,65784,1,0,0:0:0:0:
352,56,65784,1,0,0:0:0:0:
72,160,65784,1,14,0:3:0:0:
72,160,65784,1,14,0:3:0:0:
125,159,65785,1,0,0:0:0:0:
125,159,65785,1,0,0:0:0:0:
416,237,65785,1,0,0:0:0:0:
416,237,65785,1,0,0:0:0:0:
192,208,65801,1,0,0:0:0:0:
192,208,65801,1,0,0:0:0:0:
240,48,65801,1,0,0:0:0:0:
240,48,65801,1,0,0:0:0:0:
264,16,65809,1,0,0:0:0:0:
264,16,65809,1,0,0:0:0:0:
248,168,65817,1,0,0:0:0:0:
248,168,65817,1,0,0:0:0:0:
424,152,65817,1,0,0:0:0:0:
424,152,65817,1,0,0:0:0:0:
149,272,65818,1,0,0:0:0:0:
149,272,65818,1,0,0:0:0:0:
168,160,65826,1,0,0:0:0:0:
168,160,65826,1,0,0:0:0:0:
200,48,65826,1,0,0:0:0:0:
200,48,65826,1,0,0:0:0:0:
224,8,65834,1,0,0:0:0:0:
224,8,65834,1,0,0:0:0:0:
264,264,65834,1,14,0:3:0:0:
264,264,65834,1,14,0:3:0:0:
128,139,65835,1,0,0:0:0:0:
128,139,65835,1,0,0:0:0:0:
424,219,65835,1,0,0:0:0:0:
424,219,65835,1,0,0:0:0:0:
168,88,65851,1,0,0:0:0:0:
168,88,65851,1,0,0:0:0:0:
168,80,65851,1,0,0:0:0:0:
168,80,65851,1,0,0:0:0:0:
160,16,65859,1,0,0:0:0:0:
160,16,65859,1,0,0:0:0:0:
140,255,65868,1,0,0:0:0:0:
140,255,65868,1,0,0:0:0:0:
208,64,65876,1,0,0:0:0:0:
208,64,65876,1,0,0:0:0:0:
160,128,65876,1,0,0:0:0:0:
160,128,65876,1,0,0:0:0:0:
128,40,65884,1,0,0:0:0:0:
128,40,65884,1,0,0:0:0:0:
176,80,65884,1,14,0:3:0:0:
168,280,65884,1,0,0:0:0:0:
168,280,65884,1,0,0:0:0:0:
176,80,65884,1,14,0:3:0:0:
80,152,65884,1,0,0:0:0:0:
80,152,65884,1,0,0:0:0:0:
134,120,65885,1,0,0:0:0:0:
134,120,65885,1,0,0:0:0:0:
431,201,65885,1,0,0:0:0:0:
431,201,65885,1,0,0:0:0:0:
248,72,65901,1,0,0:0:0:0:
248,72,65901,1,0,0:0:0:0:
160,184,65901,1,0,0:0:0:0:
160,184,65901,1,0,0:0:0:0:
104,64,65909,1,0,0:0:0:0:
104,64,65909,1,0,0:0:0:0:
256,192,65918,12,0,65951,0:0:0:0:
256,192,65918,12,0,65951,0:0:0:0:
132,237,65918,5,0,0:0:0:0:
132,237,65918,1,0,0:0:0:0:
352,104,65926,1,0,0:0:0:0:
352,104,65926,1,0,0:0:0:0:
176,232,65926,1,0,0:0:0:0:
176,232,65926,1,0,0:0:0:0:
88,104,65934,1,0,0:0:0:0:
88,104,65934,1,0,0:0:0:0:
272,272,65934,1,14,0:3:0:0:
272,272,65934,1,14,0:3:0:0:
143,102,65935,1,0,0:0:0:0:
143,102,65935,1,0,0:0:0:0:
435,181,65935,1,0,0:0:0:0:
435,181,65935,1,0,0:0:0:0:
224,0,65951,1,0,0:0:0:0:
352,224,65951,1,0,0:0:0:0:
352,224,65951,1,0,0:0:0:0:
224,0,65951,1,0,0:0:0:0:
344,368,65951,1,0,0:0:0:0:
192,272,65951,1,0,0:0:0:0:
192,272,65951,1,0,0:0:0:0:
344,368,65951,1,0,0:0:0:0:
88,160,65959,1,0,0:0:0:0:
88,160,65959,1,0,0:0:0:0:
127,218,65968,1,0,0:0:0:0:
127,218,65968,1,0,0:0:0:0:
360,320,65976,1,0,0:0:0:0:
360,320,65976,1,0,0:0:0:0:
248,208,65976,1,0,0:0:0:0:
248,208,65976,1,0,0:0:0:0:
96,224,65984,1,0,0:0:0:0:
96,224,65984,1,0,0:0:0:0:
448,120,65984,1,14,0:3:0:0:
448,120,65984,1,14,0:3:0:0:
153,85,65985,1,0,0:0:0:0:
153,85,65985,1,0,0:0:0:0:
437,161,65985,1,0,0:0:0:0:
437,161,65985,1,0,0:0:0:0:
264,112,66001,1,0,0:0:0:0:
264,112,66001,1,0,0:0:0:0:
104,320,66009,1,0,0:0:0:0:
104,320,66009,1,0,0:0:0:0:
128,272,66017,1,14,0:3:0:0:
128,272,66017,1,14,0:3:0:0:
392,48,66017,1,0,0:0:0:0:
392,48,66017,1,0,0:0:0:0:
296,136,66017,1,0,0:0:0:0:
296,136,66017,1,0,0:0:0:0:
124,198,66018,1,0,0:0:0:0:
124,198,66018,1,0,0:0:0:0:
320,352,66026,5,0,0:0:0:0:
320,352,66026,5,0,0:0:0:0:
320,88,66026,1,0,0:0:0:0:
320,88,66026,1,0,0:0:0:0:
168,336,66034,1,0,0:0:0:0:
168,336,66034,1,0,0:0:0:0:
160,240,66034,1,14,0:3:0:0:
160,240,66034,1,14,0:3:0:0:
165,70,66035,1,0,0:0:0:0:
165,70,66035,1,0,0:0:0:0:
437,142,66035,1,0,0:0:0:0:
437,142,66035,1,0,0:0:0:0:
152,208,66051,5,0,0:0:0:0:
152,208,66051,5,0,0:0:0:0:
352,136,66051,1,0,0:0:0:0:
352,136,66051,1,0,0:0:0:0:
280,336,66059,1,0,0:0:0:0:
280,336,66059,1,0,0:0:0:0:
304,120,66067,1,14,0:3:0:0:
304,120,66067,1,14,0:3:0:0:
123,178,66068,1,0,0:0:0:0:
123,178,66068,1,0,0:0:0:0:
160,264,66076,1,0,0:0:0:0:
160,264,66076,1,0,0:0:0:0:
384,168,66076,1,0,0:0:0:0:
384,168,66076,1,0,0:0:0:0:
352,320,66084,1,0,0:0:0:0:
352,320,66084,1,0,0:0:0:0:
408,264,66084,1,14,0:3:0:0:
368,256,66084,1,0,0:0:0:0:
368,256,66084,1,0,0:0:0:0:
408,264,66084,1,14,0:3:0:0:
144,344,66084,1,0,0:0:0:0:
144,344,66084,1,0,0:0:0:0:
179,55,66085,1,0,0:0:0:0:
179,55,66085,1,0,0:0:0:0:
434,122,66085,1,0,0:0:0:0:
434,122,66085,1,0,0:0:0:0:
232,48,66101,1,0,0:0:0:0:
232,48,66101,1,0,0:0:0:0:
416,216,66101,1,0,0:0:0:0:
416,216,66101,1,0,0:0:0:0:
280,272,66109,1,0,0:0:0:0:
280,272,66109,1,0,0:0:0:0:
72,160,66117,1,14,0:3:0:0:
72,160,66117,1,14,0:3:0:0:
125,159,66118,1,0,0:0:0:0:
125,159,66118,1,0,0:0:0:0:
320,48,66126,1,0,0:0:0:0:
320,48,66126,1,0,0:0:0:0:
416,248,66126,1,0,0:0:0:0:
416,248,66126,1,0,0:0:0:0:
192,208,66134,1,0,0:0:0:0:
192,208,66134,1,0,0:0:0:0:
320,80,66134,1,14,0:3:0:0:
320,80,66134,1,14,0:3:0:0:
194,43,66135,1,0,0:0:0:0:
194,43,66135,1,0,0:0:0:0:
429,103,66135,1,0,0:0:0:0:
429,103,66135,1,0,0:0:0:0:
248,168,66150,1,0,0:0:0:0:
248,168,66150,1,0,0:0:0:0:
104,192,66151,1,0,0:0:0:0:
352,56,66151,1,0,0:0:0:0:
352,56,66151,1,0,0:0:0:0:
104,192,66151,1,0,0:0:0:0:
392,160,66151,1,0,0:0:0:0:
424,280,66151,1,0,0:0:0:0:
424,280,66151,1,0,0:0:0:0:
392,160,66151,1,0,0:0:0:0:
256,192,66152,12,0,66385,0:0:0:0:
168,160,66159,5,0,0:0:0:0:
168,160,66159,1,0,0:0:0:0:
264,264,66167,1,14,0:3:0:0:
264,264,66167,1,14,0:3:0:0:
128,139,66168,1,0,0:0:0:0:
128,139,66168,1,0,0:0:0:0:
400,144,66176,1,0,0:0:0:0:
400,144,66176,1,0,0:0:0:0:
400,312,66176,1,0,0:0:0:0:
400,312,66176,1,0,0:0:0:0:
168,88,66184,1,0,0:0:0:0:
168,88,66184,1,0,0:0:0:0:
272,272,66184,1,14,0:3:0:0:
272,272,66184,1,14,0:3:0:0:
211,32,66185,1,0,0:0:0:0:
211,32,66185,1,0,0:0:0:0:
422,84,66185,1,0,0:0:0:0:
422,84,66185,1,0,0:0:0:0:
400,208,66201,1,0,0:0:0:0:
400,208,66201,1,0,0:0:0:0:
336,320,66201,1,0,0:0:0:0:
336,320,66201,1,0,0:0:0:0:
208,64,66209,1,0,0:0:0:0:
208,64,66209,1,0,0:0:0:0:
176,80,66217,1,14,0:3:0:0:
168,280,66217,1,0,0:0:0:0:
168,280,66217,1,0,0:0:0:0:
176,80,66217,1,14,0:3:0:0:
296,24,66217,1,0,0:0:0:0:
296,24,66217,1,0,0:0:0:0:
160,56,66217,1,0,0:0:0:0:
160,56,66217,1,0,0:0:0:0:
134,120,66218,1,0,0:0:0:0:
134,120,66218,1,0,0:0:0:0:
400,248,66226,1,0,0:0:0:0:
400,248,66226,1,0,0:0:0:0:
248,72,66234,1,0,0:0:0:0:
248,72,66234,1,0,0:0:0:0:
448,120,66234,1,14,0:3:0:0:
448,120,66234,1,14,0:3:0:0:
229,24,66235,1,0,0:0:0:0:
229,24,66235,1,0,0:0:0:0:
413,67,66235,1,0,0:0:0:0:
413,67,66235,1,0,0:0:0:0:
368,280,66251,1,0,0:0:0:0:
368,280,66251,1,0,0:0:0:0:
368,320,66251,1,0,0:0:0:0:
368,320,66251,1,0,0:0:0:0:
352,104,66259,1,0,0:0:0:0:
352,104,66259,1,0,0:0:0:0:
272,272,66267,1,14,0:3:0:0:
272,272,66267,1,14,0:3:0:0:
143,102,66268,1,0,0:0:0:0:
143,102,66268,1,0,0:0:0:0:
320,288,66276,1,0,0:0:0:0:
320,288,66276,1,0,0:0:0:0:
288,320,66276,1,0,0:0:0:0:
288,320,66276,1,0,0:0:0:0:
224,0,66284,1,0,0:0:0:0:
352,224,66284,1,0,0:0:0:0:
352,224,66284,1,0,0:0:0:0:
224,0,66284,1,0,0:0:0:0:
216,160,66284,1,14,0:3:0:0:
296,368,66284,1,0,0:0:0:0:
296,368,66284,1,0,0:0:0:0:
216,160,66284,1,14,0:3:0:0:
416,320,66284,1,0,0:0:0:0:
416,320,66284,1,0,0:0:0:0:
247,17,66285,1,0,0:0:0:0:
247,17,66285,1,0,0:0:0:0:
264,288,66301,1,0,0:0:0:0:
264,288,66301,1,0,0:0:0:0:
240,328,66301,1,0,0:0:0:0:
240,328,66301,1,0,0:0:0:0:
360,320,66309,1,0,0:0:0:0:
360,320,66309,1,0,0:0:0:0:
448,120,66317,1,14,0:3:0:0:
448,120,66317,1,14,0:3:0:0:
153,85,66318,1,0,0:0:0:0:
153,85,66318,1,0,0:0:0:0:
216,272,66326,1,0,0:0:0:0:
216,272,66326,1,0,0:0:0:0:
224,344,66326,1,0,0:0:0:0:
224,344,66326,1,0,0:0:0:0:
408,264,66334,1,14,0:3:0:0:
408,264,66334,1,14,0:3:0:0:
267,13,66335,1,0,0:0:0:0:
267,13,66335,1,0,0:0:0:0:
392,48,66350,1,0,0:0:0:0:
392,48,66350,1,0,0:0:0:0:
80,104,66351,1,0,0:0:0:0:
176,256,66351,1,0,0:0:0:0:
176,256,66351,1,0,0:0:0:0:
80,104,66351,1,0,0:0:0:0:
432,48,66351,1,0,0:0:0:0:
176,344,66351,1,0,0:0:0:0:
176,344,66351,1,0,0:0:0:0:
432,48,66351,1,0,0:0:0:0:
320,352,66359,5,0,0:0:0:0:
320,352,66359,5,0,0:0:0:0:
160,240,66367,1,14,0:3:0:0:
160,240,66367,1,14,0:3:0:0:
165,70,66368,1,0,0:0:0:0:
165,70,66368,1,0,0:0:0:0:
240,200,66376,1,0,0:0:0:0:
240,200,66376,1,0,0:0:0:0:
144,352,66376,1,0,0:0:0:0:
144,352,66376,1,0,0:0:0:0:
152,208,66384,5,0,0:0:0:0:
152,208,66384,5,0,0:0:0:0:
320,80,66384,1,14,0:3:0:0:
320,80,66384,1,14,0:3:0:0:
256,192,66385,12,0,66418,0:0:0:0:
287,11,66385,5,0,0:0:0:0:
287,11,66385,1,0,0:0:0:0:
336,184,66401,1,0,0:0:0:0:
336,184,66401,1,0,0:0:0:0:
96,328,66401,1,0,0:0:0:0:
96,328,66401,1,0,0:0:0:0:
160,264,66409,1,0,0:0:0:0:
160,264,66409,1,0,0:0:0:0:
176,320,66417,1,14,0:3:0:0:
176,320,66417,1,14,0:3:0:0:
408,264,66417,1,14,0:3:0:0:
368,256,66417,1,0,0:0:0:0:
368,256,66417,1,0,0:0:0:0:
408,264,66417,1,14,0:3:0:0:
312,152,66417,1,0,0:0:0:0:
312,152,66417,1,0,0:0:0:0:
80,40,66417,1,0,0:0:0:0:
80,40,66417,1,0,0:0:0:0:
179,55,66418,1,0,0:0:0:0:
179,55,66418,1,0,0:0:0:0:
360,128,66426,1,0,0:0:0:0:
360,128,66426,1,0,0:0:0:0:
112,280,66426,1,0,0:0:0:0:
112,280,66426,1,0,0:0:0:0:
232,48,66434,1,0,0:0:0:0:
232,48,66434,1,0,0:0:0:0:
306,11,66435,1,0,0:0:0:0:
306,11,66435,1,0,0:0:0:0:
312,96,66451,1,0,0:0:0:0:
312,96,66451,1,0,0:0:0:0:
96,232,66451,1,0,0:0:0:0:
96,232,66451,1,0,0:0:0:0:
320,48,66459,1,0,0:0:0:0:
320,48,66459,1,0,0:0:0:0:
328,144,66467,1,14,0:3:0:0:
328,144,66467,1,14,0:3:0:0:
320,80,66467,1,14,0:3:0:0:
320,80,66467,1,14,0:3:0:0:
194,43,66468,1,0,0:0:0:0:
194,43,66468,1,0,0:0:0:0:
280,64,66476,1,0,0:0:0:0:
280,64,66476,1,0,0:0:0:0:
104,176,66476,1,0,0:0:0:0:
104,176,66476,1,0,0:0:0:0:
104,192,66484,1,0,0:0:0:0:
352,56,66484,1,0,0:0:0:0:
352,56,66484,1,0,0:0:0:0:
104,192,66484,1,0,0:0:0:0:
104,304,66484,1,0,0:0:0:0:
104,304,66484,1,0,0:0:0:0:
248,288,66484,1,0,0:0:0:0:
248,288,66484,1,0,0:0:0:0:
326,14,66485,1,0,0:0:0:0:
326,14,66485,1,0,0:0:0:0:
232,32,66501,1,0,0:0:0:0:
232,32,66501,1,0,0:0:0:0:
128,136,66501,1,0,0:0:0:0:
128,136,66501,1,0,0:0:0:0:
400,144,66509,1,0,0:0:0:0:
400,144,66509,1,0,0:0:0:0:
288,376,66517,1,14,0:3:0:0:
288,376,66517,1,14,0:3:0:0:
272,272,66517,1,14,0:3:0:0:
272,272,66517,1,14,0:3:0:0:
211,32,66518,1,0,0:0:0:0:
211,32,66518,1,0,0:0:0:0:
200,32,66526,1,0,0:0:0:0:
200,32,66526,1,0,0:0:0:0:
160,104,66526,1,0,0:0:0:0:
160,104,66526,1,0,0:0:0:0:
400,208,66534,1,0,0:0:0:0:
400,208,66534,1,0,0:0:0:0:
345,19,66535,1,0,0:0:0:0:
345,19,66535,1,0,0:0:0:0:
296,24,66550,1,0,0:0:0:0:
296,24,66550,1,0,0:0:0:0:
288,56,66551,1,0,0:0:0:0:
168,24,66551,1,0,0:0:0:0:
168,24,66551,1,0,0:0:0:0:
288,56,66551,1,0,0:0:0:0:
352,104,66551,1,0,0:0:0:0:
208,64,66551,1,0,0:0:0:0:
208,64,66551,1,0,0:0:0:0:
352,104,66551,1,0,0:0:0:0:
400,248,66559,1,0,0:0:0:0:
400,248,66559,1,0,0:0:0:0:
184,184,66567,1,14,0:3:0:0:
184,184,66567,1,14,0:3:0:0:
448,120,66567,1,14,0:3:0:0:
448,120,66567,1,14,0:3:0:0:
229,24,66568,1,0,0:0:0:0:
229,24,66568,1,0,0:0:0:0:
136,48,66576,1,0,0:0:0:0:
136,48,66576,1,0,0:0:0:0:
288,48,66576,1,0,0:0:0:0:
288,48,66576,1,0,0:0:0:0:
368,280,66584,1,0,0:0:0:0:
368,280,66584,1,0,0:0:0:0:
80,208,66584,1,14,0:3:0:0:
80,208,66584,1,14,0:3:0:0:
364,26,66585,1,0,0:0:0:0:
364,26,66585,1,0,0:0:0:0:
128,112,66601,1,0,0:0:0:0:
128,112,66601,1,0,0:0:0:0:
344,56,66601,1,0,0:0:0:0:
344,56,66601,1,0,0:0:0:0:
320,288,66609,1,0,0:0:0:0:
320,288,66609,1,0,0:0:0:0:
368,272,66617,1,14,0:3:0:0:
368,272,66617,1,14,0:3:0:0:
216,160,66617,1,14,0:3:0:0:
296,368,66617,1,0,0:0:0:0:
296,368,66617,1,0,0:0:0:0:
216,160,66617,1,14,0:3:0:0:
392,288,66617,1,0,0:0:0:0:
392,288,66617,1,0,0:0:0:0:
184,112,66617,1,0,0:0:0:0:
184,112,66617,1,0,0:0:0:0:
400,328,66618,5,14,0:3:0:0:
400,328,66618,5,14,0:3:0:0:
247,17,66618,1,0,0:0:0:0:
247,17,66618,1,0,0:0:0:0:
384,64,66626,1,0,0:0:0:0:
384,64,66626,1,0,0:0:0:0:
264,288,66634,1,0,0:0:0:0:
264,288,66634,1,0,0:0:0:0:
381,35,66635,1,0,0:0:0:0:
381,35,66635,1,0,0:0:0:0:
128,80,66651,1,0,0:0:0:0:
128,80,66651,1,0,0:0:0:0:
408,80,66651,1,0,0:0:0:0:
408,80,66651,1,0,0:0:0:0:
216,272,66659,1,0,0:0:0:0:
216,272,66659,1,0,0:0:0:0:
176,176,66667,1,14,0:3:0:0:
176,176,66667,1,14,0:3:0:0:
408,264,66667,1,14,0:3:0:0:
408,264,66667,1,14,0:3:0:0:
267,13,66668,1,0,0:0:0:0:
267,13,66668,1,0,0:0:0:0:
128,160,66676,1,0,0:0:0:0:
128,160,66676,1,0,0:0:0:0:
80,104,66684,1,0,0:0:0:0:
176,256,66684,1,0,0:0:0:0:
176,256,66684,1,0,0:0:0:0:
80,104,66684,1,0,0:0:0:0:
208,80,66684,1,14,0:3:0:0:
128,32,66684,1,0,0:0:0:0:
128,32,66684,1,0,0:0:0:0:
208,80,66684,1,14,0:3:0:0:
120,208,66701,1,0,0:0:0:0:
120,208,66701,1,0,0:0:0:0:
240,200,66709,1,0,0:0:0:0:
240,200,66709,1,0,0:0:0:0:
328,0,66717,1,14,0:3:0:0:
328,0,66717,1,14,0:3:0:0:
320,80,66717,1,14,0:3:0:0:
320,80,66717,1,14,0:3:0:0:
287,11,66718,1,0,0:0:0:0:
287,11,66718,1,0,0:0:0:0:
264,240,66718,1,14,0:3:0:0:
264,240,66718,1,14,0:3:0:0:
104,224,66726,1,0,0:0:0:0:
104,224,66726,1,0,0:0:0:0:
336,184,66734,1,0,0:0:0:0:
336,184,66734,1,0,0:0:0:0:
312,152,66750,1,0,0:0:0:0:
312,152,66750,1,0,0:0:0:0:
400,16,66751,1,0,0:0:0:0:
104,272,66751,1,0,0:0:0:0:
104,272,66751,1,0,0:0:0:0:
400,16,66751,1,0,0:0:0:0:
360,128,66759,1,0,0:0:0:0:
360,128,66759,1,0,0:0:0:0:
208,288,66767,1,14,0:3:0:0:
208,288,66767,1,14,0:3:0:0:
306,11,66768,1,0,0:0:0:0:
306,11,66768,1,0,0:0:0:0:
96,304,66776,1,0,0:0:0:0:
96,304,66776,1,0,0:0:0:0:
312,96,66784,1,0,0:0:0:0:
312,96,66784,1,0,0:0:0:0:
40,112,66784,1,14,0:3:0:0:
40,112,66784,1,14,0:3:0:0:
120,352,66801,1,0,0:0:0:0:
120,352,66801,1,0,0:0:0:0:
280,64,66809,1,0,0:0:0:0:
280,64,66809,1,0,0:0:0:0:
184,40,66817,1,14,0:3:0:0:
184,40,66817,1,14,0:3:0:0:
104,304,66817,1,0,0:0:0:0:
104,304,66817,1,0,0:0:0:0:
408,368,66817,1,0,0:0:0:0:
408,368,66817,1,0,0:0:0:0:
326,14,66818,1,0,0:0:0:0:
326,14,66818,1,0,0:0:0:0:
336,408,66818,1,14,0:3:0:0:
336,408,66818,1,14,0:3:0:0:
168,336,66826,1,0,0:0:0:0:
168,336,66826,1,0,0:0:0:0:
232,32,66834,1,0,0:0:0:0:
232,32,66834,1,0,0:0:0:0:
216,352,66851,1,0,0:0:0:0:
216,352,66851,1,0,0:0:0:0:
200,32,66859,1,0,0:0:0:0:
200,32,66859,1,0,0:0:0:0:
368,128,66867,1,14,0:3:0:0:
368,128,66867,1,14,0:3:0:0:
345,19,66868,1,0,0:0:0:0:
345,19,66868,1,0,0:0:0:0:
272,344,66876,1,0,0:0:0:0:
272,344,66876,1,0,0:0:0:0:
288,56,66884,1,0,0:0:0:0:
168,24,66884,1,0,0:0:0:0:
168,24,66884,1,0,0:0:0:0:
288,56,66884,1,0,0:0:0:0:
208,184,66884,1,14,0:3:0:0:
160,200,66884,1,0,0:0:0:0:
160,200,66884,1,0,0:0:0:0:
208,184,66884,1,14,0:3:0:0:
176,320,66884,1,14,0:3:0:0:
312,320,66901,1,0,0:0:0:0:
312,320,66901,1,0,0:0:0:0:
136,48,66909,1,0,0:0:0:0:
136,48,66909,1,0,0:0:0:0:
176,176,66917,1,14,0:3:0:0:
176,176,66917,1,14,0:3:0:0:
80,208,66917,1,14,0:3:0:0:
80,208,66917,1,14,0:3:0:0:
364,26,66918,1,0,0:0:0:0:
364,26,66918,1,0,0:0:0:0:
368,240,66918,1,14,0:3:0:0:
368,240,66918,1,14,0:3:0:0:
344,288,66926,1,0,0:0:0:0:
344,288,66926,1,0,0:0:0:0:
128,112,66934,1,0,0:0:0:0:
128,112,66934,1,0,0:0:0:0:
328,144,66934,1,14,0:3:0:0:
392,288,66950,1,0,0:0:0:0:
392,288,66950,1,0,0:0:0:0:
344,96,66951,1,0,0:0:0:0:
384,240,66951,1,0,0:0:0:0:
384,240,66951,1,0,0:0:0:0:
344,96,66951,1,0,0:0:0:0:
328,0,66967,1,14,0:3:0:0:
328,0,66967,1,14,0:3:0:0:
381,35,66968,1,0,0:0:0:0:
381,35,66968,1,0,0:0:0:0:
400,160,66976,1,0,0:0:0:0:
400,160,66976,1,0,0:0:0:0:
128,80,66984,1,0,0:0:0:0:
128,80,66984,1,0,0:0:0:0:
120,48,66984,1,14,0:3:0:0:
120,48,66984,1,14,0:3:0:0:
288,376,66984,1,14,0:3:0:0:
392,104,67001,1,0,0:0:0:0:
392,104,67001,1,0,0:0:0:0:
128,160,67009,1,0,0:0:0:0:
128,160,67009,1,0,0:0:0:0:
288,232,67017,1,14,0:3:0:0:
288,232,67017,1,14,0:3:0:0:
208,80,67017,1,14,0:3:0:0:
128,32,67017,1,0,0:0:0:0:
128,32,67017,1,0,0:0:0:0:
208,80,67017,1,14,0:3:0:0:
336,264,67017,1,0,0:0:0:0:
336,264,67017,1,0,0:0:0:0:
256,184,67017,1,8,0:0:0:0:
256,184,67017,1,8,0:0:0:0:
360,280,67018,1,14,0:3:0:0:
360,280,67018,1,14,0:3:0:0:
384,64,67026,1,0,0:0:0:0:
384,64,67026,1,0,0:0:0:0:
120,208,67034,1,0,0:0:0:0:
120,208,67034,1,0,0:0:0:0:
184,184,67034,1,14,0:3:0:0:
368,40,67051,1,0,0:0:0:0:
368,40,67051,1,0,0:0:0:0:
104,224,67059,1,0,0:0:0:0:
104,224,67059,1,0,0:0:0:0:
184,40,67067,1,14,0:3:0:0:
184,40,67067,1,14,0:3:0:0:
400,16,67084,1,0,0:0:0:0:
104,272,67084,1,0,0:0:0:0:
104,272,67084,1,0,0:0:0:0:
400,16,67084,1,0,0:0:0:0:
248,200,67084,1,14,0:3:0:0:
248,200,67084,1,14,0:3:0:0:
368,272,67084,1,14,0:3:0:0:
96,304,67109,1,0,0:0:0:0:
96,304,67109,1,0,0:0:0:0:
368,128,67117,1,14,0:3:0:0:
368,128,67117,1,14,0:3:0:0:
40,112,67117,1,14,0:3:0:0:
40,112,67117,1,14,0:3:0:0:
392,224,67118,1,14,0:3:0:0:
392,224,67118,1,14,0:3:0:0:
120,352,67134,1,0,0:0:0:0:
120,352,67134,1,0,0:0:0:0:
176,176,67134,1,14,0:3:0:0:
408,368,67150,1,0,0:0:0:0:
408,368,67150,1,0,0:0:0:0:
168,336,67159,1,0,0:0:0:0:
168,336,67159,1,0,0:0:0:0:
216,352,67184,1,0,0:0:0:0:
216,352,67184,1,0,0:0:0:0:
80,232,67184,1,14,0:3:0:0:
80,232,67184,1,14,0:3:0:0:
328,0,67184,1,14,0:3:0:0:
256,184,67185,1,8,0:0:0:0:
256,184,67185,1,8,0:0:0:0:
272,344,67209,1,0,0:0:0:0:
272,344,67209,1,0,0:0:0:0:
208,184,67217,1,14,0:3:0:0:
160,200,67217,1,0,0:0:0:0:
160,200,67217,1,0,0:0:0:0:
208,184,67217,1,14,0:3:0:0:
280,288,67218,1,14,0:3:0:0:
280,288,67218,1,14,0:3:0:0:
312,320,67234,1,0,0:0:0:0:
312,320,67234,1,0,0:0:0:0:
208,288,67234,1,14,0:3:0:0:
344,288,67259,1,0,0:0:0:0:
344,288,67259,1,0,0:0:0:0:
344,96,67284,1,0,0:0:0:0:
384,240,67284,1,0,0:0:0:0:
384,240,67284,1,0,0:0:0:0:
344,96,67284,1,0,0:0:0:0:
248,304,67284,1,14,0:3:0:0:
248,304,67284,1,14,0:3:0:0:
184,40,67284,1,14,0:3:0:0:
400,160,67309,1,0,0:0:0:0:
400,160,67309,1,0,0:0:0:0:
240,368,67317,1,14,0:3:0:0:
240,368,67317,1,14,0:3:0:0:
120,48,67317,1,14,0:3:0:0:
120,48,67317,1,14,0:3:0:0:
144,200,67318,1,14,0:3:0:0:
144,200,67318,1,14,0:3:0:0:
392,104,67334,1,0,0:0:0:0:
392,104,67334,1,0,0:0:0:0:
368,128,67334,1,14,0:3:0:0:
336,264,67350,1,0,0:0:0:0:
336,264,67350,1,0,0:0:0:0:
182,274,67351,2,0,P|334:313|464:224,1,325
182,274,67351,2,0,P|334:313|464:224,1,325
384,64,67359,1,0,0:0:0:0:
384,64,67359,1,0,0:0:0:0:
368,40,67384,1,0,0:0:0:0:
368,40,67384,1,0,0:0:0:0:
160,168,67384,1,14,0:3:0:0:
160,168,67384,1,14,0:3:0:0:
176,176,67384,1,14,0:3:0:0:
368,240,67417,1,14,0:3:0:0:
368,240,67417,1,14,0:3:0:0:
248,200,67417,1,14,0:3:0:0:
248,200,67417,1,14,0:3:0:0:
264,192,67417,1,8,0:0:0:0:
264,192,67417,1,8,0:0:0:0:
216,368,67418,1,14,0:3:0:0:
216,368,67418,1,14,0:3:0:0:
328,0,67434,1,14,0:3:0:0:
288,200,67451,1,0,0:0:0:0:
288,200,67451,1,0,0:0:0:0:
224,56,67484,1,14,0:3:0:0:
224,56,67484,1,14,0:3:0:0:
288,232,67484,1,14,0:3:0:0:
336,408,67517,1,14,0:3:0:0:
336,408,67517,1,14,0:3:0:0:
80,232,67517,1,14,0:3:0:0:
80,232,67517,1,14,0:3:0:0:
248,200,67518,1,14,0:3:0:0:
248,200,67518,1,14,0:3:0:0:
184,40,67534,1,14,0:3:0:0:
168,88,67584,5,14,0:3:0:0:
168,88,67584,5,14,0:3:0:0:
368,128,67584,1,14,0:3:0:0:
264,192,67585,1,8,0:0:0:0:
264,192,67585,1,8,0:0:0:0:
184,112,67585,1,0,0:0:0:0:
184,112,67585,1,0,0:0:0:0:
264,240,67617,1,14,0:3:0:0:
264,240,67617,1,14,0:3:0:0:
248,304,67617,1,14,0:3:0:0:
248,304,67617,1,14,0:3:0:0:
139,351,67618,2,0,B|520:304|264:136|304:24|304:24|24:160|296:144,1,800
139,351,67618,2,0,B|520:304|264:136|304:24|304:24|24:160|296:144,1,800
400,328,67618,1,14,0:3:0:0:
400,328,67618,1,14,0:3:0:0:
352,104,67651,1,0,0:0:0:0:
352,104,67651,1,0,0:0:0:0:
208,80,67684,5,14,0:3:0:0:
208,80,67684,5,14,0:3:0:0:
400,328,67717,1,14,0:3:0:0:
400,328,67717,1,14,0:3:0:0:
160,168,67717,1,14,0:3:0:0:
160,168,67717,1,14,0:3:0:0:
264,240,67718,1,14,0:3:0:0:
264,240,67718,1,14,0:3:0:0:
264,192,67750,1,8,0:0:0:0:
264,192,67750,1,8,0:0:0:0:
173,265,67751,2,0,P|134:113|224:-16,1,325
173,265,67751,2,0,P|134:113|224:-16,1,325
40,112,67784,1,14,0:3:0:0:
40,112,67784,1,14,0:3:0:0:
240,368,67784,1,14,0:3:0:0:
80,40,67785,1,0,0:0:0:0:
80,40,67785,1,0,0:0:0:0:
248,200,67817,1,14,0:3:0:0:
248,200,67817,1,14,0:3:0:0:
224,56,67817,1,14,0:3:0:0:
224,56,67817,1,14,0:3:0:0:
336,408,67818,1,14,0:3:0:0:
336,408,67818,1,14,0:3:0:0:
248,160,67851,1,0,0:0:0:0:
248,160,67851,1,0,0:0:0:0:
432,48,67851,1,0,0:0:0:0:
432,48,67851,1,0,0:0:0:0:
208,184,67884,5,14,0:3:0:0:
208,184,67884,5,14,0:3:0:0:
368,240,67884,1,14,0:3:0:0:
168,88,67917,5,14,0:3:0:0:
168,88,67917,5,14,0:3:0:0:
216,368,67917,1,14,0:3:0:0:
216,368,67917,1,14,0:3:0:0:
264,192,67918,1,8,0:0:0:0:
264,192,67918,1,8,0:0:0:0:
368,240,67918,1,14,0:3:0:0:
368,240,67918,1,14,0:3:0:0:
139,351,67951,2,0,B|520:304|264:136|304:24|304:24|24:160|296:144,1,800
139,351,67951,2,0,B|520:304|264:136|304:24|304:24|24:160|296:144,1,800
413,67,67967,1,0,0:0:0:0:
413,67,67967,1,0,0:0:0:0:
120,48,67984,5,14,0:3:0:0:
120,48,67984,5,14,0:3:0:0:
336,408,67984,1,14,0:3:0:0:
336,264,67985,1,0,0:0:0:0:
336,264,67985,1,0,0:0:0:0:
160,56,67985,1,0,0:0:0:0:
160,56,67985,1,0,0:0:0:0:
208,80,68017,5,14,0:3:0:0:
208,80,68017,5,14,0:3:0:0:
144,200,68017,1,14,0:3:0:0:
144,200,68017,1,14,0:3:0:0:
422,84,68017,1,0,0:0:0:0:
422,84,68017,1,0,0:0:0:0:
240,368,68018,1,14,0:3:0:0:
240,368,68018,1,14,0:3:0:0:
344,96,68051,1,0,0:0:0:0:
344,96,68051,1,0,0:0:0:0:
392,160,68051,1,0,0:0:0:0:
392,160,68051,1,0,0:0:0:0:
429,103,68067,1,0,0:0:0:0:
429,103,68067,1,0,0:0:0:0:
173,265,68084,2,0,P|134:113|224:-16,1,325
173,265,68084,2,0,P|134:113|224:-16,1,325
264,240,68084,1,14,0:3:0:0:
280,288,68117,1,14,0:3:0:0:
280,288,68117,1,14,0:3:0:0:
40,112,68117,1,14,0:3:0:0:
40,112,68117,1,14,0:3:0:0:
434,122,68117,1,0,0:0:0:0:
434,122,68117,1,0,0:0:0:0:
160,200,68118,1,0,0:0:0:0:
160,200,68118,1,0,0:0:0:0:
144,344,68118,1,0,0:0:0:0:
144,344,68118,1,0,0:0:0:0:
437,142,68167,1,0,0:0:0:0:
437,142,68167,1,0,0:0:0:0:
248,160,68184,1,0,0:0:0:0:
248,160,68184,1,0,0:0:0:0:
400,328,68184,1,14,0:3:0:0:
408,368,68185,1,0,0:0:0:0:
408,368,68185,1,0,0:0:0:0:
296,136,68185,1,0,0:0:0:0:
296,136,68185,1,0,0:0:0:0:
208,184,68217,5,14,0:3:0:0:
208,184,68217,5,14,0:3:0:0:
392,224,68217,1,14,0:3:0:0:
392,224,68217,1,14,0:3:0:0:
437,161,68217,1,0,0:0:0:0:
437,161,68217,1,0,0:0:0:0:
368,128,68218,1,14,0:3:0:0:
368,128,68218,1,14,0:3:0:0:
400,16,68251,1,0,0:0:0:0:
400,16,68251,1,0,0:0:0:0:
344,368,68251,1,0,0:0:0:0:
167,196,68251,2,0,P|246:102|368:128,1,260,8|6,0:0|0:0,0:0:0:0:
167,196,68251,2,0,P|246:102|368:128,1,260,8|6,0:0|0:0,0:0:0:0:
344,368,68251,1,0,0:0:0:0:
435,181,68267,1,0,0:0:0:0:
435,181,68267,1,0,0:0:0:0:
184,40,68268,1,14,0:3:0:0:
184,40,68268,1,14,0:3:0:0:
248,200,68284,1,14,0:3:0:0:
360,280,68317,5,14,0:3:0:0:
360,280,68317,5,14,0:3:0:0:
120,48,68317,5,14,0:3:0:0:
120,48,68317,5,14,0:3:0:0:
431,201,68317,1,0,0:0:0:0:
431,201,68317,1,0,0:0:0:0:
336,264,68318,1,0,0:0:0:0:
336,264,68318,1,0,0:0:0:0:
128,32,68318,1,0,0:0:0:0:
128,32,68318,1,0,0:0:0:0:
288,232,68318,1,14,0:3:0:0:
288,232,68318,1,14,0:3:0:0:
96,308,68351,2,0,B|144:-72|312:184|424:144|424:144|288:424|304:152,1,800
96,308,68351,2,0,B|144:-72|312:184|424:144|424:144|288:424|304:152,1,800
381,35,68367,1,0,0:0:0:0:
381,35,68367,1,0,0:0:0:0:
424,219,68367,1,0,0:0:0:0:
424,219,68367,1,0,0:0:0:0:
328,0,68368,5,14,0:3:0:0:
328,0,68368,5,14,0:3:0:0:
256,192,68368,8,0,69268,0:0:0:0:
256,192,68368,8,0,69268,0:0:0:0:
344,96,68384,1,0,0:0:0:0:
344,96,68384,1,0,0:0:0:0:
216,368,68384,1,14,0:3:0:0:
392,288,68385,1,0,0:0:0:0:
392,288,68385,1,0,0:0:0:0:
424,152,68385,1,0,0:0:0:0:
424,152,68385,1,0,0:0:0:0:
368,240,68417,5,14,0:3:0:0:
368,240,68417,5,14,0:3:0:0:
364,26,68417,1,0,0:0:0:0:
364,26,68417,1,0,0:0:0:0:
416,237,68417,1,0,0:0:0:0:
416,237,68417,1,0,0:0:0:0:
176,176,68418,1,14,0:3:0:0:
176,176,68418,1,14,0:3:0:0:
160,200,68451,1,0,0:0:0:0:
160,200,68451,1,0,0:0:0:0:
288,56,68451,1,0,0:0:0:0:
288,56,68451,1,0,0:0:0:0:
256,344,68451,1,0,0:0:0:0:
256,344,68451,1,0,0:0:0:0:
345,19,68467,1,0,0:0:0:0:
345,19,68467,1,0,0:0:0:0:
405,254,68467,1,0,0:0:0:0:
405,254,68467,1,0,0:0:0:0:
368,128,68468,1,14,0:3:0:0:
368,128,68468,1,14,0:3:0:0:
144,200,68484,1,14,0:3:0:0:
336,408,68517,1,14,0:3:0:0:
336,408,68517,1,14,0:3:0:0:
326,14,68517,1,0,0:0:0:0:
326,14,68517,1,0,0:0:0:0:
393,269,68517,1,0,0:0:0:0:
393,269,68517,1,0,0:0:0:0:
408,368,68518,1,0,0:0:0:0:
408,368,68518,1,0,0:0:0:0:
104,304,68518,1,0,0:0:0:0:
104,304,68518,1,0,0:0:0:0:
184,40,68518,1,14,0:3:0:0:
184,40,68518,1,14,0:3:0:0:
306,11,68567,1,0,0:0:0:0:
306,11,68567,1,0,0:0:0:0:
378,283,68567,1,0,0:0:0:0:
378,283,68567,1,0,0:0:0:0:
208,288,68568,1,14,0:3:0:0:
208,288,68568,1,14,0:3:0:0:
400,16,68584,1,0,0:0:0:0:
400,16,68584,1,0,0:0:0:0:
280,288,68584,1,14,0:3:0:0:
312,152,68585,1,0,0:0:0:0:
312,152,68585,1,0,0:0:0:0:
400,56,68585,1,0,0:0:0:0:
400,56,68585,1,0,0:0:0:0:
264,240,68617,5,14,0:3:0:0:
264,240,68617,5,14,0:3:0:0:
287,11,68617,1,0,0:0:0:0:
287,11,68617,1,0,0:0:0:0:
363,295,68617,1,0,0:0:0:0:
363,295,68617,1,0,0:0:0:0:
328,0,68618,1,14,0:3:0:0:
328,0,68618,1,14,0:3:0:0:
128,32,68651,1,0,0:0:0:0:
128,32,68651,1,0,0:0:0:0:
80,104,68651,1,0,0:0:0:0:
251,280,68651,2,0,P|345:201|320:80,1,260,8|6,0:0|0:0,0:0:0:0:
251,280,68651,2,0,P|345:201|320:80,1,260,8|6,0:0|0:0,0:0:0:0:
80,104,68651,1,0,0:0:0:0:
448,224,68651,1,0,0:0:0:0:
448,224,68651,1,0,0:0:0:0:
267,13,68667,1,0,0:0:0:0:
267,13,68667,1,0,0:0:0:0:
346,305,68667,1,0,0:0:0:0:
346,305,68667,1,0,0:0:0:0:
176,176,68668,1,14,0:3:0:0:
176,176,68668,1,14,0:3:0:0:
392,224,68684,1,14,0:3:0:0:
381,35,68700,1,0,0:0:0:0:
381,35,68700,1,0,0:0:0:0:
256,192,68701,8,0,69601,0:0:0:0:
256,192,68701,8,0,69601,0:0:0:0:
400,328,68717,5,14,0:3:0:0:
400,328,68717,5,14,0:3:0:0:
247,17,68717,1,0,0:0:0:0:
247,17,68717,1,0,0:0:0:0:
328,314,68717,1,0,0:0:0:0:
328,314,68717,1,0,0:0:0:0:
392,288,68718,1,0,0:0:0:0:
392,288,68718,1,0,0:0:0:0:
296,368,68718,1,0,0:0:0:0:
296,368,68718,1,0,0:0:0:0:
368,272,68718,1,14,0:3:0:0:
368,272,68718,1,14,0:3:0:0:
364,26,68750,1,0,0:0:0:0:
364,26,68750,1,0,0:0:0:0:
229,24,68767,1,0,0:0:0:0:
229,24,68767,1,0,0:0:0:0:
309,320,68767,1,0,0:0:0:0:
309,320,68767,1,0,0:0:0:0:
184,184,68768,1,14,0:3:0:0:
184,184,68768,1,14,0:3:0:0:
360,280,68784,5,14,0:3:0:0:
288,56,68784,1,0,0:0:0:0:
288,56,68784,1,0,0:0:0:0:
296,24,68785,1,0,0:0:0:0:
296,24,68785,1,0,0:0:0:0:
280,200,68785,1,0,0:0:0:0:
280,200,68785,1,0,0:0:0:0:
345,19,68800,1,0,0:0:0:0:
345,19,68800,1,0,0:0:0:0:
211,32,68817,1,0,0:0:0:0:
211,32,68817,1,0,0:0:0:0:
289,323,68817,1,0,0:0:0:0:
289,323,68817,1,0,0:0:0:0:
96,308,68818,2,0,B|144:-72|312:184|424:144|424:144|288:424|304:152,1,800
288,376,68818,1,14,0:3:0:0:
288,376,68818,1,14,0:3:0:0:
326,14,68850,1,0,0:0:0:0:
326,14,68850,1,0,0:0:0:0:
104,304,68851,1,0,0:0:0:0:
104,304,68851,1,0,0:0:0:0:
104,192,68851,1,0,0:0:0:0:
104,192,68851,1,0,0:0:0:0:
194,43,68867,1,0,0:0:0:0:
194,43,68867,1,0,0:0:0:0:
270,325,68867,1,0,0:0:0:0:
270,325,68867,1,0,0:0:0:0:
328,144,68868,1,14,0:3:0:0:
328,144,68868,1,14,0:3:0:0:
368,240,68884,5,14,0:3:0:0:
306,11,68900,1,0,0:0:0:0:
306,11,68900,1,0,0:0:0:0:
179,55,68917,1,0,0:0:0:0:
179,55,68917,1,0,0:0:0:0:
250,324,68917,1,0,0:0:0:0:
250,324,68917,1,0,0:0:0:0:
312,152,68918,1,0,0:0:0:0:
312,152,68918,1,0,0:0:0:0:
368,256,68918,1,0,0:0:0:0:
368,256,68918,1,0,0:0:0:0:
176,320,68918,1,14,0:3:0:0:
176,320,68918,1,14,0:3:0:0:
287,11,68950,1,0,0:0:0:0:
287,11,68950,1,0,0:0:0:0:
165,70,68967,1,0,0:0:0:0:
165,70,68967,1,0,0:0:0:0:
230,321,68967,1,0,0:0:0:0:
230,321,68967,1,0,0:0:0:0:
80,104,68984,1,0,0:0:0:0:
251,280,68984,2,0,P|345:201|320:80,1,260,8|6,0:0|0:0,0:0:0:0:
251,280,68984,2,0,P|345:201|320:80,1,260,8|6,0:0|0:0,0:0:0:0:
80,104,68984,1,0,0:0:0:0:
336,408,68984,1,14,0:3:0:0:
392,48,68985,1,0,0:0:0:0:
392,48,68985,1,0,0:0:0:0:
267,13,69000,1,0,0:0:0:0:
267,13,69000,1,0,0:0:0:0:
153,85,69017,1,0,0:0:0:0:
153,85,69017,1,0,0:0:0:0:
211,316,69017,1,0,0:0:0:0:
211,316,69017,1,0,0:0:0:0:
247,17,69050,1,0,0:0:0:0:
247,17,69050,1,0,0:0:0:0:
296,368,69051,1,0,0:0:0:0:
296,368,69051,1,0,0:0:0:0:
224,0,69051,1,0,0:0:0:0:
224,0,69051,1,0,0:0:0:0:
143,102,69067,1,0,0:0:0:0:
143,102,69067,1,0,0:0:0:0:
193,308,69067,1,0,0:0:0:0:
193,308,69067,1,0,0:0:0:0:
264,240,69084,5,14,0:3:0:0:
229,24,69100,1,0,0:0:0:0:
229,24,69100,1,0,0:0:0:0:
256,192,69101,8,0,70001,0:0:0:0:
256,192,69101,8,0,70001,0:0:0:0:
134,120,69117,5,0,0:0:0:0:
134,120,69117,1,0,0:0:0:0:
176,299,69117,1,0,0:0:0:0:
176,299,69117,1,0,0:0:0:0:
296,24,69118,1,0,0:0:0:0:
296,24,69118,1,0,0:0:0:0:
168,280,69118,1,0,0:0:0:0:
168,280,69118,1,0,0:0:0:0:
211,32,69150,1,0,0:0:0:0:
211,32,69150,1,0,0:0:0:0:
128,139,69167,1,0,0:0:0:0:
128,139,69167,1,0,0:0:0:0:
159,287,69167,1,0,0:0:0:0:
159,287,69167,1,0,0:0:0:0:
400,328,69184,5,14,0:3:0:0:
104,192,69184,1,0,0:0:0:0:
104,192,69184,1,0,0:0:0:0:
248,168,69185,1,0,0:0:0:0:
248,168,69185,1,0,0:0:0:0:
194,43,69200,1,0,0:0:0:0:
194,43,69200,1,0,0:0:0:0:
125,159,69217,1,0,0:0:0:0:
125,159,69217,1,0,0:0:0:0:
145,274,69217,1,0,0:0:0:0:
145,274,69217,1,0,0:0:0:0:
179,55,69250,1,0,0:0:0:0:
179,55,69250,1,0,0:0:0:0:
368,256,69251,1,0,0:0:0:0:
368,256,69251,1,0,0:0:0:0:
123,178,69267,1,0,0:0:0:0:
123,178,69267,1,0,0:0:0:0:
132,259,69267,1,0,0:0:0:0:
132,259,69267,1,0,0:0:0:0:
165,70,69300,1,0,0:0:0:0:
165,70,69300,1,0,0:0:0:0:
124,198,69317,1,0,0:0:0:0:
124,198,69317,1,0,0:0:0:0:
121,243,69317,1,0,0:0:0:0:
121,243,69317,1,0,0:0:0:0:
392,48,69318,1,0,0:0:0:0:
392,48,69318,1,0,0:0:0:0:
153,85,69350,1,0,0:0:0:0:
153,85,69350,1,0,0:0:0:0:
127,218,69367,1,0,0:0:0:0:
127,218,69367,1,0,0:0:0:0:
111,225,69367,1,0,0:0:0:0:
111,225,69367,1,0,0:0:0:0:
256,192,69384,12,0,69417,0:0:0:0:
256,192,69384,12,0,69417,0:0:0:0:
224,0,69384,5,0,0:0:0:0:
224,0,69384,1,0,0:0:0:0:
143,102,69400,1,0,0:0:0:0:
143,102,69400,1,0,0:0:0:0:
132,237,69417,1,0,0:0:0:0:
132,237,69417,1,0,0:0:0:0:
256,192,69417,8,0,69650,0:0:0:0:
256,192,69417,8,0,69650,0:0:0:0:
134,120,69450,5,0,0:0:0:0:
134,120,69450,1,0,0:0:0:0:
168,280,69451,1,0,0:0:0:0:
168,280,69451,1,0,0:0:0:0:
140,255,69467,1,0,0:0:0:0:
140,255,69467,1,0,0:0:0:0:
99,187,69467,1,0,0:0:0:0:
99,187,69467,1,0,0:0:0:0:
128,139,69500,1,0,0:0:0:0:
128,139,69500,1,0,0:0:0:0:
149,272,69517,1,0,0:0:0:0:
149,272,69517,1,0,0:0:0:0:
96,168,69517,1,0,0:0:0:0:
96,168,69517,1,0,0:0:0:0:
248,168,69518,1,0,0:0:0:0:
248,168,69518,1,0,0:0:0:0:
125,159,69550,1,0,0:0:0:0:
125,159,69550,1,0,0:0:0:0:
161,289,69567,1,0,0:0:0:0:
161,289,69567,1,0,0:0:0:0:
96,148,69567,1,0,0:0:0:0:
96,148,69567,1,0,0:0:0:0:
256,192,69568,8,0,70468,0:0:0:0:
123,178,69600,5,0,0:0:0:0:
123,178,69600,1,0,0:0:0:0:
174,303,69617,1,0,0:0:0:0:
174,303,69617,1,0,0:0:0:0:
98,128,69617,1,0,0:0:0:0:
98,128,69617,1,0,0:0:0:0:
124,198,69650,1,0,0:0:0:0:
124,198,69650,1,0,0:0:0:0:
189,316,69667,1,0,0:0:0:0:
189,316,69667,1,0,0:0:0:0:
102,109,69667,1,0,0:0:0:0:
102,109,69667,1,0,0:0:0:0:
127,218,69700,1,0,0:0:0:0:
127,218,69700,1,0,0:0:0:0:
205,327,69717,1,0,0:0:0:0:
205,327,69717,1,0,0:0:0:0:
108,90,69717,1,0,0:0:0:0:
108,90,69717,1,0,0:0:0:0:
132,237,69750,1,0,0:0:0:0:
132,237,69750,1,0,0:0:0:0:
223,337,69767,1,0,0:0:0:0:
223,337,69767,1,0,0:0:0:0:
117,72,69767,1,0,0:0:0:0:
117,72,69767,1,0,0:0:0:0:
256,192,69768,12,0,70668,0:0:0:0:
256,192,69768,12,0,70668,0:0:0:0:
140,255,69800,5,0,0:0:0:0:
140,255,69800,1,0,0:0:0:0:
241,344,69817,1,0,0:0:0:0:
241,344,69817,1,0,0:0:0:0:
128,56,69817,1,0,0:0:0:0:
128,56,69817,1,0,0:0:0:0:
149,272,69850,1,0,0:0:0:0:
149,272,69850,1,0,0:0:0:0:
232,200,69851,1,0,0:0:0:0:
232,200,69851,1,0,0:0:0:0:
261,349,69867,1,0,0:0:0:0:
261,349,69867,1,0,0:0:0:0:
161,289,69900,1,0,0:0:0:0:
161,289,69900,1,0,0:0:0:0:
280,352,69917,1,0,0:0:0:0:
280,352,69917,1,0,0:0:0:0:
344,280,69918,1,0,0:0:0:0:
344,280,69918,1,0,0:0:0:0:
174,303,69950,1,0,0:0:0:0:
174,303,69950,1,0,0:0:0:0:
300,352,69967,1,0,0:0:0:0:
300,352,69967,1,0,0:0:0:0:
352,296,69967,1,0,0:0:0:0:
352,296,69967,1,0,0:0:0:0:
64,224,69985,1,0,0:0:0:0:
64,224,69985,1,0,0:0:0:0:
189,316,70000,1,0,0:0:0:0:
189,316,70000,1,0,0:0:0:0:
320,350,70017,1,0,0:0:0:0:
320,350,70017,1,0,0:0:0:0:
464,136,70017,1,0,0:0:0:0:
464,136,70017,1,0,0:0:0:0:
205,327,70050,1,0,0:0:0:0:
205,327,70050,1,0,0:0:0:0:
280,240,70050,1,8,0:0:0:0:
280,240,70050,1,8,0:0:0:0:
112,56,70051,1,0,0:0:0:0:
112,56,70051,1,0,0:0:0:0:
339,346,70067,1,0,0:0:0:0:
339,346,70067,1,0,0:0:0:0:
256,176,70067,1,0,0:0:0:0:
256,176,70067,1,0,0:0:0:0:
223,337,70100,1,0,0:0:0:0:
223,337,70100,1,0,0:0:0:0:
358,340,70117,1,0,0:0:0:0:
358,340,70117,1,0,0:0:0:0:
464,240,70117,1,0,0:0:0:0:
464,240,70117,1,0,0:0:0:0:
384,272,70118,1,14,0:3:0:0:
384,272,70118,1,14,0:3:0:0:
320,80,70118,1,0,0:0:0:0:
320,80,70118,1,0,0:0:0:0:
241,344,70150,1,0,0:0:0:0:
241,344,70150,1,0,0:0:0:0:
376,331,70167,1,0,0:0:0:0:
376,331,70167,1,0,0:0:0:0:
424,64,70167,1,0,0:0:0:0:
424,64,70167,1,0,0:0:0:0:
208,120,70168,1,14,0:3:0:0:
208,120,70168,1,14,0:3:0:0:
256,344,70185,1,0,0:0:0:0:
256,344,70185,1,0,0:0:0:0:
261,349,70200,1,0,0:0:0:0:
261,349,70200,1,0,0:0:0:0:
392,320,70217,1,0,0:0:0:0:
392,320,70217,1,0,0:0:0:0:
168,304,70217,1,0,0:0:0:0:
168,304,70217,1,0,0:0:0:0:
440,160,70218,1,14,0:3:0:0:
440,160,70218,1,14,0:3:0:0:
280,352,70250,1,0,0:0:0:0:
280,352,70250,1,0,0:0:0:0:
248,216,70251,1,0,0:0:0:0:
248,216,70251,1,0,0:0:0:0:
88,152,70251,1,0,0:0:0:0:
88,152,70251,1,0,0:0:0:0:
296,136,70267,1,0,0:0:0:0:
296,136,70267,1,0,0:0:0:0:
248,264,70268,1,14,0:3:0:0:
248,264,70268,1,14,0:3:0:0:
300,352,70300,1,0,0:0:0:0:
300,352,70300,1,0,0:0:0:0:
104,184,70317,1,0,0:0:0:0:
104,184,70317,1,0,0:0:0:0:
336,80,70318,1,14,0:3:0:0:
168,104,70318,1,0,0:0:0:0:
168,104,70318,1,0,0:0:0:0:
336,80,70318,1,14,0:3:0:0:
432,152,70318,1,0,0:0:0:0:
432,152,70318,1,0,0:0:0:0:
320,350,70350,1,0,0:0:0:0:
320,350,70350,1,0,0:0:0:0:
152,96,70367,1,0,0:0:0:0:
152,96,70367,1,0,0:0:0:0:
296,272,70367,1,0,0:0:0:0:
296,272,70367,1,0,0:0:0:0:
240,272,70368,1,14,0:3:0:0:
240,272,70368,1,14,0:3:0:0:
224,384,70385,1,0,0:0:0:0:
224,384,70385,1,0,0:0:0:0:
144,128,70385,2,0,P|344:192|344:240,1,260,8|6,0:0|0:0,0:0:0:0:
168,368,70385,1,0,0:0:0:0:
168,368,70385,1,0,0:0:0:0:
144,128,70385,2,0,P|344:192|344:240,1,260,8|6,0:0|0:0,0:0:0:0:
339,346,70400,1,0,0:0:0:0:
339,346,70400,1,0,0:0:0:0:
312,0,70417,1,0,0:0:0:0:
312,0,70417,1,0,0:0:0:0:
224,96,70417,1,0,0:0:0:0:
224,96,70417,1,0,0:0:0:0:
64,120,70418,1,14,0:3:0:0:
64,120,70418,1,14,0:3:0:0:
358,340,70450,1,0,0:0:0:0:
358,340,70450,1,0,0:0:0:0:
384,272,70451,1,14,0:3:0:0:
384,272,70451,1,14,0:3:0:0:
392,336,70451,1,0,0:0:0:0:
392,336,70451,1,0,0:0:0:0:
216,136,70451,1,0,0:0:0:0:
216,136,70451,1,0,0:0:0:0:
272,192,70467,1,0,0:0:0:0:
272,192,70467,1,0,0:0:0:0:
184,320,70467,1,0,0:0:0:0:
184,320,70467,1,0,0:0:0:0:
352,240,70468,1,14,0:3:0:0:
352,240,70468,1,14,0:3:0:0:
376,331,70500,1,0,0:0:0:0:
376,331,70500,1,0,0:0:0:0:
208,120,70501,1,14,0:3:0:0:
208,120,70501,1,14,0:3:0:0:
208,0,70517,1,0,0:0:0:0:
208,0,70517,1,0,0:0:0:0:
432,296,70517,1,0,0:0:0:0:
432,296,70517,1,0,0:0:0:0:
104,264,70518,1,14,0:3:0:0:
368,128,70518,1,0,0:0:0:0:
368,128,70518,1,0,0:0:0:0:
104,264,70518,1,14,0:3:0:0:
368,344,70518,1,0,0:0:0:0:
368,344,70518,1,0,0:0:0:0:
392,320,70550,1,0,0:0:0:0:
392,320,70550,1,0,0:0:0:0:
440,160,70551,1,14,0:3:0:0:
440,160,70551,1,14,0:3:0:0:
384,24,70567,1,0,0:0:0:0:
384,24,70567,1,0,0:0:0:0:
96,48,70567,1,0,0:0:0:0:
96,48,70567,1,0,0:0:0:0:
192,80,70568,1,14,0:3:0:0:
192,80,70568,1,14,0:3:0:0:
248,216,70584,1,0,0:0:0:0:
248,216,70584,1,0,0:0:0:0:
104,192,70585,1,0,0:0:0:0:
104,192,70585,1,0,0:0:0:0:
120,160,70585,1,0,0:0:0:0:
120,160,70585,1,0,0:0:0:0:
248,264,70601,1,14,0:3:0:0:
248,264,70601,1,14,0:3:0:0:
144,280,70617,1,0,0:0:0:0:
144,280,70617,1,0,0:0:0:0:
80,336,70617,1,0,0:0:0:0:
80,336,70617,1,0,0:0:0:0:
240,272,70618,1,14,0:3:0:0:
240,272,70618,1,14,0:3:0:0:
336,80,70651,1,14,0:3:0:0:
168,104,70651,1,0,0:0:0:0:
168,104,70651,1,0,0:0:0:0:
336,80,70651,1,14,0:3:0:0:
296,360,70651,1,0,0:0:0:0:
296,360,70651,1,0,0:0:0:0:
352,56,70651,1,0,0:0:0:0:
352,56,70651,1,0,0:0:0:0:
312,152,70667,1,0,0:0:0:0:
312,152,70667,1,0,0:0:0:0:
304,192,70667,1,0,0:0:0:0:
304,192,70667,1,0,0:0:0:0:
64,120,70668,1,14,0:3:0:0:
64,120,70668,1,14,0:3:0:0:
152,96,70700,1,0,0:0:0:0:
152,96,70700,1,0,0:0:0:0:
240,272,70701,1,14,0:3:0:0:
240,272,70701,1,14,0:3:0:0:
264,344,70717,1,0,0:0:0:0:
264,344,70717,1,0,0:0:0:0:
448,176,70717,1,0,0:0:0:0:
448,176,70717,1,0,0:0:0:0:
224,384,70718,1,0,0:0:0:0:
224,384,70718,1,0,0:0:0:0:
296,160,70718,1,14,0:3:0:0:
296,16,70718,1,0,0:0:0:0:
296,16,70718,1,0,0:0:0:0:
296,160,70718,1,14,0:3:0:0:
96,320,70718,1,0,0:0:0:0:
96,320,70718,1,0,0:0:0:0:
312,0,70750,1,0,0:0:0:0:
312,0,70750,1,0,0:0:0:0:
64,120,70751,1,14,0:3:0:0:
64,120,70751,1,14,0:3:0:0:
176,152,70767,1,0,0:0:0:0:
176,152,70767,1,0,0:0:0:0:
416,368,70767,1,0,0:0:0:0:
416,368,70767,1,0,0:0:0:0:
104,264,70768,1,14,0:3:0:0:
104,264,70768,1,14,0:3:0:0:
392,336,70784,1,0,0:0:0:0:
392,336,70784,1,0,0:0:0:0:
320,304,70785,2,0,P|256:104|208:104,1,260,8|6,0:0|0:0,0:0:0:0:
80,280,70785,1,0,0:0:0:0:
80,280,70785,1,0,0:0:0:0:
320,304,70785,2,0,P|256:104|208:104,1,260,8|6,0:0|0:0,0:0:0:0:
80,48,70785,1,0,0:0:0:0:
80,48,70785,1,0,0:0:0:0:
272,192,70800,1,0,0:0:0:0:
272,192,70800,1,0,0:0:0:0:
352,240,70801,1,14,0:3:0:0:
352,240,70801,1,14,0:3:0:0:
352,224,70817,1,0,0:0:0:0:
352,224,70817,1,0,0:0:0:0:
240,64,70817,1,0,0:0:0:0:
240,64,70817,1,0,0:0:0:0:
192,80,70818,1,14,0:3:0:0:
192,80,70818,1,14,0:3:0:0:
208,0,70850,1,0,0:0:0:0:
208,0,70850,1,0,0:0:0:0:
176,64,70851,1,14,0:3:0:0:
176,64,70851,1,14,0:3:0:0:
104,264,70851,1,14,0:3:0:0:
368,128,70851,1,0,0:0:0:0:
368,128,70851,1,0,0:0:0:0:
104,264,70851,1,14,0:3:0:0:
312,232,70851,1,0,0:0:0:0:
312,232,70851,1,0,0:0:0:0:
432,40,70851,1,0,0:0:0:0:
432,40,70851,1,0,0:0:0:0:
128,264,70867,1,0,0:0:0:0:
128,264,70867,1,0,0:0:0:0:
280,272,70867,1,0,0:0:0:0:
280,272,70867,1,0,0:0:0:0:
384,24,70900,1,0,0:0:0:0:
384,24,70900,1,0,0:0:0:0:
328,240,70901,1,14,0:3:0:0:
328,240,70901,1,14,0:3:0:0:
192,80,70901,1,14,0:3:0:0:
192,80,70901,1,14,0:3:0:0:
152,16,70917,1,0,0:0:0:0:
152,16,70917,1,0,0:0:0:0:
424,88,70917,1,0,0:0:0:0:
424,88,70917,1,0,0:0:0:0:
104,192,70918,1,0,0:0:0:0:
104,192,70918,1,0,0:0:0:0:
104,80,70918,1,0,0:0:0:0:
104,80,70918,1,0,0:0:0:0:
264,288,70918,1,0,0:0:0:0:
264,288,70918,1,0,0:0:0:0:
144,280,70950,1,0,0:0:0:0:
144,280,70950,1,0,0:0:0:0:
288,8,70951,1,14,0:3:0:0:
288,8,70951,1,14,0:3:0:0:
240,272,70951,1,14,0:3:0:0:
240,272,70951,1,14,0:3:0:0:
400,352,70967,1,0,0:0:0:0:
400,352,70967,1,0,0:0:0:0:
240,336,70967,1,0,0:0:0:0:
240,336,70967,1,0,0:0:0:0:
296,360,70984,1,0,0:0:0:0:
296,360,70984,1,0,0:0:0:0:
288,328,70985,1,0,0:0:0:0:
288,328,70985,1,0,0:0:0:0:
160,104,70985,1,0,0:0:0:0:
160,104,70985,1,0,0:0:0:0:
312,152,71000,1,0,0:0:0:0:
312,152,71000,1,0,0:0:0:0:
184,200,71001,1,14,0:3:0:0:
184,200,71001,1,14,0:3:0:0:
64,120,71001,1,14,0:3:0:0:
64,120,71001,1,14,0:3:0:0:
112,368,71017,1,0,0:0:0:0:
112,368,71017,1,0,0:0:0:0:
48,48,71017,1,0,0:0:0:0:
48,48,71017,1,0,0:0:0:0:
432,208,71018,1,14,0:3:0:0:
432,208,71018,1,14,0:3:0:0:
264,344,71050,1,0,0:0:0:0:
264,344,71050,1,0,0:0:0:0:
368,112,71051,1,14,0:3:0:0:
368,112,71051,1,14,0:3:0:0:
296,160,71051,1,14,0:3:0:0:
296,16,71051,1,0,0:0:0:0:
296,16,71051,1,0,0:0:0:0:
296,160,71051,1,14,0:3:0:0:
392,96,71051,1,0,0:0:0:0:
392,96,71051,1,0,0:0:0:0:
328,112,71051,1,0,0:0:0:0:
328,112,71051,1,0,0:0:0:0:
256,144,71067,1,0,0:0:0:0:
256,144,71067,1,0,0:0:0:0:
32,280,71067,1,0,0:0:0:0:
32,280,71067,1,0,0:0:0:0:
176,152,71100,1,0,0:0:0:0:
176,152,71100,1,0,0:0:0:0:
176,208,71101,1,14,0:3:0:0:
176,208,71101,1,14,0:3:0:0:
104,264,71101,1,14,0:3:0:0:
104,264,71101,1,14,0:3:0:0:
272,0,71117,1,0,0:0:0:0:
272,0,71117,1,0,0:0:0:0:
416,288,71117,1,0,0:0:0:0:
416,288,71117,1,0,0:0:0:0:
320,304,71118,2,0,P|256:104|208:104,1,260,8|6,0:0|0:0,0:0:0:0:
80,280,71118,1,0,0:0:0:0:
80,280,71118,1,0,0:0:0:0:
320,304,71118,2,0,P|256:104|208:104,1,260,8|6,0:0|0:0,0:0:0:0:
304,80,71118,1,14,0:3:0:0:
128,352,71118,1,0,0:0:0:0:
128,352,71118,1,0,0:0:0:0:
304,80,71118,1,14,0:3:0:0:
352,224,71150,1,0,0:0:0:0:
352,224,71150,1,0,0:0:0:0:
328,384,71151,1,14,0:3:0:0:
328,384,71151,1,14,0:3:0:0:
192,80,71151,1,14,0:3:0:0:
192,80,71151,1,14,0:3:0:0:
80,32,71167,1,0,0:0:0:0:
80,32,71167,1,0,0:0:0:0:
328,72,71167,1,0,0:0:0:0:
328,72,71167,1,0,0:0:0:0:
312,232,71184,1,0,0:0:0:0:
312,232,71184,1,0,0:0:0:0:
400,368,71185,1,0,0:0:0:0:
400,368,71185,1,0,0:0:0:0:
224,200,71185,1,0,0:0:0:0:
224,200,71185,1,0,0:0:0:0:
128,264,71200,1,0,0:0:0:0:
128,264,71200,1,0,0:0:0:0:
208,96,71201,1,14,0:3:0:0:
208,96,71201,1,14,0:3:0:0:
384,208,71217,1,0,0:0:0:0:
384,208,71217,1,0,0:0:0:0:
168,256,71217,1,0,0:0:0:0:
168,256,71217,1,0,0:0:0:0:
472,112,71218,1,14,0:3:0:0:
472,112,71218,1,14,0:3:0:0:
152,16,71250,1,0,0:0:0:0:
152,16,71250,1,0,0:0:0:0:
184,344,71251,1,14,0:3:0:0:
184,344,71251,1,14,0:3:0:0:
104,80,71251,1,0,0:0:0:0:
104,80,71251,1,0,0:0:0:0:
408,16,71251,1,0,0:0:0:0:
408,16,71251,1,0,0:0:0:0:
176,168,71267,1,0,0:0:0:0:
176,168,71267,1,0,0:0:0:0:
144,112,71267,1,0,0:0:0:0:
144,112,71267,1,0,0:0:0:0:
48,224,71285,2,0,P|168:312|368:232,1,325
48,224,71285,2,0,P|168:312|368:232,1,325
400,352,71300,1,0,0:0:0:0:
400,352,71300,1,0,0:0:0:0:
368,256,71301,1,14,0:3:0:0:
368,256,71301,1,14,0:3:0:0:
360,24,71317,1,0,0:0:0:0:
360,24,71317,1,0,0:0:0:0:
288,328,71318,1,0,0:0:0:0:
288,328,71318,1,0,0:0:0:0:
304,184,71318,1,14,0:3:0:0:
160,184,71318,1,0,0:0:0:0:
160,184,71318,1,0,0:0:0:0:
304,184,71318,1,14,0:3:0:0:
176,64,71318,1,14,0:3:0:0:
112,368,71350,1,0,0:0:0:0:
112,368,71350,1,0,0:0:0:0:
176,208,71351,1,14,0:3:0:0:
176,208,71351,1,14,0:3:0:0:
432,208,71351,1,14,0:3:0:0:
432,208,71351,1,14,0:3:0:0:
112,208,71367,1,0,0:0:0:0:
112,208,71367,1,0,0:0:0:0:
328,240,71368,1,14,0:3:0:0:
392,96,71384,1,0,0:0:0:0:
392,96,71384,1,0,0:0:0:0:
344,288,71385,1,0,0:0:0:0:
344,288,71385,1,0,0:0:0:0:
256,144,71400,1,0,0:0:0:0:
256,144,71400,1,0,0:0:0:0:
328,384,71401,1,14,0:3:0:0:
328,384,71401,1,14,0:3:0:0:
400,400,71417,1,0,0:0:0:0:
400,400,71417,1,0,0:0:0:0:
304,232,71418,6,0,B|288:-40|424:240|424:240|312:200|144:456|96:72,1,800
304,232,71418,6,0,B|288:-40|424:240|424:240|312:200|144:456|96:72,1,800
392,48,71418,1,14,0:3:0:0:
392,48,71418,1,14,0:3:0:0:
288,8,71418,1,14,0:3:0:0:
272,0,71450,1,0,0:0:0:0:
272,0,71450,1,0,0:0:0:0:
288,152,71451,1,14,0:3:0:0:
288,152,71451,1,14,0:3:0:0:
304,80,71451,1,14,0:3:0:0:
128,352,71451,1,0,0:0:0:0:
128,352,71451,1,0,0:0:0:0:
304,80,71451,1,14,0:3:0:0:
336,120,71451,1,0,0:0:0:0:
336,120,71451,1,0,0:0:0:0:
256,184,71451,1,8,0:0:0:0:
256,184,71451,1,8,0:0:0:0:
168,416,71467,1,0,0:0:0:0:
168,416,71467,1,0,0:0:0:0:
184,200,71468,1,14,0:3:0:0:
80,32,71500,1,0,0:0:0:0:
80,32,71500,1,0,0:0:0:0:
184,344,71501,1,14,0:3:0:0:
184,344,71501,1,14,0:3:0:0:
160,32,71517,1,0,0:0:0:0:
160,32,71517,1,0,0:0:0:0:
400,368,71518,1,0,0:0:0:0:
400,368,71518,1,0,0:0:0:0:
264,200,71518,1,14,0:3:0:0:
264,200,71518,1,14,0:3:0:0:
368,112,71518,1,14,0:3:0:0:
384,208,71550,1,0,0:0:0:0:
384,208,71550,1,0,0:0:0:0:
368,256,71551,1,14,0:3:0:0:
368,256,71551,1,14,0:3:0:0:
472,112,71551,1,14,0:3:0:0:
472,112,71551,1,14,0:3:0:0:
376,120,71567,1,0,0:0:0:0:
376,120,71567,1,0,0:0:0:0:
176,208,71568,1,14,0:3:0:0:
408,16,71584,1,0,0:0:0:0:
408,16,71584,1,0,0:0:0:0:
248,224,71585,1,0,0:0:0:0:
248,224,71585,1,0,0:0:0:0:
176,168,71600,1,0,0:0:0:0:
176,168,71600,1,0,0:0:0:0:
192,280,71617,1,0,0:0:0:0:
192,280,71617,1,0,0:0:0:0:
432,232,71618,1,14,0:3:0:0:
432,232,71618,1,14,0:3:0:0:
328,384,71618,1,14,0:3:0:0:
360,24,71650,1,0,0:0:0:0:
360,24,71650,1,0,0:0:0:0:
304,184,71651,1,14,0:3:0:0:
160,184,71651,1,0,0:0:0:0:
160,184,71651,1,0,0:0:0:0:
304,184,71651,1,14,0:3:0:0:
336,304,71667,1,0,0:0:0:0:
336,304,71667,1,0,0:0:0:0:
208,96,71668,1,14,0:3:0:0:
224,400,71685,2,0,P|136:280|216:80,1,325
224,400,71685,2,0,P|136:280|216:80,1,325
112,208,71700,1,0,0:0:0:0:
112,208,71700,1,0,0:0:0:0:
344,288,71718,1,0,0:0:0:0:
344,288,71718,1,0,0:0:0:0:
264,304,71718,1,14,0:3:0:0:
264,304,71718,1,14,0:3:0:0:
184,344,71718,1,14,0:3:0:0:
400,400,71750,1,0,0:0:0:0:
400,400,71750,1,0,0:0:0:0:
240,16,71751,1,14,0:3:0:0:
240,16,71751,1,14,0:3:0:0:
392,48,71751,1,14,0:3:0:0:
392,48,71751,1,14,0:3:0:0:
368,256,71768,1,14,0:3:0:0:
336,120,71784,1,0,0:0:0:0:
336,120,71784,1,0,0:0:0:0:
168,416,71800,1,0,0:0:0:0:
168,416,71800,1,0,0:0:0:0:
196,259,71817,2,0,B|256:80|200:192,1,162.5
196,259,71817,2,0,B|256:80|200:192,1,162.5
352,168,71818,1,14,0:3:0:0:
352,168,71818,1,14,0:3:0:0:
176,208,71818,1,14,0:3:0:0:
160,32,71850,1,0,0:0:0:0:
160,32,71850,1,0,0:0:0:0:
368,144,71851,1,14,0:3:0:0:
368,144,71851,1,14,0:3:0:0:
264,200,71851,1,14,0:3:0:0:
264,200,71851,1,14,0:3:0:0:
264,192,71851,1,8,0:0:0:0:
264,192,71851,1,8,0:0:0:0:
328,384,71868,1,14,0:3:0:0:
376,120,71900,1,0,0:0:0:0:
376,120,71900,1,0,0:0:0:0:
248,224,71918,1,0,0:0:0:0:
248,224,71918,1,0,0:0:0:0:
288,56,71918,1,14,0:3:0:0:
288,56,71918,1,14,0:3:0:0:
288,152,71918,1,14,0:3:0:0:
192,280,71950,1,0,0:0:0:0:
192,280,71950,1,0,0:0:0:0:
336,0,71951,1,14,0:3:0:0:
336,0,71951,1,14,0:3:0:0:
432,232,71951,1,14,0:3:0:0:
432,232,71951,1,14,0:3:0:0:
184,344,71968,1,14,0:3:0:0:
104,80,71985,1,0,0:0:0:0:
104,80,71985,1,0,0:0:0:0:
336,304,72000,1,0,0:0:0:0:
336,304,72000,1,0,0:0:0:0:
128,64,72010,1,0,0:0:0:0:
128,64,72010,1,0,0:0:0:0:
344,88,72018,5,14,0:3:0:0:
344,88,72018,5,14,0:3:0:0:
224,400,72018,2,0,P|136:280|216:80,1,325
224,400,72018,2,0,P|136:280|216:80,1,325
368,256,72018,1,14,0:3:0:0:
168,56,72035,1,0,0:0:0:0:
168,56,72035,1,0,0:0:0:0:
264,144,72051,1,14,0:3:0:0:
264,144,72051,1,14,0:3:0:0:
264,304,72051,1,14,0:3:0:0:
264,304,72051,1,14,0:3:0:0:
224,48,72060,1,0,0:0:0:0:
224,48,72060,1,0,0:0:0:0:
304,64,72085,1,0,0:0:0:0:
304,64,72085,1,0,0:0:0:0:
352,104,72110,1,0,0:0:0:0:
352,104,72110,1,0,0:0:0:0:
304,80,72118,5,14,0:3:0:0:
304,80,72118,5,14,0:3:0:0:
384,136,72135,1,0,0:0:0:0:
384,136,72135,1,0,0:0:0:0:
400,56,72151,1,14,0:3:0:0:
400,56,72151,1,14,0:3:0:0:
352,168,72151,1,14,0:3:0:0:
352,168,72151,1,14,0:3:0:0:
408,176,72160,1,0,0:0:0:0:
408,176,72160,1,0,0:0:0:0:
264,192,72184,1,8,0:0:0:0:
264,192,72184,1,8,0:0:0:0:
416,232,72185,1,0,0:0:0:0:
416,232,72185,1,0,0:0:0:0:
400,280,72210,1,0,0:0:0:0:
400,280,72210,1,0,0:0:0:0:
188,251,72217,2,0,B|368:192|256:248,1,162.5
188,251,72217,2,0,B|368:192|256:248,1,162.5
472,112,72218,1,14,0:3:0:0:
472,112,72218,1,14,0:3:0:0:
240,16,72218,1,14,0:3:0:0:
416,328,72235,1,0,0:0:0:0:
416,328,72235,1,0,0:0:0:0:
248,184,72251,1,14,0:3:0:0:
248,184,72251,1,14,0:3:0:0:
288,56,72251,1,14,0:3:0:0:
288,56,72251,1,14,0:3:0:0:
368,352,72260,1,0,0:0:0:0:
368,352,72260,1,0,0:0:0:0:
336,344,72285,1,0,0:0:0:0:
336,344,72285,1,0,0:0:0:0:
288,344,72310,1,0,0:0:0:0:
288,344,72310,1,0,0:0:0:0:
304,184,72318,5,14,0:3:0:0:
304,184,72318,5,14,0:3:0:0:
368,144,72318,1,14,0:3:0:0:
272,328,72335,1,0,0:0:0:0:
272,328,72335,1,0,0:0:0:0:
344,88,72351,5,14,0:3:0:0:
344,88,72351,5,14,0:3:0:0:
216,16,72351,1,14,0:3:0:0:
216,16,72351,1,14,0:3:0:0:
224,320,72360,1,0,0:0:0:0:
224,320,72360,1,0,0:0:0:0:
368,344,72385,1,0,0:0:0:0:
368,344,72385,1,0,0:0:0:0:
144,320,72385,1,0,0:0:0:0:
144,320,72385,1,0,0:0:0:0:
99,67,72401,1,0,0:0:0:0:
99,67,72401,1,0,0:0:0:0:
384,320,72410,1,0,0:0:0:0:
384,320,72410,1,0,0:0:0:0:
392,48,72418,5,14,0:3:0:0:
392,48,72418,5,14,0:3:0:0:
336,0,72418,1,14,0:3:0:0:
392,280,72435,1,0,0:0:0:0:
392,280,72435,1,0,0:0:0:0:
176,320,72435,1,0,0:0:0:0:
176,320,72435,1,0,0:0:0:0:
304,80,72451,5,14,0:3:0:0:
304,80,72451,5,14,0:3:0:0:
144,184,72451,1,14,0:3:0:0:
144,184,72451,1,14,0:3:0:0:
90,84,72451,1,0,0:0:0:0:
90,84,72451,1,0,0:0:0:0:
400,224,72460,1,0,0:0:0:0:
400,224,72460,1,0,0:0:0:0:
112,312,72460,1,0,0:0:0:0:
112,312,72460,1,0,0:0:0:0:
384,144,72485,1,0,0:0:0:0:
384,144,72485,1,0,0:0:0:0:
88,280,72485,1,0,0:0:0:0:
88,280,72485,1,0,0:0:0:0:
83,103,72501,1,0,0:0:0:0:
83,103,72501,1,0,0:0:0:0:
344,96,72510,1,0,0:0:0:0:
344,96,72510,1,0,0:0:0:0:
96,248,72510,1,0,0:0:0:0:
96,248,72510,1,0,0:0:0:0:
264,144,72518,1,14,0:3:0:0:
312,64,72535,1,0,0:0:0:0:
312,64,72535,1,0,0:0:0:0:
96,216,72535,1,0,0:0:0:0:
96,216,72535,1,0,0:0:0:0:
188,251,72550,2,0,B|368:192|256:248,1,162.5
188,251,72550,2,0,B|368:192|256:248,1,162.5
280,96,72551,1,14,0:3:0:0:
280,96,72551,1,14,0:3:0:0:
472,112,72551,1,14,0:3:0:0:
472,112,72551,1,14,0:3:0:0:
78,122,72551,1,0,0:0:0:0:
78,122,72551,1,0,0:0:0:0:
272,40,72560,1,0,0:0:0:0:
272,40,72560,1,0,0:0:0:0:
128,168,72560,1,0,0:0:0:0:
128,168,72560,1,0,0:0:0:0:
216,32,72585,1,0,0:0:0:0:
216,32,72585,1,0,0:0:0:0:
160,136,72585,1,0,0:0:0:0:
160,136,72585,1,0,0:0:0:0:
75,142,72601,1,0,0:0:0:0:
75,142,72601,1,0,0:0:0:0:
168,48,72610,1,0,0:0:0:0:
168,48,72610,1,0,0:0:0:0:
192,88,72610,1,0,0:0:0:0:
192,88,72610,1,0,0:0:0:0:
400,56,72618,1,14,0:3:0:0:
120,32,72635,1,0,0:0:0:0:
120,32,72635,1,0,0:0:0:0:
248,112,72635,1,0,0:0:0:0:
248,112,72635,1,0,0:0:0:0:
304,184,72651,5,14,0:3:0:0:
304,184,72651,5,14,0:3:0:0:
392,160,72651,1,14,0:3:0:0:
392,160,72651,1,14,0:3:0:0:
75,161,72651,1,0,0:0:0:0:
75,161,72651,1,0,0:0:0:0:
96,80,72660,1,0,0:0:0:0:
96,80,72660,1,0,0:0:0:0:
264,208,72660,1,0,0:0:0:0:
264,208,72660,1,0,0:0:0:0:
104,112,72685,1,0,0:0:0:0:
104,112,72685,1,0,0:0:0:0:
320,272,72685,1,0,0:0:0:0:
320,272,72685,1,0,0:0:0:0:
77,181,72701,1,0,0:0:0:0:
77,181,72701,1,0,0:0:0:0:
104,160,72710,1,0,0:0:0:0:
104,160,72710,1,0,0:0:0:0:
336,232,72710,1,0,0:0:0:0:
336,232,72710,1,0,0:0:0:0:
368,344,72718,1,0,0:0:0:0:
368,344,72718,1,0,0:0:0:0:
248,184,72718,1,14,0:3:0:0:
120,176,72735,1,0,0:0:0:0:
120,176,72735,1,0,0:0:0:0:
352,184,72735,1,0,0:0:0:0:
352,184,72735,1,0,0:0:0:0:
384,320,72743,1,0,0:0:0:0:
384,320,72743,1,0,0:0:0:0:
360,104,72751,5,14,0:3:0:0:
360,104,72751,5,14,0:3:0:0:
392,48,72751,5,14,0:3:0:0:
392,48,72751,5,14,0:3:0:0:
81,201,72751,1,0,0:0:0:0:
81,201,72751,1,0,0:0:0:0:
128,224,72760,1,0,0:0:0:0:
128,224,72760,1,0,0:0:0:0:
352,128,72760,1,0,0:0:0:0:
352,128,72760,1,0,0:0:0:0:
392,280,72768,1,0,0:0:0:0:
392,280,72768,1,0,0:0:0:0:
128,304,72785,1,0,0:0:0:0:
128,304,72785,1,0,0:0:0:0:
344,80,72785,1,0,0:0:0:0:
344,80,72785,1,0,0:0:0:0:
400,224,72793,1,0,0:0:0:0:
400,224,72793,1,0,0:0:0:0:
381,349,72801,1,0,0:0:0:0:
381,349,72801,1,0,0:0:0:0:
88,219,72801,1,0,0:0:0:0:
88,219,72801,1,0,0:0:0:0:
312,48,72810,1,0,0:0:0:0:
312,48,72810,1,0,0:0:0:0:
384,144,72818,1,0,0:0:0:0:
384,144,72818,1,0,0:0:0:0:
216,16,72818,1,14,0:3:0:0:
128,272,72835,1,0,0:0:0:0:
128,272,72835,1,0,0:0:0:0:
272,48,72835,1,0,0:0:0:0:
272,48,72835,1,0,0:0:0:0:
344,96,72843,1,0,0:0:0:0:
344,96,72843,1,0,0:0:0:0:
350,295,72850,2,0,B|144:264|368:296,3,216.666666666667
350,295,72850,2,0,B|144:264|368:296,3,216.666666666667
368,144,72851,5,14,0:3:0:0:
368,144,72851,5,14,0:3:0:0:
364,358,72851,1,0,0:0:0:0:
364,358,72851,1,0,0:0:0:0:
96,237,72851,1,0,0:0:0:0:
96,237,72851,1,0,0:0:0:0:
136,336,72860,1,0,0:0:0:0:
136,336,72860,1,0,0:0:0:0:
208,48,72860,1,0,0:0:0:0:
208,48,72860,1,0,0:0:0:0:
312,64,72868,1,0,0:0:0:0:
312,64,72868,1,0,0:0:0:0:
168,360,72885,1,0,0:0:0:0:
168,360,72885,1,0,0:0:0:0:
120,96,72885,1,0,0:0:0:0:
120,96,72885,1,0,0:0:0:0:
272,40,72893,1,0,0:0:0:0:
272,40,72893,1,0,0:0:0:0:
345,365,72901,1,0,0:0:0:0:
345,365,72901,1,0,0:0:0:0:
107,254,72901,1,0,0:0:0:0:
107,254,72901,1,0,0:0:0:0:
200,352,72910,1,0,0:0:0:0:
200,352,72910,1,0,0:0:0:0:
112,128,72910,1,0,0:0:0:0:
112,128,72910,1,0,0:0:0:0:
216,32,72918,1,0,0:0:0:0:
216,32,72918,1,0,0:0:0:0:
144,184,72918,1,14,0:3:0:0:
232,352,72935,1,0,0:0:0:0:
232,352,72935,1,0,0:0:0:0:
112,216,72935,1,0,0:0:0:0:
112,216,72935,1,0,0:0:0:0:
168,48,72943,1,0,0:0:0:0:
168,48,72943,1,0,0:0:0:0:
336,0,72951,1,14,0:3:0:0:
336,0,72951,1,14,0:3:0:0:
326,370,72951,1,0,0:0:0:0:
326,370,72951,1,0,0:0:0:0:
119,269,72951,1,0,0:0:0:0:
119,269,72951,1,0,0:0:0:0:
280,320,72960,1,0,0:0:0:0:
280,320,72960,1,0,0:0:0:0:
328,288,72960,1,0,0:0:0:0:
328,288,72960,1,0,0:0:0:0:
120,32,72968,1,0,0:0:0:0:
120,32,72968,1,0,0:0:0:0:
312,288,72985,1,0,0:0:0:0:
312,288,72985,1,0,0:0:0:0:
272,296,72985,1,0,0:0:0:0:
272,296,72985,1,0,0:0:0:0:
96,80,72993,1,0,0:0:0:0:
96,80,72993,1,0,0:0:0:0:
306,373,73001,1,0,0:0:0:0:
306,373,73001,1,0,0:0:0:0:
134,283,73001,1,0,0:0:0:0:
134,283,73001,1,0,0:0:0:0:
360,256,73010,1,0,0:0:0:0:
360,256,73010,1,0,0:0:0:0:
416,128,73010,1,0,0:0:0:0:
416,128,73010,1,0,0:0:0:0:
104,112,73018,1,0,0:0:0:0:
104,112,73018,1,0,0:0:0:0:
280,96,73018,1,14,0:3:0:0:
336,200,73035,1,0,0:0:0:0:
336,200,73035,1,0,0:0:0:0:
104,160,73043,1,0,0:0:0:0:
104,160,73043,1,0,0:0:0:0:
264,144,73051,5,14,0:3:0:0:
264,144,73051,5,14,0:3:0:0:
287,373,73051,1,0,0:0:0:0:
287,373,73051,1,0,0:0:0:0:
149,295,73051,1,0,0:0:0:0:
149,295,73051,1,0,0:0:0:0:
240,184,73060,1,0,0:0:0:0:
240,184,73060,1,0,0:0:0:0:
384,88,73060,1,0,0:0:0:0:
384,88,73060,1,0,0:0:0:0:
120,176,73068,1,0,0:0:0:0:
120,176,73068,1,0,0:0:0:0:
176,128,73085,1,0,0:0:0:0:
176,128,73085,1,0,0:0:0:0:
288,96,73085,1,0,0:0:0:0:
288,96,73085,1,0,0:0:0:0:
128,224,73093,1,0,0:0:0:0:
128,224,73093,1,0,0:0:0:0:
267,371,73101,1,0,0:0:0:0:
267,371,73101,1,0,0:0:0:0:
166,305,73101,1,0,0:0:0:0:
166,305,73101,1,0,0:0:0:0:
216,112,73110,1,0,0:0:0:0:
216,112,73110,1,0,0:0:0:0:
168,96,73110,1,0,0:0:0:0:
168,96,73110,1,0,0:0:0:0:
128,304,73118,1,0,0:0:0:0:
128,304,73118,1,0,0:0:0:0:
392,160,73118,1,14,0:3:0:0:
381,349,73134,1,0,0:0:0:0:
381,349,73134,1,0,0:0:0:0:
264,96,73135,1,0,0:0:0:0:
264,96,73135,1,0,0:0:0:0:
136,200,73135,1,0,0:0:0:0:
136,200,73135,1,0,0:0:0:0:
400,56,73151,5,14,0:3:0:0:
400,56,73151,5,14,0:3:0:0:
247,367,73151,1,0,0:0:0:0:
247,367,73151,1,0,0:0:0:0:
184,314,73151,1,0,0:0:0:0:
184,314,73151,1,0,0:0:0:0:
320,96,73160,1,0,0:0:0:0:
320,96,73160,1,0,0:0:0:0:
128,240,73160,1,0,0:0:0:0:
128,240,73160,1,0,0:0:0:0:
128,272,73168,1,0,0:0:0:0:
128,272,73168,1,0,0:0:0:0:
364,358,73184,1,0,0:0:0:0:
364,358,73184,1,0,0:0:0:0:
368,104,73185,1,0,0:0:0:0:
368,104,73185,1,0,0:0:0:0:
152,280,73185,1,0,0:0:0:0:
152,280,73185,1,0,0:0:0:0:
136,336,73193,1,0,0:0:0:0:
136,336,73193,1,0,0:0:0:0:
229,360,73201,1,0,0:0:0:0:
229,360,73201,1,0,0:0:0:0:
203,320,73201,1,0,0:0:0:0:
203,320,73201,1,0,0:0:0:0:
400,136,73210,1,0,0:0:0:0:
400,136,73210,1,0,0:0:0:0:
224,280,73210,1,0,0:0:0:0:
224,280,73210,1,0,0:0:0:0:
360,104,73218,5,14,0:3:0:0:
168,360,73218,1,0,0:0:0:0:
168,360,73218,1,0,0:0:0:0:
345,365,73234,1,0,0:0:0:0:
345,365,73234,1,0,0:0:0:0:
400,176,73235,1,0,0:0:0:0:
400,176,73235,1,0,0:0:0:0:
272,256,73235,1,0,0:0:0:0:
272,256,73235,1,0,0:0:0:0:
200,352,73243,1,0,0:0:0:0:
200,352,73243,1,0,0:0:0:0:
256,192,73250,8,8,73450,0:0:0:0:
256,192,73250,8,8,73450,0:0:0:0:
211,352,73251,5,0,0:0:0:0:
211,352,73251,1,0,0:0:0:0:
223,323,73251,1,0,0:0:0:0:
223,323,73251,1,0,0:0:0:0:
400,240,73260,1,0,0:0:0:0:
400,240,73260,1,0,0:0:0:0:
336,168,73260,1,0,0:0:0:0:
336,168,73260,1,0,0:0:0:0:
232,352,73268,1,0,0:0:0:0:
232,352,73268,1,0,0:0:0:0:
326,370,73284,1,0,0:0:0:0:
326,370,73284,1,0,0:0:0:0:
352,328,73285,1,0,0:0:0:0:
352,328,73285,1,0,0:0:0:0:
384,96,73285,1,0,0:0:0:0:
384,96,73285,1,0,0:0:0:0:
280,320,73293,1,0,0:0:0:0:
280,320,73293,1,0,0:0:0:0:
194,341,73301,1,0,0:0:0:0:
194,341,73301,1,0,0:0:0:0:
242,325,73301,1,0,0:0:0:0:
242,325,73301,1,0,0:0:0:0:
320,336,73310,1,0,0:0:0:0:
320,336,73310,1,0,0:0:0:0:
400,168,73310,1,0,0:0:0:0:
400,168,73310,1,0,0:0:0:0:
368,144,73318,5,14,0:3:0:0:
312,288,73318,1,0,0:0:0:0:
312,288,73318,1,0,0:0:0:0:
306,373,73334,1,0,0:0:0:0:
306,373,73334,1,0,0:0:0:0:
232,336,73335,1,0,0:0:0:0:
232,336,73335,1,0,0:0:0:0:
400,280,73335,1,0,0:0:0:0:
400,280,73335,1,0,0:0:0:0:
360,256,73343,1,0,0:0:0:0:
360,256,73343,1,0,0:0:0:0:
179,329,73351,1,0,0:0:0:0:
179,329,73351,1,0,0:0:0:0:
262,324,73351,1,0,0:0:0:0:
262,324,73351,1,0,0:0:0:0:
160,120,73360,1,0,0:0:0:0:
160,120,73360,1,0,0:0:0:0:
384,344,73360,1,0,0:0:0:0:
384,344,73360,1,0,0:0:0:0:
336,200,73368,1,0,0:0:0:0:
336,200,73368,1,0,0:0:0:0:
287,373,73384,1,0,0:0:0:0:
287,373,73384,1,0,0:0:0:0:
152,176,73385,1,0,0:0:0:0:
152,176,73385,1,0,0:0:0:0:
288,352,73385,1,0,0:0:0:0:
288,352,73385,1,0,0:0:0:0:
240,184,73393,1,0,0:0:0:0:
240,184,73393,1,0,0:0:0:0:
165,314,73401,1,0,0:0:0:0:
165,314,73401,1,0,0:0:0:0:
282,321,73401,1,0,0:0:0:0:
282,321,73401,1,0,0:0:0:0:
320,32,73410,1,0,0:0:0:0:
320,32,73410,1,0,0:0:0:0:
224,360,73410,1,0,0:0:0:0:
224,360,73410,1,0,0:0:0:0:
176,128,73418,1,0,0:0:0:0:
176,128,73418,1,0,0:0:0:0:
336,0,73418,1,14,0:3:0:0:
267,371,73434,1,0,0:0:0:0:
267,371,73434,1,0,0:0:0:0:
168,360,73435,1,0,0:0:0:0:
168,360,73435,1,0,0:0:0:0:
216,112,73443,1,0,0:0:0:0:
216,112,73443,1,0,0:0:0:0:
153,299,73451,1,0,0:0:0:0:
153,299,73451,1,0,0:0:0:0:
301,316,73451,1,0,0:0:0:0:
301,316,73451,1,0,0:0:0:0:
360,64,73460,1,0,0:0:0:0:
360,64,73460,1,0,0:0:0:0:
128,344,73460,1,0,0:0:0:0:
128,344,73460,1,0,0:0:0:0:
264,96,73468,1,0,0:0:0:0:
264,96,73468,1,0,0:0:0:0:
247,367,73484,1,0,0:0:0:0:
247,367,73484,1,0,0:0:0:0:
352,160,73485,1,0,0:0:0:0:
352,160,73485,1,0,0:0:0:0:
104,320,73485,1,0,0:0:0:0:
104,320,73485,1,0,0:0:0:0:
320,96,73493,1,0,0:0:0:0:
320,96,73493,1,0,0:0:0:0:
143,282,73501,1,0,0:0:0:0:
143,282,73501,1,0,0:0:0:0:
319,308,73501,1,0,0:0:0:0:
319,308,73501,1,0,0:0:0:0:
352,280,73510,1,0,0:0:0:0:
352,280,73510,1,0,0:0:0:0:
80,288,73510,1,0,0:0:0:0:
80,288,73510,1,0,0:0:0:0:
264,144,73518,5,14,0:3:0:0:
368,104,73518,1,0,0:0:0:0:
368,104,73518,1,0,0:0:0:0:
229,360,73534,1,0,0:0:0:0:
229,360,73534,1,0,0:0:0:0:
248,312,73535,1,0,0:0:0:0:
248,312,73535,1,0,0:0:0:0:
72,224,73535,1,0,0:0:0:0:
72,224,73535,1,0,0:0:0:0:
400,136,73543,1,0,0:0:0:0:
400,136,73543,1,0,0:0:0:0:
134,264,73551,1,0,0:0:0:0:
134,264,73551,1,0,0:0:0:0:
336,299,73551,1,0,0:0:0:0:
336,299,73551,1,0,0:0:0:0:
208,320,73560,1,0,0:0:0:0:
208,320,73560,1,0,0:0:0:0:
80,184,73560,1,0,0:0:0:0:
80,184,73560,1,0,0:0:0:0:
400,176,73568,1,0,0:0:0:0:
400,176,73568,1,0,0:0:0:0:
211,352,73584,1,0,0:0:0:0:
211,352,73584,1,0,0:0:0:0:
168,296,73585,1,0,0:0:0:0:
168,296,73585,1,0,0:0:0:0:
120,96,73585,1,0,0:0:0:0:
120,96,73585,1,0,0:0:0:0:
400,240,73593,1,0,0:0:0:0:
400,240,73593,1,0,0:0:0:0:
128,245,73601,1,0,0:0:0:0:
128,245,73601,1,0,0:0:0:0:
353,287,73601,1,0,0:0:0:0:
353,287,73601,1,0,0:0:0:0:
168,224,73610,1,0,0:0:0:0:
168,224,73610,1,0,0:0:0:0:
400,56,73618,5,14,0:3:0:0:
352,328,73618,1,0,0:0:0:0:
352,328,73618,1,0,0:0:0:0:
194,341,73634,1,0,0:0:0:0:
194,341,73634,1,0,0:0:0:0:
192,176,73635,1,0,0:0:0:0:
192,176,73635,1,0,0:0:0:0:
96,136,73635,1,0,0:0:0:0:
96,136,73635,1,0,0:0:0:0:
320,336,73643,1,0,0:0:0:0:
320,336,73643,1,0,0:0:0:0:
125,225,73651,1,0,0:0:0:0:
125,225,73651,1,0,0:0:0:0:
367,274,73651,1,0,0:0:0:0:
367,274,73651,1,0,0:0:0:0:
280,112,73660,1,0,0:0:0:0:
280,112,73660,1,0,0:0:0:0:
160,56,73660,1,0,0:0:0:0:
160,56,73660,1,0,0:0:0:0:
232,336,73668,1,0,0:0:0:0:
232,336,73668,1,0,0:0:0:0:
179,329,73684,1,0,0:0:0:0:
179,329,73684,1,0,0:0:0:0:
352,64,73685,1,0,0:0:0:0:
352,64,73685,1,0,0:0:0:0:
224,120,73685,1,0,0:0:0:0:
224,120,73685,1,0,0:0:0:0:
160,120,73693,1,0,0:0:0:0:
160,120,73693,1,0,0:0:0:0:
123,206,73701,1,0,0:0:0:0:
123,206,73701,1,0,0:0:0:0:
380,259,73701,1,0,0:0:0:0:
380,259,73701,1,0,0:0:0:0:
280,48,73710,1,0,0:0:0:0:
280,48,73710,1,0,0:0:0:0:
152,176,73718,1,0,0:0:0:0:
152,176,73718,1,0,0:0:0:0:
165,314,73734,1,0,0:0:0:0:
165,314,73734,1,0,0:0:0:0:
168,48,73735,1,0,0:0:0:0:
168,48,73735,1,0,0:0:0:0:
320,32,73743,1,0,0:0:0:0:
320,32,73743,1,0,0:0:0:0:
124,186,73751,1,0,0:0:0:0:
124,186,73751,1,0,0:0:0:0:
391,243,73751,1,0,0:0:0:0:
391,243,73751,1,0,0:0:0:0:
104,64,73760,1,0,0:0:0:0:
104,64,73760,1,0,0:0:0:0:
153,299,73784,1,0,0:0:0:0:
153,299,73784,1,0,0:0:0:0:
96,160,73785,1,0,0:0:0:0:
96,160,73785,1,0,0:0:0:0:
360,64,73793,1,0,0:0:0:0:
360,64,73793,1,0,0:0:0:0:
127,166,73801,1,0,0:0:0:0:
127,166,73801,1,0,0:0:0:0:
401,225,73801,1,0,0:0:0:0:
401,225,73801,1,0,0:0:0:0:
88,224,73810,1,0,0:0:0:0:
88,224,73810,1,0,0:0:0:0:
256,192,73818,12,0,73851,0:0:0:0:
256,192,73818,12,0,73851,0:0:0:0:
352,160,73818,5,0,0:0:0:0:
352,160,73818,1,0,0:0:0:0:
143,282,73834,1,0,0:0:0:0:
143,282,73834,1,0,0:0:0:0:
88,280,73835,1,0,0:0:0:0:
88,280,73835,1,0,0:0:0:0:
352,280,73843,1,0,0:0:0:0:
352,280,73843,1,0,0:0:0:0:
408,207,73851,5,0,0:0:0:0:
132,147,73851,1,0,0:0:0:0:
132,147,73851,1,0,0:0:0:0:
408,207,73851,1,0,0:0:0:0:
256,192,73851,8,0,74084,0:0:0:0:
256,192,73851,8,0,74084,0:0:0:0:
104,320,73860,5,0,0:0:0:0:
104,320,73860,1,0,0:0:0:0:
248,312,73868,1,0,0:0:0:0:
248,312,73868,1,0,0:0:0:0:
134,264,73884,1,0,0:0:0:0:
134,264,73884,1,0,0:0:0:0:
128,344,73885,1,0,0:0:0:0:
128,344,73885,1,0,0:0:0:0:
208,320,73893,1,0,0:0:0:0:
208,320,73893,1,0,0:0:0:0:
140,129,73901,1,0,0:0:0:0:
140,129,73901,1,0,0:0:0:0:
413,187,73901,1,0,0:0:0:0:
413,187,73901,1,0,0:0:0:0:
160,368,73910,1,0,0:0:0:0:
160,368,73910,1,0,0:0:0:0:
168,296,73918,1,0,0:0:0:0:
168,296,73918,1,0,0:0:0:0:
128,245,73934,1,0,0:0:0:0:
128,245,73934,1,0,0:0:0:0:
224,376,73935,1,0,0:0:0:0:
224,376,73935,1,0,0:0:0:0:
168,224,73943,1,0,0:0:0:0:
168,224,73943,1,0,0:0:0:0:
149,112,73951,1,0,0:0:0:0:
149,112,73951,1,0,0:0:0:0:
416,168,73951,1,0,0:0:0:0:
416,168,73951,1,0,0:0:0:0:
264,368,73960,1,0,0:0:0:0:
264,368,73960,1,0,0:0:0:0:
192,176,73968,1,0,0:0:0:0:
192,176,73968,1,0,0:0:0:0:
125,225,73984,1,0,0:0:0:0:
125,225,73984,1,0,0:0:0:0:
352,328,73985,1,0,0:0:0:0:
352,328,73985,1,0,0:0:0:0:
280,112,73993,1,0,0:0:0:0:
280,112,73993,1,0,0:0:0:0:
161,95,74001,1,0,0:0:0:0:
161,95,74001,1,0,0:0:0:0:
416,148,74001,1,0,0:0:0:0:
416,148,74001,1,0,0:0:0:0:
352,64,74018,1,0,0:0:0:0:
352,64,74018,1,0,0:0:0:0:
123,206,74034,1,0,0:0:0:0:
123,206,74034,1,0,0:0:0:0:
312,352,74035,1,0,0:0:0:0:
312,352,74035,1,0,0:0:0:0:
280,48,74043,1,0,0:0:0:0:
280,48,74043,1,0,0:0:0:0:
174,81,74051,1,0,0:0:0:0:
174,81,74051,1,0,0:0:0:0:
414,128,74051,1,0,0:0:0:0:
414,128,74051,1,0,0:0:0:0:
392,288,74060,1,0,0:0:0:0:
392,288,74060,1,0,0:0:0:0:
168,48,74068,1,0,0:0:0:0:
168,48,74068,1,0,0:0:0:0:
124,186,74084,1,0,0:0:0:0:
124,186,74084,1,0,0:0:0:0:
328,224,74085,1,0,0:0:0:0:
328,224,74085,1,0,0:0:0:0:
104,64,74093,1,0,0:0:0:0:
104,64,74093,1,0,0:0:0:0:
189,68,74101,1,0,0:0:0:0:
189,68,74101,1,0,0:0:0:0:
410,109,74101,1,0,0:0:0:0:
410,109,74101,1,0,0:0:0:0:
96,160,74118,1,0,0:0:0:0:
96,160,74118,1,0,0:0:0:0:
127,166,74134,1,0,0:0:0:0:
127,166,74134,1,0,0:0:0:0:
88,224,74143,1,0,0:0:0:0:
88,224,74143,1,0,0:0:0:0:
205,57,74151,1,0,0:0:0:0:
205,57,74151,1,0,0:0:0:0:
404,90,74151,1,0,0:0:0:0:
404,90,74151,1,0,0:0:0:0:
88,280,74168,1,0,0:0:0:0:
88,280,74168,1,0,0:0:0:0:
132,147,74184,1,0,0:0:0:0:
132,147,74184,1,0,0:0:0:0:
104,320,74193,1,0,0:0:0:0:
104,320,74193,1,0,0:0:0:0:
223,47,74201,1,0,0:0:0:0:
223,47,74201,1,0,0:0:0:0:
395,72,74201,1,0,0:0:0:0:
395,72,74201,1,0,0:0:0:0:
128,344,74218,1,0,0:0:0:0:
128,344,74218,1,0,0:0:0:0:
140,129,74234,1,0,0:0:0:0:
140,129,74234,1,0,0:0:0:0:
160,368,74243,1,0,0:0:0:0:
160,368,74243,1,0,0:0:0:0:
241,40,74251,1,0,0:0:0:0:
241,40,74251,1,0,0:0:0:0:
384,56,74251,1,0,0:0:0:0:
384,56,74251,1,0,0:0:0:0:
224,376,74268,1,0,0:0:0:0:
224,376,74268,1,0,0:0:0:0:
149,112,74284,1,0,0:0:0:0:
149,112,74284,1,0,0:0:0:0:
264,368,74293,1,0,0:0:0:0:
264,368,74293,1,0,0:0:0:0:
261,35,74301,1,0,0:0:0:0:
261,35,74301,1,0,0:0:0:0:
352,328,74318,1,0,0:0:0:0:
352,328,74318,1,0,0:0:0:0:
161,95,74334,1,0,0:0:0:0:
161,95,74334,1,0,0:0:0:0:
328,224,74350,1,0,0:0:0:0:
328,224,74350,1,0,0:0:0:0:
280,32,74351,1,0,0:0:0:0:
280,32,74351,1,0,0:0:0:0:
312,352,74368,1,0,0:0:0:0:
312,352,74368,1,0,0:0:0:0:
392,288,74375,1,0,0:0:0:0:
392,288,74375,1,0,0:0:0:0:
174,81,74384,1,0,0:0:0:0:
174,81,74384,1,0,0:0:0:0:
392,288,74393,1,0,0:0:0:0:
392,288,74393,1,0,0:0:0:0:
312,352,74400,1,0,0:0:0:0:
312,352,74400,1,0,0:0:0:0:
300,32,74401,1,0,0:0:0:0:
300,32,74401,1,0,0:0:0:0:
160,296,74401,1,0,0:0:0:0:
160,296,74401,1,0,0:0:0:0:
328,224,74418,1,0,0:0:0:0:
328,224,74418,1,0,0:0:0:0:
189,68,74434,1,0,0:0:0:0:
189,68,74434,1,0,0:0:0:0:
352,328,74450,1,0,0:0:0:0:
352,328,74450,1,0,0:0:0:0:
320,34,74451,1,0,0:0:0:0:
320,34,74451,1,0,0:0:0:0:
48,136,74451,1,0,0:0:0:0:
48,136,74451,1,0,0:0:0:0:
264,368,74475,1,0,0:0:0:0:
264,368,74475,1,0,0:0:0:0:
205,57,74484,1,0,0:0:0:0:
205,57,74484,1,0,0:0:0:0:
280,144,74484,1,8,0:0:0:0:
280,144,74484,1,8,0:0:0:0:
224,376,74500,1,0,0:0:0:0:
224,376,74500,1,0,0:0:0:0:
339,38,74501,1,0,0:0:0:0:
339,38,74501,1,0,0:0:0:0:
256,176,74501,1,0,0:0:0:0:
256,176,74501,1,0,0:0:0:0:
160,368,74525,1,0,0:0:0:0:
160,368,74525,1,0,0:0:0:0:
223,47,74534,1,0,0:0:0:0:
223,47,74534,1,0,0:0:0:0:
128,344,74550,1,0,0:0:0:0:
128,344,74550,1,0,0:0:0:0:
358,44,74551,1,0,0:0:0:0:
358,44,74551,1,0,0:0:0:0:
48,240,74551,1,0,0:0:0:0:
48,240,74551,1,0,0:0:0:0:
104,320,74575,1,0,0:0:0:0:
104,320,74575,1,0,0:0:0:0:
241,40,74584,1,0,0:0:0:0:
241,40,74584,1,0,0:0:0:0:
256,192,74585,12,8,74785,0:0:0:0:
256,192,74585,12,8,74785,0:0:0:0:
88,280,74600,5,0,0:0:0:0:
88,280,74600,1,0,0:0:0:0:
376,53,74601,1,0,0:0:0:0:
376,53,74601,1,0,0:0:0:0:
88,64,74601,1,0,0:0:0:0:
88,64,74601,1,0,0:0:0:0:
88,224,74625,1,0,0:0:0:0:
88,224,74625,1,0,0:0:0:0:
261,35,74634,1,0,0:0:0:0:
261,35,74634,1,0,0:0:0:0:
96,160,74650,1,0,0:0:0:0:
96,160,74650,1,0,0:0:0:0:
392,64,74651,1,0,0:0:0:0:
392,64,74651,1,0,0:0:0:0:
344,304,74651,1,0,0:0:0:0:
344,304,74651,1,0,0:0:0:0:
104,64,74675,1,0,0:0:0:0:
104,64,74675,1,0,0:0:0:0:
280,32,74684,1,0,0:0:0:0:
280,32,74684,1,0,0:0:0:0:
168,48,74700,1,0,0:0:0:0:
168,48,74700,1,0,0:0:0:0:
216,136,74701,1,0,0:0:0:0:
216,136,74701,1,0,0:0:0:0:
280,48,74725,1,0,0:0:0:0:
280,48,74725,1,0,0:0:0:0:
300,32,74734,1,0,0:0:0:0:
300,32,74734,1,0,0:0:0:0:
352,64,74750,1,0,0:0:0:0:
352,64,74750,1,0,0:0:0:0:
408,184,74751,1,0,0:0:0:0:
408,184,74751,1,0,0:0:0:0:
280,112,74775,1,0,0:0:0:0:
280,112,74775,1,0,0:0:0:0:
320,34,74784,1,0,0:0:0:0:
320,34,74784,1,0,0:0:0:0:
192,176,74800,1,0,0:0:0:0:
192,176,74800,1,0,0:0:0:0:
152,288,74801,1,0,0:0:0:0:
152,288,74801,1,0,0:0:0:0:
216,272,74801,1,0,0:0:0:0:
216,272,74801,1,0,0:0:0:0:
168,224,74825,1,0,0:0:0:0:
168,224,74825,1,0,0:0:0:0:
339,38,74834,1,0,0:0:0:0:
339,38,74834,1,0,0:0:0:0:
168,296,74850,1,0,0:0:0:0:
168,296,74850,1,0,0:0:0:0:
312,400,74851,1,0,0:0:0:0:
312,400,74851,1,0,0:0:0:0:
288,96,74851,1,0,0:0:0:0:
288,96,74851,1,0,0:0:0:0:
208,320,74875,1,0,0:0:0:0:
208,320,74875,1,0,0:0:0:0:
358,44,74884,1,0,0:0:0:0:
358,44,74884,1,0,0:0:0:0:
248,312,74900,1,0,0:0:0:0:
248,312,74900,1,0,0:0:0:0:
272,192,74901,1,0,0:0:0:0:
272,192,74901,1,0,0:0:0:0:
328,320,74901,1,0,0:0:0:0:
328,320,74901,1,0,0:0:0:0:
352,280,74925,1,0,0:0:0:0:
352,280,74925,1,0,0:0:0:0:
376,53,74934,1,0,0:0:0:0:
376,53,74934,1,0,0:0:0:0:
352,160,74950,1,0,0:0:0:0:
352,160,74950,1,0,0:0:0:0:
208,400,74951,1,0,0:0:0:0:
208,400,74951,1,0,0:0:0:0:
80,296,74951,1,0,0:0:0:0:
80,296,74951,1,0,0:0:0:0:
360,64,74975,1,0,0:0:0:0:
360,64,74975,1,0,0:0:0:0:
392,64,74984,1,0,0:0:0:0:
392,64,74984,1,0,0:0:0:0:
256,192,74985,12,8,75185,0:0:0:0:
256,192,74985,12,8,75185,0:0:0:0:
384,360,75001,5,0,0:0:0:0:
384,360,75001,1,0,0:0:0:0:
416,48,75001,1,0,0:0:0:0:
416,48,75001,1,0,0:0:0:0:
320,32,75025,5,0,0:0:0:0:
320,32,75025,5,0,0:0:0:0:
152,176,75050,5,0,0:0:0:0:
152,176,75050,5,0,0:0:0:0:
144,104,75051,1,0,0:0:0:0:
144,104,75051,1,0,0:0:0:0:
432,336,75051,1,0,0:0:0:0:
432,336,75051,1,0,0:0:0:0:
160,120,75075,1,0,0:0:0:0:
160,120,75075,1,0,0:0:0:0:
232,336,75100,1,0,0:0:0:0:
232,336,75100,1,0,0:0:0:0:
312,232,75101,1,0,0:0:0:0:
312,232,75101,1,0,0:0:0:0:
208,192,75101,1,0,0:0:0:0:
208,192,75101,1,0,0:0:0:0:
320,336,75125,1,0,0:0:0:0:
320,336,75125,1,0,0:0:0:0:
152,288,75134,1,0,0:0:0:0:
152,288,75134,1,0,0:0:0:0:
352,328,75150,1,0,0:0:0:0:
352,328,75150,1,0,0:0:0:0:
264,40,75151,1,0,0:0:0:0:
264,40,75151,1,0,0:0:0:0:
64,176,75151,1,0,0:0:0:0:
64,176,75151,1,0,0:0:0:0:
400,240,75175,1,0,0:0:0:0:
400,240,75175,1,0,0:0:0:0:
312,400,75184,1,0,0:0:0:0:
312,400,75184,1,0,0:0:0:0:
152,80,75185,6,0,B|184:304|152:96,3,216.666666666667
152,80,75185,6,0,B|184:304|152:96,3,216.666666666667
400,176,75200,1,0,0:0:0:0:
400,176,75200,1,0,0:0:0:0:
176,232,75201,1,0,0:0:0:0:
176,232,75201,1,0,0:0:0:0:
96,368,75201,1,0,0:0:0:0:
96,368,75201,1,0,0:0:0:0:
400,136,75225,1,0,0:0:0:0:
400,136,75225,1,0,0:0:0:0:
272,192,75234,1,0,0:0:0:0:
272,192,75234,1,0,0:0:0:0:
368,104,75250,1,0,0:0:0:0:
368,104,75250,1,0,0:0:0:0:
352,160,75251,1,0,0:0:0:0:
352,160,75251,1,0,0:0:0:0:
272,64,75251,1,0,0:0:0:0:
272,64,75251,1,0,0:0:0:0:
320,96,75275,1,0,0:0:0:0:
320,96,75275,1,0,0:0:0:0:
208,400,75284,1,0,0:0:0:0:
208,400,75284,1,0,0:0:0:0:
264,96,75300,1,0,0:0:0:0:
264,96,75300,1,0,0:0:0:0:
128,120,75301,1,0,0:0:0:0:
128,120,75301,1,0,0:0:0:0:
232,272,75301,1,0,0:0:0:0:
232,272,75301,1,0,0:0:0:0:
256,192,75318,12,8,75518,0:0:0:0:
256,192,75318,12,8,75518,0:0:0:0:
216,112,75325,5,0,0:0:0:0:
216,112,75325,1,0,0:0:0:0:
384,360,75334,1,0,0:0:0:0:
384,360,75334,1,0,0:0:0:0:
176,128,75350,1,0,0:0:0:0:
176,128,75350,1,0,0:0:0:0:
152,368,75351,1,0,0:0:0:0:
152,368,75351,1,0,0:0:0:0:
88,88,75351,1,0,0:0:0:0:
88,88,75351,1,0,0:0:0:0:
240,184,75375,1,0,0:0:0:0:
240,184,75375,1,0,0:0:0:0:
144,104,75384,1,0,0:0:0:0:
144,104,75384,1,0,0:0:0:0:
336,200,75400,1,0,0:0:0:0:
336,200,75400,1,0,0:0:0:0:
400,32,75401,1,0,0:0:0:0:
400,32,75401,1,0,0:0:0:0:
272,336,75401,1,0,0:0:0:0:
272,336,75401,1,0,0:0:0:0:
360,256,75425,1,0,0:0:0:0:
360,256,75425,1,0,0:0:0:0:
312,232,75434,1,0,0:0:0:0:
312,232,75434,1,0,0:0:0:0:
312,288,75450,1,0,0:0:0:0:
312,288,75450,1,0,0:0:0:0:
112,16,75451,1,0,0:0:0:0:
112,16,75451,1,0,0:0:0:0:
464,48,75451,1,0,0:0:0:0:
464,48,75451,1,0,0:0:0:0:
280,320,75475,1,0,0:0:0:0:
280,320,75475,1,0,0:0:0:0:
264,40,75484,1,0,0:0:0:0:
264,40,75484,1,0,0:0:0:0:
232,352,75500,1,0,0:0:0:0:
232,352,75500,1,0,0:0:0:0:
256,240,75501,1,0,0:0:0:0:
256,240,75501,1,0,0:0:0:0:
480,280,75501,1,0,0:0:0:0:
480,280,75501,1,0,0:0:0:0:
200,352,75525,1,0,0:0:0:0:
200,352,75525,1,0,0:0:0:0:
176,232,75534,1,0,0:0:0:0:
176,232,75534,1,0,0:0:0:0:
168,360,75550,1,0,0:0:0:0:
168,360,75550,1,0,0:0:0:0:
272,384,75551,1,0,0:0:0:0:
272,384,75551,1,0,0:0:0:0:
96,288,75551,1,0,0:0:0:0:
96,288,75551,1,0,0:0:0:0:
136,336,75575,1,0,0:0:0:0:
136,336,75575,1,0,0:0:0:0:
352,160,75584,1,0,0:0:0:0:
352,160,75584,1,0,0:0:0:0:
368,296,75585,6,0,B|144:264|352:296,3,216.666666666667
368,296,75585,6,0,B|144:264|352:296,3,216.666666666667
128,272,75600,1,0,0:0:0:0:
128,272,75600,1,0,0:0:0:0:
80,352,75601,1,0,0:0:0:0:
80,352,75601,1,0,0:0:0:0:
184,72,75601,1,0,0:0:0:0:
184,72,75601,1,0,0:0:0:0:
128,120,75634,1,0,0:0:0:0:
128,120,75634,1,0,0:0:0:0:
128,304,75650,1,0,0:0:0:0:
128,304,75650,1,0,0:0:0:0:
384,176,75651,1,0,0:0:0:0:
384,176,75651,1,0,0:0:0:0:
344,256,75651,1,0,0:0:0:0:
344,256,75651,1,0,0:0:0:0:
128,224,75675,1,0,0:0:0:0:
128,224,75675,1,0,0:0:0:0:
152,368,75684,1,0,0:0:0:0:
152,368,75684,1,0,0:0:0:0:
120,176,75700,1,0,0:0:0:0:
120,176,75700,1,0,0:0:0:0:
176,216,75701,1,0,0:0:0:0:
176,216,75701,1,0,0:0:0:0:
368,112,75701,1,0,0:0:0:0:
368,112,75701,1,0,0:0:0:0:
104,160,75725,1,0,0:0:0:0:
104,160,75725,1,0,0:0:0:0:
400,32,75734,1,0,0:0:0:0:
400,32,75734,1,0,0:0:0:0:
104,112,75750,1,0,0:0:0:0:
104,112,75750,1,0,0:0:0:0:
360,360,75751,1,0,0:0:0:0:
360,360,75751,1,0,0:0:0:0:
96,80,75775,1,0,0:0:0:0:
96,80,75775,1,0,0:0:0:0:
112,16,75784,1,0,0:0:0:0:
112,16,75784,1,0,0:0:0:0:
120,32,75800,1,0,0:0:0:0:
120,32,75800,1,0,0:0:0:0:
112,176,75801,1,0,0:0:0:0:
112,176,75801,1,0,0:0:0:0:
168,48,75825,1,0,0:0:0:0:
168,48,75825,1,0,0:0:0:0:
256,240,75834,1,0,0:0:0:0:
256,240,75834,1,0,0:0:0:0:
216,32,75850,1,0,0:0:0:0:
216,32,75850,1,0,0:0:0:0:
400,0,75851,1,0,0:0:0:0:
400,0,75851,1,0,0:0:0:0:
272,40,75875,1,0,0:0:0:0:
272,40,75875,1,0,0:0:0:0:
272,384,75884,1,0,0:0:0:0:
272,384,75884,1,0,0:0:0:0:
312,64,75900,1,0,0:0:0:0:
312,64,75900,1,0,0:0:0:0:
168,0,75901,1,0,0:0:0:0:
168,0,75901,1,0,0:0:0:0:
368,296,75918,6,0,B|144:264|352:296,3,216.666666666667
368,296,75918,6,0,B|144:264|352:296,3,216.666666666667
344,96,75925,1,0,0:0:0:0:
344,96,75925,1,0,0:0:0:0:
80,352,75934,1,0,0:0:0:0:
80,352,75934,1,0,0:0:0:0:
384,144,75950,1,0,0:0:0:0:
384,144,75950,1,0,0:0:0:0:
160,352,75951,1,0,0:0:0:0:
160,352,75951,1,0,0:0:0:0:
400,224,75975,1,0,0:0:0:0:
400,224,75975,1,0,0:0:0:0:
384,176,75984,1,0,0:0:0:0:
384,176,75984,1,0,0:0:0:0:
392,280,76000,1,0,0:0:0:0:
392,280,76000,1,0,0:0:0:0:
376,264,76001,1,0,0:0:0:0:
376,264,76001,1,0,0:0:0:0:
384,320,76025,1,0,0:0:0:0:
384,320,76025,1,0,0:0:0:0:
176,216,76034,1,0,0:0:0:0:
176,216,76034,1,0,0:0:0:0:
368,344,76050,1,0,0:0:0:0:
368,344,76050,1,0,0:0:0:0:
192,104,76051,1,0,0:0:0:0:
192,104,76051,1,0,0:0:0:0:
360,360,76084,1,0,0:0:0:0:
360,360,76084,1,0,0:0:0:0:
336,80,76101,1,0,0:0:0:0:
336,80,76101,1,0,0:0:0:0:
112,176,76134,1,0,0:0:0:0:
112,176,76134,1,0,0:0:0:0:
400,0,76184,1,0,0:0:0:0:
400,0,76184,1,0,0:0:0:0:
256,248,76218,2,0,B|368:192|176:256,1,162.5
256,248,76218,2,0,B|368:192|176:256,1,162.5
168,0,76234,1,0,0:0:0:0:
168,0,76234,1,0,0:0:0:0:
315,259,76251,2,0,B|256:80|312:192,1,162.5
315,259,76251,2,0,B|256:80|312:192,1,162.5
160,352,76284,1,0,0:0:0:0:
160,352,76284,1,0,0:0:0:0:
376,264,76334,1,0,0:0:0:0:
376,264,76334,1,0,0:0:0:0:
192,104,76384,1,0,0:0:0:0:
192,104,76384,1,0,0:0:0:0:
336,80,76434,1,0,0:0:0:0:
336,80,76434,1,0,0:0:0:0:
372,351,76617,2,0,B|-8:304|248:136|208:24|208:24|488:160|216:144,1,800
372,351,76617,2,0,B|-8:304|248:136|208:24|208:24|488:160|216:144,1,800
188,132,76651,2,0,B|368:192|256:136,1,162.5
188,132,76651,2,0,B|368:192|256:136,1,162.5
173,118,76750,2,0,P|134:270|224:400,1,325
173,118,76750,2,0,P|134:270|224:400,1,325
336,304,76768,1,0,0:0:0:0:
336,304,76768,1,0,0:0:0:0:
192,280,76818,1,0,0:0:0:0:
192,280,76818,1,0,0:0:0:0:
248,224,76850,1,0,0:0:0:0:
248,224,76850,1,0,0:0:0:0:
376,120,76868,1,0,0:0:0:0:
376,120,76868,1,0,0:0:0:0:
160,32,76918,1,0,0:0:0:0:
160,32,76918,1,0,0:0:0:0:
168,416,76968,1,0,0:0:0:0:
168,416,76968,1,0,0:0:0:0:
188,132,76984,2,0,B|368:192|256:136,1,162.5
188,132,76984,2,0,B|368:192|256:136,1,162.5
96,75,77017,2,0,B|144:456|312:200|424:240|424:240|288:-40|304:232,1,800
96,75,77017,2,0,B|144:456|312:200|424:240|424:240|288:-40|304:232,1,800
400,400,77018,1,0,0:0:0:0:
400,400,77018,1,0,0:0:0:0:
112,208,77068,1,0,0:0:0:0:
112,208,77068,1,0,0:0:0:0:
360,24,77118,1,0,0:0:0:0:
360,24,77118,1,0,0:0:0:0:
176,168,77168,1,0,0:0:0:0:
176,168,77168,1,0,0:0:0:0:
384,208,77218,1,0,0:0:0:0:
384,208,77218,1,0,0:0:0:0:
80,32,77268,1,0,0:0:0:0:
80,32,77268,1,0,0:0:0:0:
350,88,77284,2,0,B|144:120|368:88,3,216.666666666667
350,88,77284,2,0,B|144:120|368:88,3,216.666666666667
272,0,77318,1,0,0:0:0:0:
272,0,77318,1,0,0:0:0:0:
96,75,77350,2,0,B|144:456|312:200|424:240|424:240|288:-40|304:232,1,800
96,75,77350,2,0,B|144:456|312:200|424:240|424:240|288:-40|304:232,1,800
256,192,77367,8,0,78267,0:0:0:0:
256,192,77367,8,0,78267,0:0:0:0:
256,144,77368,5,0,0:0:0:0:
256,144,77368,1,0,0:0:0:0:
112,368,77418,1,0,0:0:0:0:
112,368,77418,1,0,0:0:0:0:
400,352,77468,1,0,0:0:0:0:
400,352,77468,1,0,0:0:0:0:
152,16,77518,1,0,0:0:0:0:
152,16,77518,1,0,0:0:0:0:
128,264,77568,1,0,0:0:0:0:
128,264,77568,1,0,0:0:0:0:
352,224,77618,1,0,0:0:0:0:
352,224,77618,1,0,0:0:0:0:
251,103,77650,2,0,P|345:182|320:304,1,260,8|6,0:0|0:0,0:0:0:0:
251,103,77650,2,0,P|345:182|320:304,1,260,8|6,0:0|0:0,0:0:0:0:
176,152,77668,1,0,0:0:0:0:
176,152,77668,1,0,0:0:0:0:
256,192,77684,8,8,77884,0:0:0:0:
256,192,77684,8,8,77884,0:0:0:0:
264,344,77718,5,0,0:0:0:0:
264,344,77718,1,0,0:0:0:0:
256,192,77767,8,0,78667,0:0:0:0:
256,192,77767,8,0,78667,0:0:0:0:
312,152,77768,5,0,0:0:0:0:
312,152,77768,1,0,0:0:0:0:
144,280,77818,1,0,0:0:0:0:
144,280,77818,1,0,0:0:0:0:
384,24,77868,1,0,0:0:0:0:
384,24,77868,1,0,0:0:0:0:
208,0,77918,1,0,0:0:0:0:
208,0,77918,1,0,0:0:0:0:
272,192,77968,1,0,0:0:0:0:
272,192,77968,1,0,0:0:0:0:
208,168,77985,1,8,0:0:0:0:
208,168,77985,1,8,0:0:0:0:
312,0,78018,1,0,0:0:0:0:
312,0,78018,1,0,0:0:0:0:
152,96,78068,1,0,0:0:0:0:
152,96,78068,1,0,0:0:0:0:
256,192,78100,8,0,79000,0:0:0:0:
256,192,78100,8,0,79000,0:0:0:0:
392,320,78218,5,0,0:0:0:0:
392,320,78218,1,0,0:0:0:0:
376,331,78268,1,0,0:0:0:0:
376,331,78268,1,0,0:0:0:0:
358,340,78318,1,0,0:0:0:0:
358,340,78318,1,0,0:0:0:0:
339,346,78368,1,0,0:0:0:0:
339,346,78368,1,0,0:0:0:0:
256,192,78385,12,0,78618,0:0:0:0:
256,192,78385,12,0,78618,0:0:0:0:
280,240,78385,5,8,0:0:0:0:
280,240,78385,1,8,0:0:0:0:
320,350,78418,1,0,0:0:0:0:
320,350,78418,1,0,0:0:0:0:
300,352,78468,1,0,0:0:0:0:
300,352,78468,1,0,0:0:0:0:
280,352,78518,1,0,0:0:0:0:
280,352,78518,1,0,0:0:0:0:
261,349,78568,1,0,0:0:0:0:
261,349,78568,1,0,0:0:0:0:
256,192,78618,12,0,78651,0:0:0:0:
256,192,78618,12,0,78651,0:0:0:0:
241,344,78618,5,0,0:0:0:0:
241,344,78618,1,0,0:0:0:0:
223,337,78668,1,0,0:0:0:0:
223,337,78668,1,0,0:0:0:0:
280,240,78718,1,8,0:0:0:0:
280,240,78718,1,8,0:0:0:0:
205,327,78718,1,0,0:0:0:0:
205,327,78718,1,0,0:0:0:0:
189,316,78768,1,0,0:0:0:0:
189,316,78768,1,0,0:0:0:0:
328,160,78784,1,0,0:0:0:0:
328,160,78784,1,0,0:0:0:0:
256,192,78785,12,0,79018,0:0:0:0:
256,192,78785,12,0,79018,0:0:0:0:
392,96,78809,5,0,0:0:0:0:
392,96,78809,1,0,0:0:0:0:
174,303,78818,1,0,0:0:0:0:
174,303,78818,1,0,0:0:0:0:
312,32,78834,1,0,0:0:0:0:
312,32,78834,1,0,0:0:0:0:
161,289,78868,1,0,0:0:0:0:
161,289,78868,1,0,0:0:0:0:
352,56,78884,1,0,0:0:0:0:
352,56,78884,1,0,0:0:0:0:
264,16,78909,1,0,0:0:0:0:
264,16,78909,1,0,0:0:0:0:
149,272,78918,1,0,0:0:0:0:
149,272,78918,1,0,0:0:0:0:
224,8,78934,1,0,0:0:0:0:
224,8,78934,1,0,0:0:0:0:
160,16,78959,1,0,0:0:0:0:
160,16,78959,1,0,0:0:0:0:
140,255,78968,1,0,0:0:0:0:
140,255,78968,1,0,0:0:0:0:
128,40,78984,1,0,0:0:0:0:
128,40,78984,1,0,0:0:0:0:
104,64,79009,1,0,0:0:0:0:
104,64,79009,1,0,0:0:0:0:
256,192,79018,12,0,79051,0:0:0:0:
256,192,79018,12,0,79051,0:0:0:0:
132,237,79018,5,0,0:0:0:0:
132,237,79018,1,0,0:0:0:0:
88,104,79034,1,0,0:0:0:0:
88,104,79034,1,0,0:0:0:0:
88,160,79059,1,0,0:0:0:0:
88,160,79059,1,0,0:0:0:0:
127,218,79068,1,0,0:0:0:0:
127,218,79068,1,0,0:0:0:0:
96,224,79084,1,0,0:0:0:0:
96,224,79084,1,0,0:0:0:0:
104,320,79109,1,0,0:0:0:0:
104,320,79109,1,0,0:0:0:0:
128,272,79117,1,14,0:3:0:0:
128,272,79117,1,14,0:3:0:0:
256,192,79118,12,0,79351,0:0:0:0:
256,192,79118,12,0,79351,0:0:0:0:
124,198,79118,5,0,0:0:0:0:
124,198,79118,1,0,0:0:0:0:
168,336,79134,1,0,0:0:0:0:
168,336,79134,1,0,0:0:0:0:
280,336,79159,1,0,0:0:0:0:
280,336,79159,1,0,0:0:0:0:
304,120,79167,1,14,0:3:0:0:
304,120,79167,1,14,0:3:0:0:
123,178,79168,1,0,0:0:0:0:
123,178,79168,1,0,0:0:0:0:
352,320,79184,1,0,0:0:0:0:
352,320,79184,1,0,0:0:0:0:
280,272,79209,1,0,0:0:0:0:
280,272,79209,1,0,0:0:0:0:
72,160,79217,1,14,0:3:0:0:
72,160,79217,1,14,0:3:0:0:
125,159,79218,1,0,0:0:0:0:
125,159,79218,1,0,0:0:0:0:
192,208,79234,1,0,0:0:0:0:
192,208,79234,1,0,0:0:0:0:
248,168,79250,1,0,0:0:0:0:
248,168,79250,1,0,0:0:0:0:
168,160,79259,1,0,0:0:0:0:
168,160,79259,1,0,0:0:0:0:
264,264,79267,1,14,0:3:0:0:
264,264,79267,1,14,0:3:0:0:
128,139,79268,1,0,0:0:0:0:
128,139,79268,1,0,0:0:0:0:
168,88,79284,1,0,0:0:0:0:
168,88,79284,1,0,0:0:0:0:
208,64,79309,1,0,0:0:0:0:
208,64,79309,1,0,0:0:0:0:
176,80,79317,1,14,0:3:0:0:
168,280,79317,1,0,0:0:0:0:
168,280,79317,1,0,0:0:0:0:
176,80,79317,1,14,0:3:0:0:
134,120,79318,1,0,0:0:0:0:
134,120,79318,1,0,0:0:0:0:
248,72,79334,1,0,0:0:0:0:
248,72,79334,1,0,0:0:0:0:
256,192,79351,12,0,79384,0:0:0:0:
256,192,79351,12,0,79384,0:0:0:0:
352,104,79359,5,0,0:0:0:0:
352,104,79359,1,0,0:0:0:0:
272,272,79367,1,14,0:3:0:0:
272,272,79367,1,14,0:3:0:0:
143,102,79368,1,0,0:0:0:0:
143,102,79368,1,0,0:0:0:0:
224,0,79384,1,0,0:0:0:0:
352,224,79384,1,0,0:0:0:0:
352,224,79384,1,0,0:0:0:0:
224,0,79384,1,0,0:0:0:0:
360,320,79409,1,0,0:0:0:0:
360,320,79409,1,0,0:0:0:0:
448,120,79417,1,14,0:3:0:0:
448,120,79417,1,14,0:3:0:0:
153,85,79418,1,0,0:0:0:0:
153,85,79418,1,0,0:0:0:0:
392,48,79450,1,0,0:0:0:0:
392,48,79450,1,0,0:0:0:0:
320,352,79459,5,0,0:0:0:0:
320,352,79459,5,0,0:0:0:0:
160,240,79467,1,14,0:3:0:0:
160,240,79467,1,14,0:3:0:0:
165,70,79468,1,0,0:0:0:0:
165,70,79468,1,0,0:0:0:0:
152,208,79484,5,0,0:0:0:0:
152,208,79484,5,0,0:0:0:0:
160,264,79509,1,0,0:0:0:0:
160,264,79509,1,0,0:0:0:0:
176,320,79517,1,14,0:3:0:0:
176,320,79517,1,14,0:3:0:0:
408,264,79517,1,14,0:3:0:0:
368,256,79517,1,0,0:0:0:0:
368,256,79517,1,0,0:0:0:0:
408,264,79517,1,14,0:3:0:0:
179,55,79518,1,0,0:0:0:0:
179,55,79518,1,0,0:0:0:0:
232,48,79534,1,0,0:0:0:0:
232,48,79534,1,0,0:0:0:0:
320,48,79559,1,0,0:0:0:0:
320,48,79559,1,0,0:0:0:0:
328,144,79567,1,14,0:3:0:0:
328,144,79567,1,14,0:3:0:0:
320,80,79567,1,14,0:3:0:0:
320,80,79567,1,14,0:3:0:0:
194,43,79568,1,0,0:0:0:0:
194,43,79568,1,0,0:0:0:0:
104,192,79584,1,0,0:0:0:0:
352,56,79584,1,0,0:0:0:0:
352,56,79584,1,0,0:0:0:0:
104,192,79584,1,0,0:0:0:0:
400,144,79609,1,0,0:0:0:0:
400,144,79609,1,0,0:0:0:0:
288,376,79617,1,14,0:3:0:0:
288,376,79617,1,14,0:3:0:0:
272,272,79617,1,14,0:3:0:0:
272,272,79617,1,14,0:3:0:0:
211,32,79618,1,0,0:0:0:0:
211,32,79618,1,0,0:0:0:0:
400,208,79634,1,0,0:0:0:0:
400,208,79634,1,0,0:0:0:0:
296,24,79650,1,0,0:0:0:0:
296,24,79650,1,0,0:0:0:0:
400,248,79659,1,0,0:0:0:0:
400,248,79659,1,0,0:0:0:0:
184,184,79667,1,14,0:3:0:0:
184,184,79667,1,14,0:3:0:0:
448,120,79667,1,14,0:3:0:0:
448,120,79667,1,14,0:3:0:0:
229,24,79668,1,0,0:0:0:0:
229,24,79668,1,0,0:0:0:0:
368,280,79684,1,0,0:0:0:0:
368,280,79684,1,0,0:0:0:0:
320,288,79709,1,0,0:0:0:0:
320,288,79709,1,0,0:0:0:0:
368,272,79717,1,14,0:3:0:0:
368,272,79717,1,14,0:3:0:0:
216,160,79717,1,14,0:3:0:0:
296,368,79717,1,0,0:0:0:0:
296,368,79717,1,0,0:0:0:0:
216,160,79717,1,14,0:3:0:0:
247,17,79718,1,0,0:0:0:0:
247,17,79718,1,0,0:0:0:0:
264,288,79734,1,0,0:0:0:0:
264,288,79734,1,0,0:0:0:0:
216,272,79759,1,0,0:0:0:0:
216,272,79759,1,0,0:0:0:0:
176,176,79767,1,14,0:3:0:0:
176,176,79767,1,14,0:3:0:0:
408,264,79767,1,14,0:3:0:0:
408,264,79767,1,14,0:3:0:0:
267,13,79768,1,0,0:0:0:0:
267,13,79768,1,0,0:0:0:0:
80,104,79784,1,0,0:0:0:0:
176,256,79784,1,0,0:0:0:0:
176,256,79784,1,0,0:0:0:0:
80,104,79784,1,0,0:0:0:0:
240,200,79809,1,0,0:0:0:0:
240,200,79809,1,0,0:0:0:0:
328,0,79817,1,14,0:3:0:0:
328,0,79817,1,14,0:3:0:0:
320,80,79817,1,14,0:3:0:0:
320,80,79817,1,14,0:3:0:0:
287,11,79818,1,0,0:0:0:0:
287,11,79818,1,0,0:0:0:0:
336,184,79834,1,0,0:0:0:0:
336,184,79834,1,0,0:0:0:0:
176,320,79850,1,14,0:3:0:0:
176,320,79850,1,14,0:3:0:0:
312,152,79850,1,0,0:0:0:0:
312,152,79850,1,0,0:0:0:0:
360,128,79859,1,0,0:0:0:0:
360,128,79859,1,0,0:0:0:0:
208,288,79867,1,14,0:3:0:0:
208,288,79867,1,14,0:3:0:0:
306,11,79868,1,0,0:0:0:0:
306,11,79868,1,0,0:0:0:0:
312,96,79884,1,0,0:0:0:0:
312,96,79884,1,0,0:0:0:0:
328,144,79900,1,14,0:3:0:0:
328,144,79900,1,14,0:3:0:0:
280,64,79909,1,0,0:0:0:0:
280,64,79909,1,0,0:0:0:0:
184,40,79917,1,14,0:3:0:0:
184,40,79917,1,14,0:3:0:0:
104,304,79917,1,0,0:0:0:0:
104,304,79917,1,0,0:0:0:0:
326,14,79918,1,0,0:0:0:0:
326,14,79918,1,0,0:0:0:0:
232,32,79934,1,0,0:0:0:0:
232,32,79934,1,0,0:0:0:0:
288,376,79950,1,14,0:3:0:0:
288,376,79950,1,14,0:3:0:0:
200,32,79959,1,0,0:0:0:0:
200,32,79959,1,0,0:0:0:0:
368,128,79967,1,14,0:3:0:0:
368,128,79967,1,14,0:3:0:0:
345,19,79968,1,0,0:0:0:0:
345,19,79968,1,0,0:0:0:0:
288,56,79984,1,0,0:0:0:0:
168,24,79984,1,0,0:0:0:0:
168,24,79984,1,0,0:0:0:0:
288,56,79984,1,0,0:0:0:0:
184,184,80000,1,14,0:3:0:0:
184,184,80000,1,14,0:3:0:0:
136,48,80009,1,0,0:0:0:0:
136,48,80009,1,0,0:0:0:0:
176,176,80017,1,14,0:3:0:0:
176,176,80017,1,14,0:3:0:0:
80,208,80017,1,14,0:3:0:0:
80,208,80017,1,14,0:3:0:0:
364,26,80018,1,0,0:0:0:0:
364,26,80018,1,0,0:0:0:0:
128,112,80034,1,0,0:0:0:0:
128,112,80034,1,0,0:0:0:0:
368,272,80050,1,14,0:3:0:0:
368,272,80050,1,14,0:3:0:0:
392,288,80050,1,0,0:0:0:0:
392,288,80050,1,0,0:0:0:0:
328,0,80067,1,14,0:3:0:0:
328,0,80067,1,14,0:3:0:0:
381,35,80068,1,0,0:0:0:0:
381,35,80068,1,0,0:0:0:0:
128,80,80084,1,0,0:0:0:0:
128,80,80084,1,0,0:0:0:0:
176,176,80100,1,14,0:3:0:0:
176,176,80100,1,14,0:3:0:0:
128,160,80109,1,0,0:0:0:0:
128,160,80109,1,0,0:0:0:0:
288,232,80117,1,14,0:3:0:0:
288,232,80117,1,14,0:3:0:0:
208,80,80117,1,14,0:3:0:0:
128,32,80117,1,0,0:0:0:0:
128,32,80117,1,0,0:0:0:0:
208,80,80117,1,14,0:3:0:0:
120,208,80134,1,0,0:0:0:0:
120,208,80134,1,0,0:0:0:0:
328,0,80150,1,14,0:3:0:0:
328,0,80150,1,14,0:3:0:0:
104,224,80159,1,0,0:0:0:0:
104,224,80159,1,0,0:0:0:0:
184,40,80167,1,14,0:3:0:0:
184,40,80167,1,14,0:3:0:0:
400,16,80184,1,0,0:0:0:0:
104,272,80184,1,0,0:0:0:0:
104,272,80184,1,0,0:0:0:0:
400,16,80184,1,0,0:0:0:0:
208,288,80200,1,14,0:3:0:0:
208,288,80200,1,14,0:3:0:0:
96,304,80209,1,0,0:0:0:0:
96,304,80209,1,0,0:0:0:0:
368,128,80217,1,14,0:3:0:0:
368,128,80217,1,14,0:3:0:0:
40,112,80217,1,14,0:3:0:0:
40,112,80217,1,14,0:3:0:0:
120,352,80234,1,0,0:0:0:0:
120,352,80234,1,0,0:0:0:0:
184,40,80250,1,14,0:3:0:0:
184,40,80250,1,14,0:3:0:0:
408,368,80250,1,0,0:0:0:0:
408,368,80250,1,0,0:0:0:0:
168,336,80259,1,0,0:0:0:0:
168,336,80259,1,0,0:0:0:0:
216,352,80284,1,0,0:0:0:0:
216,352,80284,1,0,0:0:0:0:
368,128,80300,1,14,0:3:0:0:
368,128,80300,1,14,0:3:0:0:
272,344,80309,1,0,0:0:0:0:
272,344,80309,1,0,0:0:0:0:
208,184,80317,1,14,0:3:0:0:
160,200,80317,1,0,0:0:0:0:
160,200,80317,1,0,0:0:0:0:
208,184,80317,1,14,0:3:0:0:
312,320,80334,1,0,0:0:0:0:
312,320,80334,1,0,0:0:0:0:
176,176,80350,1,14,0:3:0:0:
176,176,80350,1,14,0:3:0:0:
344,288,80359,1,0,0:0:0:0:
344,288,80359,1,0,0:0:0:0:
344,96,80384,1,0,0:0:0:0:
384,240,80384,1,0,0:0:0:0:
384,240,80384,1,0,0:0:0:0:
344,96,80384,1,0,0:0:0:0:
328,0,80400,1,14,0:3:0:0:
328,0,80400,1,14,0:3:0:0:
400,160,80409,1,0,0:0:0:0:
400,160,80409,1,0,0:0:0:0:
240,368,80417,1,14,0:3:0:0:
240,368,80417,1,14,0:3:0:0:
120,48,80417,1,14,0:3:0:0:
120,48,80417,1,14,0:3:0:0:
392,104,80434,1,0,0:0:0:0:
392,104,80434,1,0,0:0:0:0:
288,232,80450,1,14,0:3:0:0:
288,232,80450,1,14,0:3:0:0:
336,264,80450,1,0,0:0:0:0:
336,264,80450,1,0,0:0:0:0:
384,64,80459,1,0,0:0:0:0:
384,64,80459,1,0,0:0:0:0:
368,40,80484,1,0,0:0:0:0:
368,40,80484,1,0,0:0:0:0:
184,40,80500,1,14,0:3:0:0:
184,40,80500,1,14,0:3:0:0:
368,240,80517,1,14,0:3:0:0:
368,240,80517,1,14,0:3:0:0:
248,200,80517,1,14,0:3:0:0:
248,200,80517,1,14,0:3:0:0:
368,128,80550,1,14,0:3:0:0:
368,128,80550,1,14,0:3:0:0:
336,408,80617,1,14,0:3:0:0:
336,408,80617,1,14,0:3:0:0:
80,232,80617,1,14,0:3:0:0:
80,232,80617,1,14,0:3:0:0:
264,240,80717,1,14,0:3:0:0:
264,240,80717,1,14,0:3:0:0:
248,304,80717,1,14,0:3:0:0:
248,304,80717,1,14,0:3:0:0:
240,368,80750,1,14,0:3:0:0:
240,368,80750,1,14,0:3:0:0:
400,328,80817,1,14,0:3:0:0:
400,328,80817,1,14,0:3:0:0:
160,168,80817,1,14,0:3:0:0:
160,168,80817,1,14,0:3:0:0:
368,240,80850,1,14,0:3:0:0:
368,240,80850,1,14,0:3:0:0:
264,192,80850,1,8,0:0:0:0:
264,192,80850,1,8,0:0:0:0:
248,200,80917,1,14,0:3:0:0:
248,200,80917,1,14,0:3:0:0:
224,56,80917,1,14,0:3:0:0:
224,56,80917,1,14,0:3:0:0:
336,408,80950,1,14,0:3:0:0:
336,408,80950,1,14,0:3:0:0:
168,88,81017,5,14,0:3:0:0:
168,88,81017,5,14,0:3:0:0:
216,368,81017,1,14,0:3:0:0:
216,368,81017,1,14,0:3:0:0:
264,192,81018,1,8,0:0:0:0:
264,192,81018,1,8,0:0:0:0:
264,240,81050,1,14,0:3:0:0:
264,240,81050,1,14,0:3:0:0:
139,351,81051,2,0,B|520:304|264:136|304:24|304:24|24:160|296:144,1,800
139,351,81051,2,0,B|520:304|264:136|304:24|304:24|24:160|296:144,1,800
208,80,81117,5,14,0:3:0:0:
208,80,81117,5,14,0:3:0:0:
144,200,81117,1,14,0:3:0:0:
144,200,81117,1,14,0:3:0:0:
400,328,81150,1,14,0:3:0:0:
400,328,81150,1,14,0:3:0:0:
173,265,81184,2,0,P|134:113|224:-16,1,325
173,265,81184,2,0,P|134:113|224:-16,1,325
280,288,81217,1,14,0:3:0:0:
280,288,81217,1,14,0:3:0:0:
40,112,81217,1,14,0:3:0:0:
40,112,81217,1,14,0:3:0:0:
248,200,81250,1,14,0:3:0:0:
248,200,81250,1,14,0:3:0:0:
248,160,81284,1,0,0:0:0:0:
248,160,81284,1,0,0:0:0:0:
208,184,81317,5,14,0:3:0:0:
208,184,81317,5,14,0:3:0:0:
392,224,81317,1,14,0:3:0:0:
392,224,81317,1,14,0:3:0:0:
216,368,81350,1,14,0:3:0:0:
216,368,81350,1,14,0:3:0:0:
360,280,81417,5,14,0:3:0:0:
360,280,81417,5,14,0:3:0:0:
120,48,81417,5,14,0:3:0:0:
120,48,81417,5,14,0:3:0:0:
336,264,81418,1,0,0:0:0:0:
336,264,81418,1,0,0:0:0:0:
144,200,81450,1,14,0:3:0:0:
144,200,81450,1,14,0:3:0:0:
96,308,81451,2,0,B|144:-72|312:184|424:144|424:144|288:424|304:152,1,800
96,308,81451,2,0,B|144:-72|312:184|424:144|424:144|288:424|304:152,1,800
344,96,81484,1,0,0:0:0:0:
344,96,81484,1,0,0:0:0:0:
368,240,81517,5,14,0:3:0:0:
368,240,81517,5,14,0:3:0:0:
280,288,81550,1,14,0:3:0:0:
280,288,81550,1,14,0:3:0:0:
160,200,81551,1,0,0:0:0:0:
160,200,81551,1,0,0:0:0:0:
336,408,81617,1,14,0:3:0:0:
336,408,81617,1,14,0:3:0:0:
408,368,81618,1,0,0:0:0:0:
408,368,81618,1,0,0:0:0:0:
392,224,81650,1,14,0:3:0:0:
392,224,81650,1,14,0:3:0:0:
400,16,81684,1,0,0:0:0:0:
400,16,81684,1,0,0:0:0:0:
264,240,81717,5,14,0:3:0:0:
264,240,81717,5,14,0:3:0:0:
360,280,81750,5,14,0:3:0:0:
360,280,81750,5,14,0:3:0:0:
128,32,81751,1,0,0:0:0:0:
128,32,81751,1,0,0:0:0:0:
96,308,81784,2,0,B|144:-72|312:184|424:144|424:144|288:424|304:152,1,800
96,308,81784,2,0,B|144:-72|312:184|424:144|424:144|288:424|304:152,1,800
381,35,81800,1,0,0:0:0:0:
381,35,81800,1,0,0:0:0:0:
256,192,81801,8,0,82701,0:0:0:0:
256,192,81801,8,0,82701,0:0:0:0:
400,328,81817,5,14,0:3:0:0:
400,328,81817,5,14,0:3:0:0:
392,288,81818,1,0,0:0:0:0:
392,288,81818,1,0,0:0:0:0:
368,240,81850,5,14,0:3:0:0:
368,240,81850,5,14,0:3:0:0:
364,26,81850,1,0,0:0:0:0:
364,26,81850,1,0,0:0:0:0:
288,56,81884,1,0,0:0:0:0:
288,56,81884,1,0,0:0:0:0:
345,19,81900,1,0,0:0:0:0:
345,19,81900,1,0,0:0:0:0:
336,408,81950,1,14,0:3:0:0:
336,408,81950,1,14,0:3:0:0:
326,14,81950,1,0,0:0:0:0:
326,14,81950,1,0,0:0:0:0:
104,304,81951,1,0,0:0:0:0:
104,304,81951,1,0,0:0:0:0:
306,11,82000,1,0,0:0:0:0:
306,11,82000,1,0,0:0:0:0:
312,152,82018,1,0,0:0:0:0:
312,152,82018,1,0,0:0:0:0:
264,240,82050,5,14,0:3:0:0:
264,240,82050,5,14,0:3:0:0:
287,11,82050,1,0,0:0:0:0:
287,11,82050,1,0,0:0:0:0:
80,104,82084,1,0,0:0:0:0:
251,280,82084,2,0,P|345:201|320:80,1,260,8|6,0:0|0:0,0:0:0:0:
251,280,82084,2,0,P|345:201|320:80,1,260,8|6,0:0|0:0,0:0:0:0:
80,104,82084,1,0,0:0:0:0:
267,13,82100,1,0,0:0:0:0:
267,13,82100,1,0,0:0:0:0:
400,328,82150,5,14,0:3:0:0:
400,328,82150,5,14,0:3:0:0:
247,17,82150,1,0,0:0:0:0:
247,17,82150,1,0,0:0:0:0:
296,368,82151,1,0,0:0:0:0:
296,368,82151,1,0,0:0:0:0:
229,24,82200,1,0,0:0:0:0:
229,24,82200,1,0,0:0:0:0:
256,192,82201,8,0,83101,0:0:0:0:
256,192,82201,8,0,83101,0:0:0:0:
296,24,82218,5,0,0:0:0:0:
296,24,82218,1,0,0:0:0:0:
211,32,82250,1,0,0:0:0:0:
211,32,82250,1,0,0:0:0:0:
104,192,82284,1,0,0:0:0:0:
104,192,82284,1,0,0:0:0:0:
194,43,82300,1,0,0:0:0:0:
194,43,82300,1,0,0:0:0:0:
179,55,82350,1,0,0:0:0:0:
179,55,82350,1,0,0:0:0:0:
368,256,82351,1,0,0:0:0:0:
368,256,82351,1,0,0:0:0:0:
165,70,82400,1,0,0:0:0:0:
165,70,82400,1,0,0:0:0:0:
392,48,82418,1,0,0:0:0:0:
392,48,82418,1,0,0:0:0:0:
153,85,82450,1,0,0:0:0:0:
153,85,82450,1,0,0:0:0:0:
224,0,82484,1,0,0:0:0:0:
224,0,82484,1,0,0:0:0:0:
143,102,82500,1,0,0:0:0:0:
143,102,82500,1,0,0:0:0:0:
256,192,82534,8,0,83434,0:0:0:0:
256,192,82534,8,0,83434,0:0:0:0:
134,120,82550,5,0,0:0:0:0:
134,120,82550,1,0,0:0:0:0:
168,280,82551,1,0,0:0:0:0:
168,280,82551,1,0,0:0:0:0:
128,139,82600,1,0,0:0:0:0:
128,139,82600,1,0,0:0:0:0:
248,168,82618,1,0,0:0:0:0:
248,168,82618,1,0,0:0:0:0:
125,159,82650,1,0,0:0:0:0:
125,159,82650,1,0,0:0:0:0:
123,178,82700,1,0,0:0:0:0:
123,178,82700,1,0,0:0:0:0:
124,198,82750,1,0,0:0:0:0:
124,198,82750,1,0,0:0:0:0:
127,218,82800,1,0,0:0:0:0:
127,218,82800,1,0,0:0:0:0:
132,237,82850,1,0,0:0:0:0:
132,237,82850,1,0,0:0:0:0:
140,255,82900,1,0,0:0:0:0:
140,255,82900,1,0,0:0:0:0:
149,272,82950,1,0,0:0:0:0:
149,272,82950,1,0,0:0:0:0:
161,289,83000,1,0,0:0:0:0:
161,289,83000,1,0,0:0:0:0:
174,303,83050,1,0,0:0:0:0:
174,303,83050,1,0,0:0:0:0:
189,316,83100,1,0,0:0:0:0:
189,316,83100,1,0,0:0:0:0:
205,327,83150,1,0,0:0:0:0:
205,327,83150,1,0,0:0:0:0:
223,337,83200,1,0,0:0:0:0:
223,337,83200,1,0,0:0:0:0:
241,344,83250,1,0,0:0:0:0:
241,344,83250,1,0,0:0:0:0:
261,349,83300,1,0,0:0:0:0:
261,349,83300,1,0,0:0:0:0:
280,352,83350,1,0,0:0:0:0:
280,352,83350,1,0,0:0:0:0:
300,352,83400,1,0,0:0:0:0:
300,352,83400,1,0,0:0:0:0:
320,350,83450,1,0,0:0:0:0:
320,350,83450,1,0,0:0:0:0:
339,346,83500,1,0,0:0:0:0:
339,346,83500,1,0,0:0:0:0:
358,340,83550,1,0,0:0:0:0:
358,340,83550,1,0,0:0:0:0:
384,272,83551,1,14,0:3:0:0:
384,272,83551,1,14,0:3:0:0:
376,331,83600,1,0,0:0:0:0:
376,331,83600,1,0,0:0:0:0:
208,120,83601,1,14,0:3:0:0:
208,120,83601,1,14,0:3:0:0:
392,320,83650,1,0,0:0:0:0:
392,320,83650,1,0,0:0:0:0:
440,160,83651,1,14,0:3:0:0:
440,160,83651,1,14,0:3:0:0:
248,216,83684,1,0,0:0:0:0:
248,216,83684,1,0,0:0:0:0:
248,264,83701,1,14,0:3:0:0:
248,264,83701,1,14,0:3:0:0:
336,80,83751,1,14,0:3:0:0:
168,104,83751,1,0,0:0:0:0:
168,104,83751,1,0,0:0:0:0:
336,80,83751,1,14,0:3:0:0:
152,96,83800,1,0,0:0:0:0:
152,96,83800,1,0,0:0:0:0:
240,272,83801,1,14,0:3:0:0:
240,272,83801,1,14,0:3:0:0:
224,384,83818,1,0,0:0:0:0:
224,384,83818,1,0,0:0:0:0:
312,0,83850,1,0,0:0:0:0:
312,0,83850,1,0,0:0:0:0:
64,120,83851,1,14,0:3:0:0:
64,120,83851,1,14,0:3:0:0:
392,336,83884,1,0,0:0:0:0:
392,336,83884,1,0,0:0:0:0:
272,192,83900,1,0,0:0:0:0:
272,192,83900,1,0,0:0:0:0:
352,240,83901,1,14,0:3:0:0:
352,240,83901,1,14,0:3:0:0:
208,0,83950,1,0,0:0:0:0:
208,0,83950,1,0,0:0:0:0:
176,64,83951,1,14,0:3:0:0:
176,64,83951,1,14,0:3:0:0:
104,264,83951,1,14,0:3:0:0:
368,128,83951,1,0,0:0:0:0:
368,128,83951,1,0,0:0:0:0:
104,264,83951,1,14,0:3:0:0:
384,24,84000,1,0,0:0:0:0:
384,24,84000,1,0,0:0:0:0:
328,240,84001,1,14,0:3:0:0:
328,240,84001,1,14,0:3:0:0:
192,80,84001,1,14,0:3:0:0:
192,80,84001,1,14,0:3:0:0:
104,192,84018,1,0,0:0:0:0:
104,192,84018,1,0,0:0:0:0:
144,280,84050,1,0,0:0:0:0:
144,280,84050,1,0,0:0:0:0:
288,8,84051,1,14,0:3:0:0:
288,8,84051,1,14,0:3:0:0:
240,272,84051,1,14,0:3:0:0:
240,272,84051,1,14,0:3:0:0:
296,360,84084,1,0,0:0:0:0:
296,360,84084,1,0,0:0:0:0:
312,152,84100,1,0,0:0:0:0:
312,152,84100,1,0,0:0:0:0:
184,200,84101,1,14,0:3:0:0:
184,200,84101,1,14,0:3:0:0:
64,120,84101,1,14,0:3:0:0:
64,120,84101,1,14,0:3:0:0:
264,344,84150,1,0,0:0:0:0:
264,344,84150,1,0,0:0:0:0:
368,112,84151,1,14,0:3:0:0:
368,112,84151,1,14,0:3:0:0:
296,160,84151,1,14,0:3:0:0:
296,16,84151,1,0,0:0:0:0:
296,16,84151,1,0,0:0:0:0:
296,160,84151,1,14,0:3:0:0:
176,152,84200,1,0,0:0:0:0:
176,152,84200,1,0,0:0:0:0:
176,208,84201,1,14,0:3:0:0:
176,208,84201,1,14,0:3:0:0:
104,264,84201,1,14,0:3:0:0:
104,264,84201,1,14,0:3:0:0:
320,304,84218,2,0,P|256:104|208:104,1,260,8|6,0:0|0:0,0:0:0:0:
80,280,84218,1,0,0:0:0:0:
80,280,84218,1,0,0:0:0:0:
320,304,84218,2,0,P|256:104|208:104,1,260,8|6,0:0|0:0,0:0:0:0:
352,224,84250,1,0,0:0:0:0:
352,224,84250,1,0,0:0:0:0:
328,384,84251,1,14,0:3:0:0:
328,384,84251,1,14,0:3:0:0:
192,80,84251,1,14,0:3:0:0:
192,80,84251,1,14,0:3:0:0:
176,64,84284,1,14,0:3:0:0:
176,64,84284,1,14,0:3:0:0:
312,232,84284,1,0,0:0:0:0:
312,232,84284,1,0,0:0:0:0:
128,264,84300,1,0,0:0:0:0:
128,264,84300,1,0,0:0:0:0:
208,96,84301,1,14,0:3:0:0:
208,96,84301,1,14,0:3:0:0:
328,240,84334,1,14,0:3:0:0:
328,240,84334,1,14,0:3:0:0:
152,16,84350,1,0,0:0:0:0:
152,16,84350,1,0,0:0:0:0:
184,344,84351,1,14,0:3:0:0:
184,344,84351,1,14,0:3:0:0:
104,80,84351,1,0,0:0:0:0:
104,80,84351,1,0,0:0:0:0:
288,8,84384,1,14,0:3:0:0:
288,8,84384,1,14,0:3:0:0:
400,352,84400,1,0,0:0:0:0:
400,352,84400,1,0,0:0:0:0:
368,256,84401,1,14,0:3:0:0:
368,256,84401,1,14,0:3:0:0:
288,328,84418,1,0,0:0:0:0:
288,328,84418,1,0,0:0:0:0:
184,200,84434,1,14,0:3:0:0:
184,200,84434,1,14,0:3:0:0:
112,368,84450,1,0,0:0:0:0:
112,368,84450,1,0,0:0:0:0:
176,208,84451,1,14,0:3:0:0:
176,208,84451,1,14,0:3:0:0:
432,208,84451,1,14,0:3:0:0:
432,208,84451,1,14,0:3:0:0:
368,112,84484,1,14,0:3:0:0:
368,112,84484,1,14,0:3:0:0:
392,96,84484,1,0,0:0:0:0:
392,96,84484,1,0,0:0:0:0:
256,144,84500,1,0,0:0:0:0:
256,144,84500,1,0,0:0:0:0:
328,384,84501,1,14,0:3:0:0:
328,384,84501,1,14,0:3:0:0:
176,208,84534,1,14,0:3:0:0:
176,208,84534,1,14,0:3:0:0:
272,0,84550,1,0,0:0:0:0:
272,0,84550,1,0,0:0:0:0:
288,152,84551,1,14,0:3:0:0:
288,152,84551,1,14,0:3:0:0:
304,80,84551,1,14,0:3:0:0:
128,352,84551,1,0,0:0:0:0:
128,352,84551,1,0,0:0:0:0:
304,80,84551,1,14,0:3:0:0:
328,384,84584,1,14,0:3:0:0:
328,384,84584,1,14,0:3:0:0:
80,32,84600,1,0,0:0:0:0:
80,32,84600,1,0,0:0:0:0:
184,344,84601,1,14,0:3:0:0:
184,344,84601,1,14,0:3:0:0:
400,368,84618,1,0,0:0:0:0:
400,368,84618,1,0,0:0:0:0:
208,96,84634,1,14,0:3:0:0:
208,96,84634,1,14,0:3:0:0:
384,208,84650,1,0,0:0:0:0:
384,208,84650,1,0,0:0:0:0:
368,256,84651,1,14,0:3:0:0:
368,256,84651,1,14,0:3:0:0:
472,112,84651,1,14,0:3:0:0:
472,112,84651,1,14,0:3:0:0:
184,344,84684,1,14,0:3:0:0:
184,344,84684,1,14,0:3:0:0:
408,16,84684,1,0,0:0:0:0:
408,16,84684,1,0,0:0:0:0:
176,168,84700,1,0,0:0:0:0:
176,168,84700,1,0,0:0:0:0:
368,256,84734,1,14,0:3:0:0:
368,256,84734,1,14,0:3:0:0:
360,24,84750,1,0,0:0:0:0:
360,24,84750,1,0,0:0:0:0:
304,184,84751,1,14,0:3:0:0:
160,184,84751,1,0,0:0:0:0:
160,184,84751,1,0,0:0:0:0:
304,184,84751,1,14,0:3:0:0:
176,208,84784,1,14,0:3:0:0:
176,208,84784,1,14,0:3:0:0:
112,208,84800,1,0,0:0:0:0:
112,208,84800,1,0,0:0:0:0:
344,288,84818,1,0,0:0:0:0:
344,288,84818,1,0,0:0:0:0:
328,384,84834,1,14,0:3:0:0:
328,384,84834,1,14,0:3:0:0:
400,400,84850,1,0,0:0:0:0:
400,400,84850,1,0,0:0:0:0:
240,16,84851,1,14,0:3:0:0:
240,16,84851,1,14,0:3:0:0:
392,48,84851,1,14,0:3:0:0:
392,48,84851,1,14,0:3:0:0:
288,152,84884,1,14,0:3:0:0:
288,152,84884,1,14,0:3:0:0:
336,120,84884,1,0,0:0:0:0:
336,120,84884,1,0,0:0:0:0:
168,416,84900,1,0,0:0:0:0:
168,416,84900,1,0,0:0:0:0:
184,344,84934,1,14,0:3:0:0:
184,344,84934,1,14,0:3:0:0:
160,32,84950,1,0,0:0:0:0:
160,32,84950,1,0,0:0:0:0:
368,144,84951,1,14,0:3:0:0:
368,144,84951,1,14,0:3:0:0:
264,200,84951,1,14,0:3:0:0:
264,200,84951,1,14,0:3:0:0:
368,256,84984,1,14,0:3:0:0:
368,256,84984,1,14,0:3:0:0:
376,120,85000,1,0,0:0:0:0:
376,120,85000,1,0,0:0:0:0:
248,224,85018,1,0,0:0:0:0:
248,224,85018,1,0,0:0:0:0:
192,280,85050,1,0,0:0:0:0:
192,280,85050,1,0,0:0:0:0:
336,0,85051,1,14,0:3:0:0:
336,0,85051,1,14,0:3:0:0:
432,232,85051,1,14,0:3:0:0:
432,232,85051,1,14,0:3:0:0:
336,304,85100,1,0,0:0:0:0:
336,304,85100,1,0,0:0:0:0:
224,400,85118,2,0,P|136:280|216:80,1,325
224,400,85118,2,0,P|136:280|216:80,1,325
264,144,85151,1,14,0:3:0:0:
264,144,85151,1,14,0:3:0:0:
264,304,85151,1,14,0:3:0:0:
264,304,85151,1,14,0:3:0:0:
240,16,85184,1,14,0:3:0:0:
240,16,85184,1,14,0:3:0:0:
400,56,85251,1,14,0:3:0:0:
400,56,85251,1,14,0:3:0:0:
352,168,85251,1,14,0:3:0:0:
352,168,85251,1,14,0:3:0:0:
368,144,85284,1,14,0:3:0:0:
368,144,85284,1,14,0:3:0:0:
264,192,85284,1,8,0:0:0:0:
264,192,85284,1,8,0:0:0:0:
248,184,85351,1,14,0:3:0:0:
248,184,85351,1,14,0:3:0:0:
288,56,85351,1,14,0:3:0:0:
288,56,85351,1,14,0:3:0:0:
336,0,85384,1,14,0:3:0:0:
336,0,85384,1,14,0:3:0:0:
344,88,85451,5,14,0:3:0:0:
344,88,85451,5,14,0:3:0:0:
216,16,85451,1,14,0:3:0:0:
216,16,85451,1,14,0:3:0:0:
264,144,85484,1,14,0:3:0:0:
264,144,85484,1,14,0:3:0:0:
304,80,85551,5,14,0:3:0:0:
304,80,85551,5,14,0:3:0:0:
144,184,85551,1,14,0:3:0:0:
144,184,85551,1,14,0:3:0:0:
400,56,85584,1,14,0:3:0:0:
400,56,85584,1,14,0:3:0:0:
188,251,85650,2,0,B|368:192|256:248,1,162.5
188,251,85650,2,0,B|368:192|256:248,1,162.5
280,96,85651,1,14,0:3:0:0:
280,96,85651,1,14,0:3:0:0:
472,112,85651,1,14,0:3:0:0:
472,112,85651,1,14,0:3:0:0:
248,184,85684,1,14,0:3:0:0:
248,184,85684,1,14,0:3:0:0:
304,184,85751,5,14,0:3:0:0:
304,184,85751,5,14,0:3:0:0:
392,160,85751,1,14,0:3:0:0:
392,160,85751,1,14,0:3:0:0:
216,16,85784,1,14,0:3:0:0:
216,16,85784,1,14,0:3:0:0:
368,344,85818,1,0,0:0:0:0:
368,344,85818,1,0,0:0:0:0:
384,320,85843,1,0,0:0:0:0:
384,320,85843,1,0,0:0:0:0:
360,104,85851,5,14,0:3:0:0:
360,104,85851,5,14,0:3:0:0:
392,48,85851,5,14,0:3:0:0:
392,48,85851,5,14,0:3:0:0:
392,280,85868,1,0,0:0:0:0:
392,280,85868,1,0,0:0:0:0:
144,184,85884,1,14,0:3:0:0:
144,184,85884,1,14,0:3:0:0:
400,224,85893,1,0,0:0:0:0:
400,224,85893,1,0,0:0:0:0:
384,144,85918,1,0,0:0:0:0:
384,144,85918,1,0,0:0:0:0:
344,96,85943,1,0,0:0:0:0:
344,96,85943,1,0,0:0:0:0:
368,144,85951,5,14,0:3:0:0:
368,144,85951,5,14,0:3:0:0:
312,64,85968,1,0,0:0:0:0:
312,64,85968,1,0,0:0:0:0:
280,96,85984,1,14,0:3:0:0:
280,96,85984,1,14,0:3:0:0:
272,40,85993,1,0,0:0:0:0:
272,40,85993,1,0,0:0:0:0:
216,32,86018,1,0,0:0:0:0:
216,32,86018,1,0,0:0:0:0:
168,48,86043,1,0,0:0:0:0:
168,48,86043,1,0,0:0:0:0:
336,0,86051,1,14,0:3:0:0:
336,0,86051,1,14,0:3:0:0:
120,32,86068,1,0,0:0:0:0:
120,32,86068,1,0,0:0:0:0:
392,160,86084,1,14,0:3:0:0:
392,160,86084,1,14,0:3:0:0:
96,80,86093,1,0,0:0:0:0:
96,80,86093,1,0,0:0:0:0:
104,112,86118,1,0,0:0:0:0:
104,112,86118,1,0,0:0:0:0:
104,160,86143,1,0,0:0:0:0:
104,160,86143,1,0,0:0:0:0:
264,144,86151,5,14,0:3:0:0:
264,144,86151,5,14,0:3:0:0:
120,176,86168,1,0,0:0:0:0:
120,176,86168,1,0,0:0:0:0:
360,104,86184,5,14,0:3:0:0:
360,104,86184,5,14,0:3:0:0:
128,224,86193,1,0,0:0:0:0:
128,224,86193,1,0,0:0:0:0:
128,304,86218,1,0,0:0:0:0:
128,304,86218,1,0,0:0:0:0:
381,349,86234,1,0,0:0:0:0:
381,349,86234,1,0,0:0:0:0:
400,56,86251,5,14,0:3:0:0:
400,56,86251,5,14,0:3:0:0:
128,272,86268,1,0,0:0:0:0:
128,272,86268,1,0,0:0:0:0:
368,144,86284,5,14,0:3:0:0:
368,144,86284,5,14,0:3:0:0:
364,358,86284,1,0,0:0:0:0:
364,358,86284,1,0,0:0:0:0:
136,336,86293,1,0,0:0:0:0:
136,336,86293,1,0,0:0:0:0:
168,360,86318,1,0,0:0:0:0:
168,360,86318,1,0,0:0:0:0:
345,365,86334,1,0,0:0:0:0:
345,365,86334,1,0,0:0:0:0:
200,352,86343,1,0,0:0:0:0:
200,352,86343,1,0,0:0:0:0:
232,352,86368,1,0,0:0:0:0:
232,352,86368,1,0,0:0:0:0:
336,0,86384,1,14,0:3:0:0:
336,0,86384,1,14,0:3:0:0:
326,370,86384,1,0,0:0:0:0:
326,370,86384,1,0,0:0:0:0:
280,320,86393,1,0,0:0:0:0:
280,320,86393,1,0,0:0:0:0:
312,288,86418,1,0,0:0:0:0:
312,288,86418,1,0,0:0:0:0:
306,373,86434,1,0,0:0:0:0:
306,373,86434,1,0,0:0:0:0:
360,256,86443,1,0,0:0:0:0:
360,256,86443,1,0,0:0:0:0:
336,200,86468,1,0,0:0:0:0:
336,200,86468,1,0,0:0:0:0:
264,144,86484,5,14,0:3:0:0:
264,144,86484,5,14,0:3:0:0:
287,373,86484,1,0,0:0:0:0:
287,373,86484,1,0,0:0:0:0:
240,184,86493,1,0,0:0:0:0:
240,184,86493,1,0,0:0:0:0:
176,128,86518,1,0,0:0:0:0:
176,128,86518,1,0,0:0:0:0:
267,371,86534,1,0,0:0:0:0:
267,371,86534,1,0,0:0:0:0:
216,112,86543,1,0,0:0:0:0:
216,112,86543,1,0,0:0:0:0:
264,96,86568,1,0,0:0:0:0:
264,96,86568,1,0,0:0:0:0:
400,56,86584,5,14,0:3:0:0:
400,56,86584,5,14,0:3:0:0:
247,367,86584,1,0,0:0:0:0:
247,367,86584,1,0,0:0:0:0:
320,96,86593,1,0,0:0:0:0:
320,96,86593,1,0,0:0:0:0:
368,104,86618,1,0,0:0:0:0:
368,104,86618,1,0,0:0:0:0:
229,360,86634,1,0,0:0:0:0:
229,360,86634,1,0,0:0:0:0:
400,136,86643,1,0,0:0:0:0:
400,136,86643,1,0,0:0:0:0:
400,176,86668,1,0,0:0:0:0:
400,176,86668,1,0,0:0:0:0:
211,352,86684,1,0,0:0:0:0:
211,352,86684,1,0,0:0:0:0:
400,240,86693,1,0,0:0:0:0:
400,240,86693,1,0,0:0:0:0:
352,328,86718,1,0,0:0:0:0:
352,328,86718,1,0,0:0:0:0:
194,341,86734,1,0,0:0:0:0:
194,341,86734,1,0,0:0:0:0:
320,336,86743,1,0,0:0:0:0:
320,336,86743,1,0,0:0:0:0:
232,336,86768,1,0,0:0:0:0:
232,336,86768,1,0,0:0:0:0:
179,329,86784,1,0,0:0:0:0:
179,329,86784,1,0,0:0:0:0:
160,120,86793,1,0,0:0:0:0:
160,120,86793,1,0,0:0:0:0:
152,176,86818,1,0,0:0:0:0:
152,176,86818,1,0,0:0:0:0:
165,314,86834,1,0,0:0:0:0:
165,314,86834,1,0,0:0:0:0:
320,32,86843,1,0,0:0:0:0:
320,32,86843,1,0,0:0:0:0:
153,299,86884,1,0,0:0:0:0:
153,299,86884,1,0,0:0:0:0:
360,64,86893,1,0,0:0:0:0:
360,64,86893,1,0,0:0:0:0:
352,160,86918,1,0,0:0:0:0:
352,160,86918,1,0,0:0:0:0:
143,282,86934,1,0,0:0:0:0:
143,282,86934,1,0,0:0:0:0:
352,280,86943,1,0,0:0:0:0:
352,280,86943,1,0,0:0:0:0:
248,312,86968,1,0,0:0:0:0:
248,312,86968,1,0,0:0:0:0:
134,264,86984,1,0,0:0:0:0:
134,264,86984,1,0,0:0:0:0:
208,320,86993,1,0,0:0:0:0:
208,320,86993,1,0,0:0:0:0:
168,296,87018,1,0,0:0:0:0:
168,296,87018,1,0,0:0:0:0:
128,245,87034,1,0,0:0:0:0:
128,245,87034,1,0,0:0:0:0:
168,224,87043,1,0,0:0:0:0:
168,224,87043,1,0,0:0:0:0:
192,176,87068,1,0,0:0:0:0:
192,176,87068,1,0,0:0:0:0:
125,225,87084,1,0,0:0:0:0:
125,225,87084,1,0,0:0:0:0:
280,112,87093,1,0,0:0:0:0:
280,112,87093,1,0,0:0:0:0:
352,64,87118,1,0,0:0:0:0:
352,64,87118,1,0,0:0:0:0:
123,206,87134,1,0,0:0:0:0:
123,206,87134,1,0,0:0:0:0:
280,48,87143,1,0,0:0:0:0:
280,48,87143,1,0,0:0:0:0:
168,48,87168,1,0,0:0:0:0:
168,48,87168,1,0,0:0:0:0:
124,186,87184,1,0,0:0:0:0:
124,186,87184,1,0,0:0:0:0:
104,64,87193,1,0,0:0:0:0:
104,64,87193,1,0,0:0:0:0:
96,160,87218,1,0,0:0:0:0:
96,160,87218,1,0,0:0:0:0:
127,166,87234,1,0,0:0:0:0:
127,166,87234,1,0,0:0:0:0:
88,224,87243,1,0,0:0:0:0:
88,224,87243,1,0,0:0:0:0:
88,280,87268,1,0,0:0:0:0:
88,280,87268,1,0,0:0:0:0:
132,147,87284,1,0,0:0:0:0:
132,147,87284,1,0,0:0:0:0:
104,320,87293,1,0,0:0:0:0:
104,320,87293,1,0,0:0:0:0:
128,344,87318,1,0,0:0:0:0:
128,344,87318,1,0,0:0:0:0:
140,129,87334,1,0,0:0:0:0:
140,129,87334,1,0,0:0:0:0:
160,368,87343,1,0,0:0:0:0:
160,368,87343,1,0,0:0:0:0:
224,376,87368,1,0,0:0:0:0:
224,376,87368,1,0,0:0:0:0:
149,112,87384,1,0,0:0:0:0:
149,112,87384,1,0,0:0:0:0:
264,368,87393,1,0,0:0:0:0:
264,368,87393,1,0,0:0:0:0:
352,328,87418,1,0,0:0:0:0:
352,328,87418,1,0,0:0:0:0:
161,95,87434,1,0,0:0:0:0:
161,95,87434,1,0,0:0:0:0:
312,352,87468,1,0,0:0:0:0:
312,352,87468,1,0,0:0:0:0:
174,81,87484,1,0,0:0:0:0:
174,81,87484,1,0,0:0:0:0:
392,288,87493,1,0,0:0:0:0:
392,288,87493,1,0,0:0:0:0:
328,224,87518,1,0,0:0:0:0:
328,224,87518,1,0,0:0:0:0:
189,68,87534,1,0,0:0:0:0:
189,68,87534,1,0,0:0:0:0:
205,57,87584,1,0,0:0:0:0:
205,57,87584,1,0,0:0:0:0:
223,47,87634,1,0,0:0:0:0:
223,47,87634,1,0,0:0:0:0:
241,40,87684,1,0,0:0:0:0:
241,40,87684,1,0,0:0:0:0:
261,35,87734,1,0,0:0:0:0:
261,35,87734,1,0,0:0:0:0:
280,32,87784,1,0,0:0:0:0:
280,32,87784,1,0,0:0:0:0:
300,32,87834,1,0,0:0:0:0:
300,32,87834,1,0,0:0:0:0:
320,34,87884,1,0,0:0:0:0:
320,34,87884,1,0,0:0:0:0:
339,38,87934,1,0,0:0:0:0:
339,38,87934,1,0,0:0:0:0:
358,44,87984,1,0,0:0:0:0:
358,44,87984,1,0,0:0:0:0:
376,53,88034,1,0,0:0:0:0:
376,53,88034,1,0,0:0:0:0:
392,64,88084,1,0,0:0:0:0:
392,64,88084,1,0,0:0:0:0:
152,288,88234,1,0,0:0:0:0:
152,288,88234,1,0,0:0:0:0:
312,400,88284,1,0,0:0:0:0:
312,400,88284,1,0,0:0:0:0:
272,192,88334,1,0,0:0:0:0:
272,192,88334,1,0,0:0:0:0:
208,400,88384,1,0,0:0:0:0:
208,400,88384,1,0,0:0:0:0:
256,192,88418,12,8,88618,0:0:0:0:
256,192,88418,12,8,88618,0:0:0:0:
384,360,88434,5,0,0:0:0:0:
384,360,88434,1,0,0:0:0:0:
144,104,88484,1,0,0:0:0:0:
144,104,88484,1,0,0:0:0:0:
312,232,88534,1,0,0:0:0:0:
312,232,88534,1,0,0:0:0:0:
264,40,88584,1,0,0:0:0:0:
264,40,88584,1,0,0:0:0:0:
176,232,88634,1,0,0:0:0:0:
176,232,88634,1,0,0:0:0:0:
352,160,88684,1,0,0:0:0:0:
352,160,88684,1,0,0:0:0:0:
128,120,88734,1,0,0:0:0:0:
128,120,88734,1,0,0:0:0:0:
152,368,88784,1,0,0:0:0:0:
152,368,88784,1,0,0:0:0:0:
400,32,88834,1,0,0:0:0:0:
400,32,88834,1,0,0:0:0:0:
112,16,88884,1,0,0:0:0:0:
112,16,88884,1,0,0:0:0:0:
256,240,88934,1,0,0:0:0:0:
256,240,88934,1,0,0:0:0:0:
272,384,88984,1,0,0:0:0:0:
272,384,88984,1,0,0:0:0:0:
368,296,89018,6,0,B|144:264|352:296,3,216.666666666667
368,296,89018,6,0,B|144:264|352:296,3,216.666666666667
80,352,89034,1,0,0:0:0:0:
80,352,89034,1,0,0:0:0:0:
384,176,89084,1,0,0:0:0:0:
384,176,89084,1,0,0:0:0:0:
176,216,89134,1,0,0:0:0:0:
176,216,89134,1,0,0:0:0:0:
360,360,89184,1,0,0:0:0:0:
360,360,89184,1,0,0:0:0:0:
112,176,89234,1,0,0:0:0:0:
112,176,89234,1,0,0:0:0:0:
400,0,89284,1,0,0:0:0:0:
400,0,89284,1,0,0:0:0:0:
168,0,89334,1,0,0:0:0:0:
168,0,89334,1,0,0:0:0:0:
160,352,89384,1,0,0:0:0:0:
160,352,89384,1,0,0:0:0:0:
376,264,89434,1,0,0:0:0:0:
376,264,89434,1,0,0:0:0:0:
192,104,89484,1,0,0:0:0:0:
192,104,89484,1,0,0:0:0:0:
336,80,89534,1,0,0:0:0:0:
336,80,89534,1,0,0:0:0:0:
188,132,90084,2,0,B|368:192|256:136,1,162.5
188,132,90084,2,0,B|368:192|256:136,1,162.5
96,75,90450,2,0,B|144:456|312:200|424:240|424:240|288:-40|304:232,1,800
96,75,90450,2,0,B|144:456|312:200|424:240|424:240|288:-40|304:232,1,800
