osu file format v14

[General]
AudioFilename: fukkireta.mp3
AudioLeadIn: 0
PreviewTime: 5986
Countdown: 1
SampleSet: Soft
StackLeniency: 0.6
Mode: 0
LetterboxInBreaks: 1
WidescreenStoryboard: 1

[Editor]
Bookmarks: 22586,35386,48386
DistanceSpacing: 0.8
BeatDivisor: 4
GridSize: 8
TimelineZoom: 1

[Metadata]
Title:Ochame Kinou
TitleUnicode:おちゃめ機能
Artist:Lon
ArtistUnicode:Lon
Creator:nookls
Version:Hard
Source:
Tags:fukkireta mischievous function kasane teto itsudemo love you nico nico douga
BeatmapID:637315
BeatmapSetID:202435

[Difficulty]
HPDrainRate:6
CircleSize:4
OverallDifficulty:6.5
ApproachRate:8
SliderMultiplier:1.9
SliderTickRate:1

[Events]
//Background and Video events
0,0,"Teto007.jpg",0,0
//Break Periods
//Storyboard Layer 0 (Background)
//Storyboard Layer 1 (Fail)
//Storyboard Layer 2 (Pass)
//Storyboard Layer 3 (Foreground)
//Storyboard Sound Samples

[TimingPoints]
186,400,4,2,0,100,1,0
6586,-100,4,2,0,100,0,1
19386,-100,4,2,0,100,0,0
22586,-111.111111111111,4,2,0,100,0,0
60986,-100,4,2,0,100,0,1
73786,-100,4,2,0,100,0,0

[Colours]
Combo1 : 255,128,255
Combo2 : 255,128,192
Combo3 : 255,0,128
Combo4 : 242,24,57

[HitObjects]
88,104,186,5,4,0:0:0:0:
152,168,386,1,0,0:0:0:0:
216,96,586,1,8,0:0:0:0:
304,112,786,1,0,0:0:0:0:
304,112,886,2,0,P|368:88|440:80,1,95
393,82,1186,1,0,0:0:0:0:
456,288,1386,2,0,P|432:256|352:208,1,95,8|0,0:0|0:0,0:0:0:0:
320,328,1786,6,0,P|240:320|200:328,1,95,4|0,0:0|0:0,0:0:0:0:
152,272,2186,1,8,0:0:0:0:
72,216,2386,1,0,0:0:0:0:
72,216,2486,2,0,P|112:160|160:120,1,95
130,142,2786,1,0,0:0:0:0:
208,120,2986,2,0,P|168:72|96:64,1,95,8|0,0:0|0:0,0:0:0:0:
256,176,3386,6,0,P|320:160|376:168,1,95,4|0,0:0|0:0,0:0:0:0:
432,152,3786,2,0,P|424:200|376:256,1,95,8|0,0:0|0:0,0:0:0:0:
320,320,4086,2,0,P|251:349|192:336,1,95
232,348,4386,1,0,0:0:0:0:
176,216,4586,1,8,0:0:0:0:
256,112,4786,1,0,0:0:0:0:
336,216,4986,1,4,0:0:0:0:
56,80,5986,5,0,0:0:0:0:
96,72,6186,1,0,0:0:0:0:
136,56,6386,1,0,0:0:0:0:
72,184,6586,2,0,P|144:160|184:152,1,95,4|0,0:0|0:0,0:0:0:0:
192,232,6986,1,8,0:0:0:0:
280,200,7186,1,0,0:0:0:0:
280,200,7286,2,0,P|304:128|360:80,1,142.5
408,144,7786,2,0,P|448:96|480:64,1,95,8|0,0:0|0:0,0:0:0:0:
464,240,8186,5,4,0:0:0:0:
448,328,8386,2,0,P|384:336|344:312,1,95,0|8,0:0|0:0,0:0:0:0:
272,264,8786,1,0,0:0:0:0:
272,264,8886,2,0,P|264:192|208:128,1,142.5
88,112,9386,1,8,0:0:0:0:
56,208,9586,1,0,0:0:0:0:
160,216,9786,6,0,P|208:160|256:128,1,95,4|0,0:0|0:0,0:0:0:0:
304,80,10186,1,8,0:0:0:0:
304,80,10386,1,0,0:0:0:0:
304,80,10486,2,0,P|344:128|352:216,1,142.5
432,264,10986,1,8,0:0:0:0:
368,328,11186,6,0,P|304:328|256:296,1,95,0|2,0:0|0:0,0:0:0:0:
160,280,11586,1,0,0:0:0:0:
72,208,11786,1,8,0:0:0:0:
72,208,11986,2,0,P|120:168|248:136,1,190
312,88,12586,2,0,P|320:160|288:216,1,95,8|0,0:0|0:0,0:0:0:0:
368,312,12986,5,4,0:0:0:0:
296,344,13186,1,0,0:0:0:0:
216,336,13386,2,0,P|200:272|168:240,1,95,8|0,0:0|0:0,0:0:0:0:
182,250,13686,2,0,P|200:200|248:112,1,142.5
160,88,14186,1,8,0:0:0:0:
264,48,14386,1,0,0:0:0:0:
376,96,14586,5,4,0:0:0:0:
456,112,14786,2,0,P|432:176|376:200,1,95,0|8,0:0|0:0,0:0:0:0:
360,296,15186,1,0,0:0:0:0:
360,296,15286,2,0,P|296:280|232:288,1,95
267,280,15586,2,0,P|216:248|152:240,1,95,0|8,0:0|0:0,0:0:0:0:
112,192,15986,1,0,0:0:0:0:
48,128,16186,6,0,P|96:96|144:80,1,95,4|0,0:0|0:0,0:0:0:0:
216,88,16586,1,8,0:0:0:0:
304,88,16786,1,0,0:0:0:0:
304,88,16886,2,0,P|368:88|432:152,1,142.5
408,224,17386,2,0,P|336:208|288:224,1,95,8|0,0:0|0:0,0:0:0:0:
240,208,17786,6,0,P|224:280|184:328,1,95,4|0,0:0|0:0,0:0:0:0:
112,256,18186,1,8,0:0:0:0:
80,160,18386,2,0,P|136:136|264:120,1,190
344,120,18986,1,8,0:0:0:0:
440,120,19386,5,4,0:0:0:0:
440,208,19586,1,0,0:0:0:0:
440,296,19786,1,8,0:0:0:0:
352,296,19986,2,0,L|328:248,1,47.5
256,256,20286,2,0,L|240:304,1,47.5
160,280,20586,1,8,0:0:0:0:
104,192,20786,1,2,0:0:0:0:
104,192,20886,1,2,0:0:0:0:
104,192,20986,6,0,P|144:128|176:80,1,95
240,112,21386,1,8,0:0:0:0:
320,72,21586,2,0,L|320:128,1,47.5
392,176,21986,2,0,P|352:208|272:184,1,95,0|8,0:0|0:0,0:0:0:0:
80,240,22586,6,0,P|152:304|240:288,1,170.999994781494,0|8,0:0|0:0,0:0:0:0:
176,224,23186,1,0,0:0:0:0:
112,152,23386,2,0,P|232:168|264:208,1,170.999994781494,0|8,0:0|0:0,0:0:0:0:
296,296,23986,1,0,0:0:0:0:
400,320,24186,2,0,P|392:272|376:208,1,85.4999973907472
456,160,24586,1,8,0:0:0:0:
392,80,24786,2,0,P|336:40|296:8,1,85.4999973907472
296,144,25386,1,8,0:0:0:0:
248,224,25786,6,0,P|320:224|392:128,1,170.999994781494,0|8,0:0|0:0,0:0:0:0:
272,104,26386,1,0,0:0:0:0:
272,104,26586,2,0,P|192:104|128:176,1,170.999994781494,0|8,0:0|0:0,0:0:0:0:
80,256,27186,1,0,0:0:0:0:
176,304,27386,2,0,P|216:344|232:304,1,85.4999973907472
272,248,27786,2,0,P|312:216|336:256,1,85.4999973907472,8|0,0:0|0:0,0:0:0:0:
416,320,28186,2,0,P|432:280|400:152,1,170.999994781494,0|8,0:0|0:0,0:0:0:0:
464,80,28986,6,0,P|368:64|320:128,1,170.999994781494,0|8,0:0|0:0,0:0:0:0:
304,200,29586,1,0,0:0:0:0:
280,288,29786,2,0,P|200:256|168:176,1,170.999994781494,0|8,0:0|0:0,0:0:0:0:
80,176,30386,1,0,0:0:0:0:
88,80,30586,1,0,0:0:0:0:
176,96,30786,1,0,0:0:0:0:
256,56,30986,2,0,P|328:48|352:56,1,85.4999973907472,8|0,0:0|0:0,0:0:0:0:
304,144,31386,2,0,P|360:192|464:168,1,170.999994781494,0|8,0:0|0:0,0:0:0:0:
464,336,32186,6,0,P|384:312|296:320,1,170.999994781494,0|8,0:0|0:0,0:0:0:0:
200,320,32786,1,0,0:0:0:0:
200,320,32986,2,0,P|160:296|40:320,1,170.999994781494,0|8,0:0|0:0,0:0:0:0:
72,192,33586,1,0,0:0:0:0:
144,168,33786,1,0,0:0:0:0:
216,144,33986,1,0,0:0:0:0:
288,120,34186,1,8,0:0:0:0:
360,96,34386,1,0,0:0:0:0:
440,80,34586,2,0,L|440:192,2,85.4999973907472,0|0|8,0:0|0:0|0:0,0:0:0:0:
440,328,35386,6,0,P|368:344|288:296,1,170.999994781494,0|8,0:0|0:0,0:0:0:0:
320,208,35986,1,0,0:0:0:0:
320,208,36186,2,0,P|288:136|184:128,1,170.999994781494,0|8,0:0|0:0,0:0:0:0:
120,200,36786,1,0,0:0:0:0:
64,288,36986,2,0,P|120:320|160:320,1,85.4999973907472
216,272,37386,1,8,0:0:0:0:
328,280,37586,2,0,P|360:312|408:368,2,85.4999973907472,0|0|2,0:0|0:0|0:0,0:0:0:0:
328,280,38186,1,8,0:0:0:0:
408,152,38586,6,0,B|408:72|544:72|408:40,1,170.999994781494,0|8,0:0|0:0,0:0:0:0:
336,88,39186,1,0,0:0:0:0:
272,144,39386,2,0,P|272:200|184:304,1,170.999994781494,0|8,0:0|0:0,0:0:0:0:
136,224,39986,1,0,0:0:0:0:
136,224,40186,1,0,0:0:0:0:
184,88,40386,2,0,L|208:160,2,42.7499986953736,0|0|8,0:0|0:0|0:0,0:0:0:0:
256,224,40786,1,0,0:0:0:0:
368,160,40986,1,0,0:0:0:0:
408,240,41186,2,0,P|384:288|408:352,1,85.4999973907472,2|8,0:0|0:0,0:0:0:0:
264,312,41786,6,0,L|88:272,1,170.999994781494,0|8,0:0|0:0,0:0:0:0:
