osu file format v14

[General]
AudioFilename: ochame.mp3
AudioLeadIn: 1489
PreviewTime: 5950
Countdown: 0
SampleSet: Normal
StackLeniency: 0.7
Mode: 0
LetterboxInBreaks: 0
WidescreenStoryboard: 1

[Editor]
Bookmarks: 5960,14170,22560,48160,60960,74360,89360
DistanceSpacing: 1.6
BeatDivisor: 4
GridSize: 8
TimelineZoom: 2.3

[Metadata]
Title:Ochame Kinou
TitleUnicode:おちゃめ機能
Artist:Lon
ArtistUnicode:ろん
Creator:Heatherfield
Version:10000000
Source:Nico Nico Douga
Tags:gojimaji-p kasane teto utau ochame kinou fukkireta lamaze-p
BeatmapID:787094
BeatmapSetID:357878

[Difficulty]
HPDrainRate:7
CircleSize:4
OverallDifficulty:8
ApproachRate:8.7
SliderMultiplier:2
SliderTickRate:1

[Events]
//Background and Video events
0,0,"46491764_p0.jpg",0,0
Video,-20,"smile.flv"
//Break Periods
//Storyboard Layer 0 (Background)
//Storyboard Layer 1 (Fail)
//Storyboard Layer 2 (Pass)
//Storyboard Layer 3 (Foreground)
//Storyboard Sound Samples

[TimingPoints]
170,400,4,1,1,60,1,0
4570,-58.8235294117647,4,1,2,60,0,0
5970,-100,4,1,1,60,0,0
6570,-100,4,1,1,60,0,1
19370,-100,4,1,1,60,0,0
60970,-100,4,1,1,60,0,1
86570,-100,4,1,1,60,0,0

[Colours]
Combo1 : 251,188,170
Combo2 : 249,153,249
Combo3 : 184,80,228
Combo4 : 217,217,217

[HitObjects]
49,119,170,5,0,0:2:0:0:
73,349,370,1,0,0:2:0:0:
191,219,570,1,8,0:2:0:0:
301,330,770,1,0,0:2:0:0:
328,310,870,1,0,0:2:0:0:
441,337,1070,1,0,0:2:0:0:
471,345,1170,1,0,0:2:0:0:
465,138,1370,2,0,P|455:205|460:241,1,100,8|0,0:2|0:2,0:2:0:0:
433,47,1770,5,0,0:2:0:0:
235,30,1970,1,0,0:2:0:0:
383,149,2170,1,8,0:2:0:0:
234,228,2370,1,0,0:2:0:0:
237,194,2470,1,0,0:2:0:0:
163,322,2670,1,0,0:2:0:0:
149,283,2770,1,0,0:2:0:0:
290,357,2970,2,0,P|345:340|407:338,1,100,8|0,0:2|0:2,0:2:0:0:
478,128,3370,5,0,0:2:0:0:
336,261,3570,1,0,0:2:0:0:
202,158,3770,1,8,0:2:0:0:
86,228,3970,1,0,0:2:0:0:
50,212,4070,1,0,0:2:0:0:
167,313,4270,1,0,0:2:0:0:
131,297,4370,1,0,0:2:0:0:
0,232,4570,6,0,P|-30:345|94:359,1,255.000004863739,8|0,0:1|0:2,0:2:0:0:
104,340,4970,6,0,L|301:325,1,170.000003242493,4|0,0:2|0:2,0:2:0:0:
321,329,5270,2,0,P|374:238|359:116,1,170.000003242493,4|0,0:2|0:2,0:2:0:0:
363,118,5570,1,4,0:2:0:0:
87,100,5970,5,0,0:0:0:0:
87,100,6170,1,0,0:0:0:0:
87,100,6370,1,0,0:0:0:0:
87,100,6570,2,0,P|159:80|213:83,1,100,4|0,0:0|0:0,0:0:0:0:
182,247,6970,1,8,0:0:0:0:
302,159,7170,1,0,0:0:0:0:
340,162,7270,2,0,P|353:105|355:52,1,100,0|0,0:0|0:0,0:0:0:0:
404,56,7570,5,0,0:0:0:0:
182,54,7770,1,8,0:0:0:0:
246,169,7970,1,0,0:0:0:0:
404,56,8170,2,0,P|454:112|463:150,1,100,0|0,0:0|0:0,0:0:0:0:
247,184,8570,1,8,0:0:0:0:
407,249,8770,1,0,0:0:0:0:
424,284,8870,2,0,L|404:384,1,100,0|0,0:0|0:0,0:0:0:0:
350,371,9170,5,0,0:0:0:0:
302,153,9370,1,8,0:0:0:0:
196,219,9570,1,0,0:0:0:0:
350,371,9770,2,0,P|285:346|237:344,1,100,0|0,0:0|0:0,0:0:0:0:
58,309,10170,1,8,0:0:0:0:
207,243,10370,1,0,0:0:0:0:
238,239,10470,2,0,P|244:177|228:126,1,100,0|0,0:0|0:0,0:0:0:0:
211,92,10770,6,0,P|130:81|98:75,1,100,0|8,0:0|0:0,0:0:0:0:
1,37,11170,1,0,0:0:0:0:
106,183,11370,1,0,0:0:0:0:
24,275,11570,1,0,0:0:0:0:
24,275,11670,1,0,0:0:0:0:
24,275,11770,1,8,0:0:0:0:
221,335,11970,2,0,P|233:267|250:227,1,100,0|0,0:0|0:0,0:0:0:0:
281,219,12270,1,0,0:0:0:0:
281,219,12370,1,0,0:0:0:0:
415,328,12570,1,8,0:0:0:0:
415,328,12670,1,0,0:0:0:0:
415,328,12770,1,0,0:0:0:0:
415,328,12870,1,0,0:0:0:0:
415,328,12970,6,0,P|435:261|431:190,1,100,0|0,0:0|0:0,0:0:0:0:
237,182,13370,1,8,0:0:0:0:
377,87,13570,1,0,0:0:0:0:
377,87,13670,2,0,P|288:69|249:73,1,100,0|0,0:0|0:0,0:0:0:0:
225,91,13970,2,0,L|211:150,1,50,0|0,0:0|2:0,0:0:0:0:
265,246,14170,2,0,L|276:197,1,50,8|0,0:0|2:0,0:0:0:0:
345,284,14370,2,0,L|333:332,1,50,0|0,0:0|2:0,0:0:0:0:
284,366,14570,6,0,P|229:357|181:355,1,100,0|0,0:0|0:0,0:0:0:0:
120,201,14970,1,8,0:0:0:0:
338,251,15170,1,0,0:0:0:0:
360,285,15270,2,0,P|423:302|473:296,1,100,0|0,0:0|0:0,0:0:0:0:
493,276,15570,2,0,L|507:217,1,50,0|0,0:0|2:0,0:0:0:0:
453,120,15770,2,0,L|441:168,1,50,8|0,0:0|2:0,0:0:0:0:
373,83,15970,2,0,L|384:34,1,50,0|0,0:0|2:0,0:0:0:0:
325,24,16170,6,0,P|256:30|208:26,1,100,0|0,0:0|0:0,0:0:0:0:
69,67,16570,2,0,P|123:91|148:130,1,100,8|0,0:0|0:0,0:0:0:0:
63,154,16870,2,0,L|89:281,1,100,0|0,0:0|0:0,0:0:0:0:
96,326,17170,2,0,B|49:338|49:338|-14:315,2,100,0|8|0,0:0|0:0|0:0,0:0:0:0:
302,243,17770,2,0,P|301:304|307:359,1,100,0|0,0:0|0:0,0:0:0:0:
355,361,18070,1,0,0:0:0:0:
355,361,18170,1,8,0:0:0:0:
479,142,18370,2,0,P|422:74|302:94,1,200,0|0,0:0|0:0,0:0:0:0:
292,116,18870,1,0,0:0:0:0:
292,116,18970,2,0,B|240:109|240:109|194:61,1,100,8|0,0:0|0:0,0:0:0:0:
67,57,19370,5,0,0:2:0:0:
32,161,19570,1,0,0:2:0:0:
14,168,19670,1,0,0:2:0:0:
47,193,19770,1,10,0:2:0:0:
106,339,19970,1,0,0:2:0:0:
101,314,20070,1,0,0:2:0:0:
123,323,20170,5,0,0:2:0:0:
132,299,20270,1,0,0:2:0:0:
142,276,20370,1,0,0:2:0:0:
151,253,20470,1,0,0:2:0:0:
160,230,20570,1,10,0:2:0:0:
267,63,20770,5,0,0:2:0:0:
244,111,20870,1,0,0:2:0:0:
230,94,20970,1,0,0:2:0:0:
262,279,21170,1,0,0:2:0:0:
285,231,21270,1,0,0:2:0:0:
299,248,21370,1,10,0:2:0:0:
405,90,21570,5,0,0:2:0:0:
409,65,21670,1,0,0:2:0:0:
362,67,21770,5,0,0:2:0:0:
369,90,21870,1,0,0:2:0:0:
373,114,21970,1,0,0:2:0:0:
375,138,22070,1,0,0:2:0:0:
448,170,22170,6,0,B|432:245|470:62,1,150,10|0,0:2|0:2,0:2:0:0:
429,39,22570,6,0,P|341:33|278:46,1,150,4|0,0:2|0:2,0:2:0:0:
216,92,22970,2,0,L|103:83,1,100,8|0,0:2|0:2,0:2:0:0:
311,163,23370,1,0,0:2:0:0:
127,228,23570,1,0,0:2:0:0:
127,228,23670,1,0,0:2:0:0:
127,228,23770,1,8,0:2:0:0:
302,273,23970,6,0,P|295:346|300:377,1,100,0|0,0:2|0:2,0:2:0:0:
431,222,24370,2,0,P|438:149|433:118,1,100,0|8,0:2|0:2,0:2:0:0:
329,63,24770,1,0,0:2:0:0:
251,154,24970,1,0,0:2:0:0:
251,154,25070,1,0,0:2:0:0:
132,134,25270,1,0,0:2:0:0:
132,134,25370,1,8,0:2:0:0:
417,281,25770,6,0,P|373:326|257:334,1,150,0|0,0:2|0:2,0:2:0:0:
246,301,26170,2,0,L|126:261,1,100,8|0,0:2|0:2,0:2:0:0:
289,155,26570,1,0,0:2:0:0:
289,155,26670,1,0,0:2:0:0:
289,155,26770,2,0,L|294:47,1,100,0|8,0:2|0:2,0:2:0:0:
427,197,27170,1,0,0:2:0:0:
427,197,27370,2,0,L|411:309,1,100,0|0,0:2|0:2,0:2:0:0:
261,383,27770,2,0,P|259:333|248:276,1,100,8|0,0:2|0:2,0:2:0:0:
170,124,28170,6,2,B|195:53|195:53|163:141,1,150,0|0,0:1|0:1,0:1:0:0:
153,169,28570,2,2,B|135:215|135:215|158:153,1,100,8|0,0:2|0:1,0:1:0:0:
54,328,28970,6,0,L|47:228,1,100,0|0,0:2|0:2,0:2:0:0:
47,228,29270,1,0,0:2:0:0:
47,228,29370,1,8,0:2:0:0:
120,105,29570,2,0,P|67:71|8:63,2,100,0|0|0,0:2|0:2|0:2,0:2:0:0:
207,203,30170,1,8,0:2:0:0:
207,203,30370,2,0,L|319:179,1,100,0|0,0:2|0:2,0:2:0:0:
457,73,30770,2,0,P|455:149|449:186,1,100,0|8,0:2|0:2,0:2:0:0:
372,315,31170,2,0,B|406:296|428:288|428:288|487:301,1,100,0|0,0:2|0:2,0:2:0:0:
493,305,31470,2,0,P|410:270|382:242,1,100,0|0,0:2|0:2,0:2:0:0:
379,228,31770,2,0,L|409:125,1,100,8|0,0:2|0:2,0:2:0:0:
290,19,32170,6,0,P|280:124|234:216,1,200,0|8,0:2|0:2,0:2:0:0:
100,147,32770,1,0,0:2:0:0:
100,147,32870,1,0,0:2:0:0:
100,147,32970,2,0,L|-21:136,2,100,0|0|8,0:2|0:2|0:2,0:2:0:0:
154,238,33570,1,0,0:2:0:0:
154,238,33770,5,0,0:2:0:0:
396,169,33970,1,0,0:2:0:0:
396,169,34170,1,8,0:2:0:0:
154,238,34370,1,0,0:2:0:0:
154,238,34570,2,0,L|205:246,1,50,0|0,0:2|0:2,0:2:0:0:
261,257,34770,2,0,P|264:293|252:371,1,100,0|8,0:2|0:2,0:2:0:0:
438,341,35170,1,2,0:2:0:0:
407,335,35270,1,2,0:2:0:0:
375,329,35370,6,0,P|363:261|400:161,1,150,4|0,0:2|0:2,0:2:0:0:
420,150,35770,1,8,0:2:0:0:
458,56,35970,1,0,0:2:0:0:
458,56,36070,1,0,0:2:0:0:
458,56,36170,2,0,P|408:46|356:50,1,100,0|0,0:2|0:2,0:2:0:0:
359,49,36570,1,8,0:2:0:0:
356,165,36770,2,0,B|344:194|419:202|469:173,1,100,0|0,0:2|0:2,0:2:0:0:
410,110,37170,5,0,0:2:0:0:
410,110,37370,1,8,0:2:0:0:
410,110,37570,1,0,0:2:0:0:
410,110,37770,2,0,B|403:174|403:174|337:153|332:106|339:76|363:47|380:41|427:24|470:50|481:95|481:134,1,350,0|0,0:2|0:2,0:2:0:0:
477,104,38570,6,0,L|495:218,1,100,0|0,0:2|0:2,0:2:0:0:
276,267,38970,1,8,0:2:0:0:
360,328,39170,2,0,L|371:228,1,100,0|0,0:2|0:2,0:2:0:0:
409,47,39570,1,0,0:2:0:0:
409,47,39670,1,2,0:2:0:0:
309,113,39870,1,0,0:2:0:0:
309,113,39970,2,0,L|198:99,1,100,2|0,0:2|0:2,0:2:0:0:
100,164,40370,2,0,L|-11:150,2,100,0|8|0,0:2|0:2|0:2,0:2:0:0:
238,183,40970,6,2,B|215:111|215:111|243:200,1,150,0|0,0:2|0:2,0:1:0:0:
250,229,41370,2,2,B|265:277|265:277|245:212,1,100,8|0,0:2|0:2,0:1:0:0:
385,334,41770,6,0,P|365:286|358:232,1,100,0|0,0:2|0:2,0:2:0:0:
512,298,42170,2,0,P|502:245|478:196,1,100,8|0,0:2|0:2,0:2:0:0:
364,43,42570,1,0,0:2:0:0:
364,43,42670,1,0,0:2:0:0:
364,43,42770,1,0,0:2:0:0:
364,43,42870,1,0,0:2:0:0:
364,43,42970,2,0,L|343:169,1,100,8|0,0:2|0:2,0:2:0:0:
247,256,43370,6,0,B|223:183|223:183|159:206|159:206|176:266,1,200,0|8,0:2|0:2,0:2:0:0:
94,312,43970,2,0,P|141:296|174:259,1,100,0|0,0:2|0:2,0:2:0:0:
174,259,44270,1,0,0:2:0:0:
174,259,44370,1,0,0:2:0:0:
174,259,44470,1,0,0:2:0:0:
174,259,44570,1,8,0:2:0:0:
361,318,44770,1,2,0:2:0:0:
330,312,44870,1,2,0:2:0:0:
298,306,44970,6,0,P|293:248|339:165,1,150,0|0,0:2|0:2,0:2:0:0:
369,155,45370,1,8,0:2:0:0:
462,75,45570,2,0,L|449:201,1,100,0|0,0:2|0:2,0:2:0:0:
321,317,45970,2,0,P|302:271|256:211,1,100,0|8,0:2|0:2,0:2:0:0:
273,229,46370,1,0,0:2:0:0:
178,45,46570,6,0,L|182:111,1,50,2|0,0:2|2:2,0:2:0:0:
85,90,46770,2,0,L|80:158,1,50,2|0,0:2|2:2,0:2:0:0:
137,338,46970,6,0,L|141:272,1,50,8|0,1:2|2:2,2:2:0:0:
44,293,47170,2,0,L|39:225,1,50,2|0,1:2|2:2,1:2:0:0:
42,53,47370,5,2,0:1:0:0:
45,73,47470,1,0,0:1:0:0:
121,107,47570,5,2,0:1:0:0:
124,84,47670,1,0,0:1:0:0:
196,131,47770,5,0,0:1:0:0:
189,154,47870,1,0,0:1:0:0:
244,212,47970,5,2,0:1:0:0:
258,192,48070,1,0,0:1:0:0:
291,276,48170,5,4,0:2:0:0:
443,340,48370,6,0,P|459:278|446:214,1,100,0|8,0:1|0:1,0:1:0:0:
438,133,48770,1,0,0:1:0:0:
248,186,48970,2,0,L|228:89,1,100,0|0,0:1|0:1,0:1:0:0:
56,47,49370,2,0,P|20:121|30:163,1,100,8|0,0:1|0:1,0:1:0:0:
53,173,49670,1,0,0:1:0:0:
32,312,49870,1,0,0:1:0:0:
70,303,49970,1,0,0:1:0:0:
109,294,50070,1,0,0:1:0:0:
148,285,50170,2,0,P|209:272|270:270,1,100,8|0,0:1|0:1,0:1:0:0:
388,326,50570,2,0,P|404:265|403:185,1,100,0|0,0:1|0:1,0:1:0:0:
403,185,50870,1,0,0:1:0:0:
227,347,51170,5,0,0:1:0:0:
227,347,51270,1,0,0:1:0:0:
227,347,51370,2,0,P|178:320|111:307,1,100,0|0,0:1|0:1,0:1:0:0:
258,69,51770,2,0,L|246:178,1,100,8|0,0:1|0:1,0:1:0:0:
125,183,52170,2,0,L|9:172,1,100,0|0,0:1|0:1,0:1:0:0:
226,325,52570,5,8,0:1:0:0:
263,312,52670,1,0,0:1:0:0:
302,306,52770,1,0,0:1:0:0:
341,309,52870,1,0,0:1:0:0:
379,320,52970,1,0,0:1:0:0:
454,189,53170,2,0,L|442:131,1,50,0|0,0:1|0:1,0:1:0:0:
424,96,53370,2,0,L|394:179,1,50,8|0,0:1|0:1,0:1:0:0:
351,246,53570,2,0,P|305:205|293:132,1,100,0|0,0:1|0:1,0:1:0:0:
170,41,53970,5,0,0:1:0:0:
163,80,54070,1,0,0:1:0:0:
56,123,54270,1,0,0:1:0:0:
62,162,54370,1,0,0:1:0:0:
64,201,54470,1,0,0:1:0:0:
56,240,54570,2,0,L|104:256,2,50,0|0|0,0:1|0:1|0:1,0:1:0:0:
150,346,54970,6,0,P|213:322|267:316,1,100,8|0,0:1|0:1,0:1:0:0:
287,348,55270,1,0,0:1:0:0:
301,310,55370,1,0,0:1:0:0:
315,273,55470,1,0,0:1:0:0:
347,297,55570,1,0,0:1:0:0:
379,321,55670,2,0,P|446:330|469:330,1,50,0|8,0:1|0:1,0:1:0:0:
469,166,55970,5,0,0:1:0:0:
482,178,56070,1,0,0:1:0:0:
496,185,56170,2,0,P|400:136|392:114,1,100,0|0,0:1|0:1,0:1:0:0:
266,51,56570,1,8,0:1:0:0:
250,331,56770,1,0,0:1:0:0:
250,331,56870,1,0,0:1:0:0:
250,331,56970,1,0,0:1:0:0:
250,331,57070,1,0,0:1:0:0:
250,331,57170,2,0,L|215:192,1,100,0|8,0:1|0:1,0:1:0:0:
26,111,57570,5,0,0:1:0:0:
52,101,57670,1,0,0:1:0:0:
76,125,57770,1,0,0:1:0:0:
111,108,57870,1,0,0:1:0:0:
148,137,57970,1,0,0:1:0:0:
190,113,58070,1,0,0:1:0:0:
240,145,58170,2,0,P|282:100|291:48,1,100,8|0,0:1|0:1,0:1:0:0:
486,273,58570,5,0,0:1:0:0:
460,283,58670,1,0,0:1:0:0:
436,259,58770,1,0,0:1:0:0:
401,276,58870,1,0,0:1:0:0:
364,247,58970,1,8,0:1:0:0:
322,271,59070,2,0,L|261:249,1,50,0|0,0:1|2:1,0:1:0:0:
181,271,59270,1,0,0:2:0:0:
181,271,59370,6,0,B|137:245|137:245|96:180,1,100,4|0,0:2|2:2,0:2:0:0:
65,190,59670,2,0,L|207:171,1,100,4|0,0:2|2:2,0:2:0:0:
265,116,59970,2,0,L|407:97,1,100,4|0,0:2|2:2,0:2:0:0:
388,325,60370,6,0,L|329:318,1,50,0|0,0:2|2:2,0:2:0:0:
116,280,60570,2,0,L|174:266,1,50,0|0,0:2|2:2,0:2:0:0:
260,190,60770,2,0,L|178:170,1,50,0|0,0:2|2:2,0:2:0:0:
153,156,60970,6,0,P|157:99|193:55,1,100,4|0,0:2|0:0,0:0:0:0:
358,207,61370,2,0,L|336:332,1,100,8|0,0:0|0:0,0:0:0:0:
362,339,61670,2,0,P|434:324|473:323,1,100,0|0,0:0|0:0,0:0:0:0:
495,297,61970,6,0,L|422:278,1,50,0|0,0:0|2:0,0:0:0:0:
234,211,62170,2,0,L|289:179,1,50,8|0,0:0|2:0,0:0:0:0:
366,107,62370,2,0,L|297:92,1,50,0|0,0:0|2:0,0:0:0:0:
278,68,62570,2,0,P|313:35|372:19,1,100,0|0,0:0|0:0,0:0:0:0:
255,244,62970,2,0,L|143:219,1,100,8|0,0:0|0:0,0:0:0:0:
127,195,63270,2,0,P|189:169|227:118,1,100,0|0,0:0|0:0,0:0:0:0:
249,113,63570,6,0,L|266:181,1,50,0|0,0:0|2:0,0:0:0:0:
327,353,63770,2,0,L|346:289,1,50,8|0,0:0|2:0,0:0:0:0:
394,203,63970,2,0,L|421:251,1,50,0|0,0:0|2:0,0:0:0:0:
453,279,64170,2,0,P|474:225|482:172,1,100,0|0,0:0|0:0,0:0:0:0:
305,186,64570,2,0,L|166:151,1,100,8|0,0:0|0:0,0:0:0:0:
209,191,64870,1,0,0:0:0:0:
133,272,65070,1,0,0:0:0:0:
123,244,65170,6,0,L|114:352,1,100,0|8,0:0|0:0,0:0:0:0:
0,279,65570,1,0,0:0:0:0:
295,293,65770,6,0,L|303:193,1,100,0|0,0:0|0:0,0:0:0:0:
390,256,66070,1,0,0:0:0:0:
390,256,66170,1,8,0:0:0:0:
152,184,66370,6,0,L|160:84,1,100
221,40,66670,1,0,0:0:0:0:
274,92,66770,1,0,0:0:0:0:
346,71,66870,2,0,L|354:2,1,50,0|8,0:0|0:0,0:0:0:0:
437,63,67070,1,0,0:0:0:0:
437,63,67170,1,0,0:0:0:0:
437,63,67270,1,0,0:0:0:0:
437,63,67370,6,0,P|458:140|460:190,1,100,0|0,0:0|0:0,0:0:0:0:
318,324,67770,2,0,L|418:312,1,100,8|0,0:0|0:0,0:0:0:0:
427,286,68070,1,0,0:0:0:0:
290,223,68270,1,0,0:0:0:0:
290,223,68370,1,0,0:0:0:0:
146,265,68570,1,8,0:0:0:0:
182,119,68770,1,0,0:0:0:0:
182,119,68870,1,0,0:0:0:0:
182,119,68970,6,0,P|171:42|157:-2,1,100,0|0,0:0|0:0,0:0:0:0:
307,107,69370,2,0,L|420:131,1,100,8|0,0:0|0:0,0:0:0:0:
414,104,69670,1,0,0:0:0:0:
445,250,69870,5,0,0:0:0:0:
445,250,69970,1,0,0:0:0:0:
345,362,70170,1,8,0:0:0:0:
288,222,70370,1,0,0:0:0:0:
288,222,70470,1,0,0:0:0:0:
288,222,70570,2,0,P|225:213|169:214,1,100,0|0,0:0|0:0,0:0:0:0:
39,83,70970,2,0,P|34:152|39:216,1,100,8|0,0:0|0:0,0:0:0:0:
44,218,71270,1,0,0:0:0:0:
34,348,71470,1,0,0:0:0:0:
70,334,71570,6,0,L|124:343,1,50,0|0,0:0|2:0,0:0:0:0:
202,296,71770,2,0,L|298:281,1,50,8|0,0:0|2:0,0:0:0:0:
375,337,71970,2,0,L|443:350,1,50,0|0,0:0|2:0,0:0:0:0:
494,294,72170,2,0,P|483:231|482:179,1,100,0|0,0:0|0:0,0:0:0:0:
502,95,72470,1,0,0:0:0:0:
502,95,72570,1,8,0:0:0:0:
502,95,72770,2,0,P|411:54|327:73,1,150,0|0,0:0|0:0,0:0:0:0:
284,44,73170,5,0,0:0:0:0:
224,97,73270,1,0,0:0:0:0:
146,76,73370,2,0,L|43:56,1,100,8|0,0:0|0:0,0:0:0:0:
3,126,73670,1,0,0:0:0:0:
3,126,73770,1,0,0:0:0:0:
389,287,74170,5,8,0:0:0:0:
306,342,74370,1,0,0:0:0:0:
306,342,74470,1,0,0:0:0:0:
306,342,74570,2,0,P|238:320|182:319,1,100
40,176,74970,5,10,0:2:0:0:
120,160,75070,5,2,0:2:0:0:
200,144,75170,5,2,0:2:0:0:
334,45,75370,6,0,L|330:111,1,50,2|0,0:2|2:2,0:2:0:0:
427,90,75570,2,0,L|432:158,1,50,2|0,0:2|2:2,0:2:0:0:
375,338,75770,6,0,L|371:272,1,50,8|0,1:2|2:2,2:2:0:0:
468,293,75970,2,0,L|473:225,1,50,2|0,1:2|2:2,1:2:0:0:
336,288,76170,6,0,L|270:292,1,50,2|0,0:2|2:2,0:2:0:0:
43,247,76370,6,0,L|109:251,1,50,2|0,1:2|2:2,2:2:0:0:
291,195,76570,2,0,L|223:190,1,50,8|0,0:2|2:2,0:2:0:0:
88,154,76770,2,0,L|156:149,1,50,8|0,1:2|2:2,1:2:0:0:
272,40,76970,6,0,B|392:64|392:64|304:168|304:168|320:256|408:240,1,400,0|0,0:0|0:0,0:0:0:0:
262,314,77970,1,0,0:0:0:0:
155,342,78170,2,0,P|116:301|98:235,1,100,8|0,0:0|0:0,0:0:0:0:
256,83,78570,2,0,L|244:208,1,100,0|0,0:0|0:0,0:0:0:0:
395,26,78970,2,0,P|394:78|382:152,1,100,8|0,0:0|0:0,0:0:0:0:
431,340,79370,5,2,0:2:0:0:
431,340,79470,1,2,0:2:0:0:
431,340,79570,1,2,0:2:0:0:
474,181,79770,1,8,0:0:0:0:
122,212,79970,1,2,0:2:0:0:
149,206,80070,1,2,0:2:0:0:
176,200,80170,6,0,P|168:140|156:97,1,100,0|0,0:0|0:0,0:0:0:0:
319,26,80570,2,0,L|308:143,1,100,8|0,0:0|0:0,0:0:0:0:
309,125,80970,1,0,0:0:0:0:
162,92,81170,2,0,L|39:87,2,100,0|8|0,0:0|0:0|0:0,0:0:0:0:
57,214,81770,5,0,0:0:0:0:
175,197,81970,1,0,0:0:0:0:
192,316,82170,1,8,0:0:0:0:
73,332,82370,2,0,P|199:302|330:303,1,200,0|0,0:0|0:0,0:0:0:0:
395,337,82970,1,8,0:0:0:0:
274,334,83170,2,0,L|283:221,1,100,0|0,0:0|0:0,0:0:0:0:
399,136,83570,2,0,L|267:116,1,100,0|8,0:0|0:0,0:0:0:0:
157,39,83970,1,0,0:0:0:0:
157,39,84070,1,0,0:0:0:0:
157,39,84170,2,0,L|142:149,1,100,0|0,0:0|0:0,0:0:0:0:
143,138,84570,1,8,0:0:0:0:
445,218,84770,5,0,0:0:0:0:
445,218,84870,1,0,0:0:0:0:
445,218,84970,2,0,P|370:187|320:177,1,100,0|0,0:0|0:0,0:0:0:0:
333,341,85370,1,8,0:0:0:0:
35,348,85570,1,0,0:0:0:0:
35,348,85670,1,2,0:2:0:0:
160,241,85870,1,0,0:0:0:0:
160,241,85970,1,2,0:2:0:0:
28,141,86170,2,0,L|53:204,1,50,8|0,0:0|0:0,0:0:0:0:
16,263,86370,1,0,0:0:0:0:
16,263,86470,1,0,0:0:0:0:
16,263,86570,5,0,0:0:0:0:
155,341,86770,1,0,0:0:0:0:
309,298,86970,1,2,0:0:0:0:
16,263,87270,5,0,0:0:0:0:
309,298,87570,5,0,0:0:0:0:
155,341,87770,1,2,0:0:0:0:
495,120,88170,5,0,0:0:0:0:
356,42,88370,1,0,0:0:0:0:
202,85,88570,1,2,0:0:0:0:
495,120,88870,5,0,0:0:0:0:
202,85,89170,5,2,0:0:0:0:
356,42,89370,1,2,0:0:0:0:
