osu file format v9

[General]
AudioFilename: ochame.mp3
AudioLeadIn: 1489
PreviewTime: 5950
Countdown: 0
SampleSet: Normal
StackLeniency: 0.7
Mode: 0
LetterboxInBreaks: 1

[Editor]
Bookmarks: 5960,22560,48160,60960,74360,89360
DistanceSpacing: 1.6
BeatDivisor: 4
GridSize: 8

[Metadata]
Title:Mischievous Function
Artist:Lon
Creator:gowww
Version:Insane
Source:Nico Nico Douga
Tags:gojimaji-p kasane teto utau ochame kinou fukkireta lamaze-p

[Difficulty]
HPDrainRate:7
CircleSize:4
OverallDifficulty:8
ApproachRate:8
SliderMultiplier:2
SliderTickRate:1

[Events]
//Background and Video events
0,0,"ok.jpg"
//Break Periods
//Storyboard Layer 0 (Background)
//Storyboard Layer 1 (Fail)
//Storyboard Layer 2 (Pass)
//Storyboard Layer 3 (Foreground)
//Storyboard Sound Samples
//Background Colour Transformations
3,100,163,162,255

[TimingPoints]
170,400,4,1,1,80,1,0
4570,-66.6666666666667,4,1,1,80,0,0
4770,-100,4,1,1,80,0,0
5570,-200,4,1,1,80,0,0
5770,-100,4,2,1,0,0,0
5870,-100,4,2,1,30,0,0
6070,-100,4,2,1,50,0,0
6270,-100,4,2,1,70,0,0
6470,-100,4,1,1,80,0,0
6570,-100,4,1,1,80,0,1
6670,-100,4,1,1,80,0,0
12570,-200,4,1,1,80,0,0
12770,-100,4,2,1,0,0,0
12870,-100,4,1,1,80,0,0
21770,-100,4,1,1,90,0,0
22170,-200,4,1,1,90,0,0
22370,-100,4,2,1,0,0,0
22470,-125,4,1,0,70,0,0
34970,-200,4,1,0,70,0,0
35170,-125,4,2,0,0,0,0
35270,-125,4,1,0,70,0,0
48070,-111.111111111111,4,1,0,75,0,0
48170,-111.111111111111,4,1,0,75,0,1
48270,-111.111111111111,4,1,0,75,0,0
53770,-66.6666666666667,4,1,0,75,0,0
53970,-111.111111111111,4,1,0,75,0,0
59970,-200,4,1,0,75,0,0
60170,-100,4,2,1,30,0,0
60470,-100,4,2,1,50,0,0
60670,-100,4,2,1,70,0,0
60870,-100,4,1,1,80,0,0
60970,-100,4,1,1,80,0,1
73770,-200,4,1,1,65,0,0
74170,-100,4,1,1,80,0,0
76770,-133.333333333333,4,1,1,80,0,0
77770,-100,4,1,1,80,0,0
88970,-100,4,1,1,90,0,0
89070,-100,4,1,1,95,0,0
89270,-100,4,1,1,100,0,0
89370,-100,4,1,1,100,0,1
89470,-100,4,1,1,100,0,0

[Colours]
Combo1 : 225,225,225
Combo2 : 255,77,255
Combo3 : 0,0,162

[HitObjects]
296,48,170,2,0,B|256:40|240:40|192:48,1,100,4|0
112,88,570,1,8
48,232,770,1,0
48,232,870,1,0
192,168,1070,1,0
192,168,1170,1,0
136,240,1370,1,8
152,280,1470,1,0
184,312,1570,1,0
264,280,1770,6,0,B|320:264|376:264,1,100,4|0
432,320,2170,1,8
472,168,2370,1,0
472,168,2470,1,0
328,96,2670,1,0
328,96,2770,1,0
256,40,2970,1,8
208,32,3070,1,0
160,40,3170,1,0
72,56,3370,6,0,B|24:112|24:168,1,100,4|0
80,216,3770,1,8
152,168,3970,1,0
192,152,4070,1,0
240,232,4270,1,0
280,248,4370,1,0
400,187,4570,6,0,B|445:211|476:284|368:272|352:232,1,149.999995529652,12|0
256,48,4970,5,4
72,320,5270,1,4
440,320,5570,2,0,B|440:256,1,50,4|0
472,152,5970,5,4
296,120,6170,1,4
120,144,6370,1,4
48,192,6570,6,0,B|32:240|40:304,1,100,4|0
64,304,6870,1,0
96,312,6970,1,8
128,320,7070,1,0
160,328,7170,1,0
192,336,7270,1,0
224,344,7370,1,8
312,328,7570,5,0
448,248,7770,1,8
296,192,7970,1,0
384,168,8170,5,12
376,136,8270,1,0
368,104,8370,1,0
360,72,8470,1,0
352,40,8570,1,8
328,64,8670,1,0
304,88,8770,2,0,B|264:56,2,50
232,32,9170,5,0
176,104,9370,1,8
272,200,9570,1,0
184,192,9770,5,12
160,208,9870,1,0
136,224,9970,1,0
160,240,10070,1,0
184,256,10170,1,8
208,272,10270,1,0
184,296,10370,2,0,B|144:328,2,50,0|0|8
344,320,10770,5,0
440,192,10970,1,8
344,64,11170,1,0
192,112,11370,6,0,B|160:168|176:224,1,100,4|0
440,192,11770,1,8
192,112,11970,2,0,B|120:112|64:152|72:168,2,100
440,192,12570,2,0,B|440:240,1,50,12|0
312,336,12970,5,4
152,336,13170,1,0
40,224,13370,5,8
48,192,13470,1,0
56,160,13570,1,0
64,128,13670,1,0
72,96,13770,1,8
152,56,13970,5,0
288,136,14170,1,8
424,224,14370,1,0
288,136,14570,5,12
272,160,14670,1,0
256,184,14770,1,0
240,208,14870,1,0
224,232,14970,1,8
208,256,15070,1,0
192,280,15170,2,0,B|136:352|88:360,1,100,0|8
48,296,15570,6,0,B|8:192,2,100,0|8|0
72,136,16170,5,12
96,120,16270,1,0
120,104,16370,1,0
144,88,16470,1,0
168,72,16570,1,8
192,56,16670,1,0
216,40,16770,2,0,B|328:40,1,100
408,40,17170,5,0
312,168,17370,1,8
408,40,17570,1,0
456,112,17770,2,0,B|472:168|480:224,2,100,4|0|8
408,40,18370,2,0,B|360:80|280:112|208:120,1,200
225,117,18870,1,0
225,117,18970,1,8
225,117,19170,1,0
136,96,19370,6,0,B|88:88|32:96,1,100,4|0
80,208,19770,1,12
80,208,19870,1,0
48,320,20070,1,0
48,320,20170,1,8
48,320,20270,1,0
48,320,20370,1,4
168,296,20570,2,0,B|232:320|272:320,1,100,12|0
384,304,20970,5,12
408,264,21070,1,0
416,224,21170,1,0
416,176,21270,1,0
400,136,21370,5,12
376,96,21470,1,0
344,64,21570,1,0
304,48,21670,1,0
256,40,21770,5,14
64,88,21970,1,14
256,40,22170,2,0,B|256:104,1,50,12|0
192,152,22570,6,0,B|144:208|104:224,1,80,4|0
56,168,22970,2,0,B|40:216|48:256,1,80,8|0
104,312,23370,2,0,B|160:288|192:336|272:304,1,160,0|8
344,336,23970,1,0
392,264,24170,5,0
328,200,24370,1,0
392,264,24570,1,8
448,192,24770,1,0
392,264,24970,2,0,B|408:208|416:144|408:96,1,160,0|8
104,64,25770,6,0,B|72:112|72:152,1,80
160,152,26170,2,0,B|192:200|192:240,1,80,8|0
112,264,26570,2,0,B|184:240|272:232|280:232,1,160,0|8
336,288,27170,1,0
448,224,27370,5,0
392,112,27570,1,0
296,216,27770,1,8
224,72,27970,1,0
120,192,28170,2,0,B|72:152|48:80|56:40,1,160,0|8
64,344,28970,6,0,B|32:304|0:256,2,80,0|0|8
168,272,29570,1,0
280,328,29770,2,0,B|352:352|384:352,2,80,0|0|8
168,272,30370,1,0
216,200,30570,5,0
112,96,30770,1,0
256,120,30970,1,8
128,176,31170,1,0
200,48,31370,2,0,B|232:72|312:80|336:80|360:72,1,160,0|8
64,336,32170,5,0
144,296,32370,2,0,B|184:304|248:296,1,80,0|8
304,336,32770,1,0
384,304,32970,2,0,B|440:272|472:232,1,80
464,168,33370,1,8
424,88,33570,1,0
304,48,33770,5,8
216,56,33970,1,0
304,144,34170,1,8
144,168,34370,1,0
232,264,34570,1,8
152,288,34770,1,0
296,312,34970,2,0,B|352:320,1,50,12|0
424,280,35370,5,4
432,256,35470,1,0
440,232,35570,2,0,B|464:144,1,80,0|8
456,64,35970,2,0,B|368:32,1,80
380,36,36270,1,0
380,36,36370,2,0,B|296:64,1,80,0|8
216,40,36770,1,0
136,72,36970,5,0
136,72,37070,1,0
136,72,37170,1,0
136,72,37270,1,0
136,72,37370,1,8
40,152,37570,1,0
128,248,37770,1,0
128,248,37870,1,0
128,248,37970,1,0
224,168,38170,1,8
224,168,38270,1,0
224,168,38370,1,0
304,128,38570,6,0,B|360:160|392:192,2,80,0|0|8
176,96,39170,1,0
80,176,39370,2,0,B|32:208|48:264,1,80
44,242,39670,1,0
44,242,39770,1,8
88,320,39970,1,0
168,280,40170,5,0
192,272,40270,1,0
216,264,40370,1,0
240,256,40470,1,0
264,248,40570,2,0,B|368:208,1,80,8|0
424,192,40970,2,0,B|464:192,2,40
424,192,41370,1,8
128,48,41770,5,0
128,48,41870,1,0
128,48,41970,2,0,B|56:104,1,80,0|8
40,184,42370,1,0
64,272,42570,1,0
64,272,42670,1,0
64,272,42770,2,0,B|144:328,1,80,0|8
216,296,43170,1,0
320,224,43370,6,0,B|336:184|336:144,1,80
240,64,43770,2,0,B|224:104|224:144,1,80,8|0
320,224,44170,1,0
336,240,44270,1,0
352,256,44370,1,0
368,272,44470,1,0
384,288,44570,1,8
240,64,44970,6,0,B|192:48|152:48,1,80
161,48,45270,1,0
161,48,45370,2,0,B|96:112,1,80,8|0
104,103,45670,1,0
104,103,45770,2,0,B|96:152|88:192,1,80
89,182,46070,1,0
89,182,46170,1,8
89,182,46270,1,0
89,182,46370,1,0
152,248,46570,5,8
224,304,46770,1,0
200,176,46970,1,8
352,232,47170,1,0
256,104,47370,1,8
408,56,47570,1,0
104,56,47770,1,12
104,56,47870,1,0
104,56,47970,1,0
256,104,48170,5,4
344,128,48370,1,0
344,128,48470,1,0
344,128,48570,2,0,B|448:160,1,89.9999957084658,8|0
448,240,48970,5,0
352,344,49170,1,0
304,208,49370,1,8
448,240,49570,1,0
448,240,49670,1,0
352,344,49870,5,0
328,336,49970,1,0
304,328,50070,1,0
280,320,50170,1,8
256,312,50270,1,0
232,304,50370,1,0
208,296,50470,1,0
184,288,50570,1,0
184,288,50770,2,0,B|128:288|80:272,1,89.9999957084658,0|8
48,208,51170,5,0
40,184,51270,1,0
32,160,51370,1,0
24,136,51470,1,0
16,112,51570,2,0,B|16:56|40:16,2,89.9999957084658,0|8|0
160,80,52170,5,0
160,80,52370,1,0
160,80,52570,1,8
184,96,52670,1,0
208,112,52770,1,0
232,128,52870,1,0
256,144,52970,2,0,B|360:208,1,89.9999957084658
360,184,53270,1,0
384,176,53370,1,8
408,168,53470,1,0
432,160,53570,1,0
208,248,53770,6,0,B|163:272|160:352|240:336|272:288,1,149.999995529652,4|0
208,248,54170,1,0
72,192,54370,5,0
72,192,54470,1,0
72,192,54570,1,0
72,192,54670,1,0
72,192,54770,2,0,B|48:96,1,89.9999957084658,0|8
168,192,55170,1,0
184,176,55270,1,0
200,160,55370,1,0
216,144,55470,1,0
232,128,55570,1,0
248,112,55670,1,0
432,328,55970,6,0,B|488:328,1,44.9999978542329,4|0
488,304,56170,2,0,B|480:240|448:208,1,89.9999957084658
432,208,56470,1,0
432,208,56570,1,8
432,208,56670,1,0
432,208,56770,2,0,B|392:232,1,44.9999978542329
368,224,56970,2,0,B|328:208,1,44.9999978542329
296,208,57170,2,0,B|256:232|200:240,1,89.9999957084658,0|8
72,192,57570,5,0
72,192,57670,1,0
72,192,57770,1,0
144,64,57970,1,0
144,64,58070,1,0
144,64,58170,2,0,B|336:64,1,179.999991416932,8|0
336,88,58670,1,0
352,112,58770,1,0
368,136,58870,1,0
384,160,58970,2,0,B|376:208,1,44.9999978542329,12|0
72,192,59370,5,4
424,328,59670,1,4
200,32,59970,2,0,B|200:96,1,50,4|0
88,280,60370,5,4
256,208,60570,1,4
424,136,60770,1,4
256,208,60970,6,0,B|192:224|144:208,1,100,4|0
136,192,61270,1,0
112,176,61370,1,8
88,160,61470,1,0
64,144,61570,1,0
40,128,61670,1,0
16,112,61770,2,0,B|16:8,1,100,8|0
160,80,62170,5,8
256,208,62370,1,0
368,88,62570,5,12
384,112,62670,1,0
400,136,62770,1,0
416,160,62870,1,0
432,184,62970,2,0,B|432:288,1,100
416,312,63270,2,0,B|368:360,1,50,0|8
224,320,63570,5,0
360,240,63770,1,8
216,168,63970,1,0
224,320,64170,5,12
200,304,64270,1,0
176,288,64370,1,0
48,192,64570,1,8
64,168,64670,1,0
80,144,64770,1,0
96,120,64870,1,0
112,96,64970,2,0,B|208:40,1,100,8|0
198,45,65270,1,0
198,45,65370,1,0
280,80,65570,1,0
376,208,65770,5,12
280,336,65970,1,0
200,192,66170,1,8
400,176,66370,1,0
312,352,66570,1,8
168,216,66770,1,0
272,48,66970,1,12
272,80,67070,1,0
272,112,67170,1,0
272,144,67270,1,0
272,176,67370,5,12
248,264,67570,1,0
128,280,67770,1,8
48,144,67970,5,0
72,120,68070,1,0
96,96,68170,1,8
160,32,68370,1,0
272,144,68570,1,8
392,40,68770,1,0
464,96,68970,5,12
440,112,69070,1,0
416,128,69170,1,0
440,152,69270,1,0
464,168,69370,1,8
440,184,69470,1,0
416,200,69570,2,0,B|480:248,2,50,0|0|8
400,288,69970,5,0
320,328,70170,1,8
232,304,70370,1,0
400,288,70570,6,0,B|336:240,3,50,12|0|0|0
336,240,70970,2,0,B|288:200,3,50,8|0|0|0
272,184,71370,1,8
176,56,71570,1,0
112,200,71770,1,8
272,184,71970,1,0
176,56,72170,5,12
152,80,72270,1,0
128,104,72370,1,0
104,128,72470,1,0
80,152,72570,1,8
56,176,72670,1,0
56,208,72770,5,4
56,240,72870,1,0
56,272,72970,1,8
88,272,73070,1,0
120,272,73170,1,0
152,272,73270,1,0
184,272,73370,6,0,B|344:272,1,150,12|0
360,272,73770,6,0,B|480:272,1,100,4|0
464,184,74370,5,4
456,152,74470,1,0
448,120,74570,1,8
352,104,74770,1,0
336,128,74870,1,0
320,152,74970,1,8
304,176,75070,1,0
288,200,75170,2,0,B|256:248,2,50,0|0|12
192,184,75570,5,0
48,120,75770,1,8
208,88,75970,1,0
88,200,76170,1,12
184,328,76370,1,0
344,328,76570,1,8
432,192,76770,2,0,B|400:120|312:64|240:48|96:56,1,374.999988824129
56,208,77970,6,0,B|160:208,1,100,4|8
288,296,78370,2,0,B|184:296,1,100,0|0
56,208,78770,1,0
88,96,78970,1,8
208,104,79170,1,0
208,104,79270,1,0
208,104,79370,1,0
328,80,79570,1,0
328,80,79670,1,0
328,80,79770,1,8
432,200,79970,5,0
296,288,80170,1,0
432,200,80370,1,0
296,288,80570,1,8
264,280,80670,1,0
232,272,80770,1,0
200,264,80870,1,0
168,256,80970,1,8
80,288,81170,5,0
152,144,81370,1,8
64,160,81570,1,0
200,72,81770,1,8
352,128,81970,1,0
264,136,82170,1,8
416,192,82370,2,0,B|432:240|424:296,1,100
336,320,82770,5,0
272,256,82970,1,8
208,320,83170,1,0
208,320,83270,1,0
208,320,83370,2,0,B|104:320,1,100,8|0
108,320,83670,1,0
108,320,83770,2,0,B|32:240,1,100,8|0
40,216,84070,1,0
40,184,84170,1,8
40,152,84270,1,0
40,120,84370,2,0,B|40:48,2,50,0|0|8
200,112,84770,5,4
320,272,84970,1,8
448,120,85170,1,0
448,320,85370,1,12
200,312,85570,5,4
176,296,85670,1,0
152,280,85770,1,8
128,264,85870,1,0
152,248,85970,1,0
176,232,86070,1,0
200,216,86170,1,8
224,200,86270,1,0
248,184,86370,1,0
328,136,86570,5,4
400,40,86770,1,4
400,40,86870,1,0
280,40,87070,1,4
168,72,87270,1,0
168,72,87370,1,8
168,72,87470,1,0
168,72,87570,1,4
64,128,87770,2,0,B|40:176|32:240,1,100,12|0
88,328,88170,5,12
136,328,88270,1,0
184,328,88370,1,0
232,328,88470,1,0
280,328,88570,5,12
328,328,88670,1,0
376,328,88770,1,0
424,328,88870,1,0
472,328,88970,5,14
448,128,89170,1,14
256,192,89370,1,14
