osu file format v9

[General]
AudioFilename: ochame.mp3
AudioLeadIn: 1489
PreviewTime: 5950
Countdown: 0
SampleSet: Normal
StackLeniency: 0.7
Mode: 0
LetterboxInBreaks: 1

[Editor]
Bookmarks: 5960,22560,48160,60960,74360,89360
DistanceSpacing: 1.2
BeatDivisor: 4
GridSize: 8

[Metadata]
Title:Mischievous Function
Artist:Lon
Creator:gowww
Version:Hard
Source:Nico Nico Douga
Tags:gojimaji-p kasane teto utau ochame kinou fukkireta lamaze-p

[Difficulty]
HPDrainRate:5
CircleSize:4
OverallDifficulty:7
ApproachRate:7
SliderMultiplier:1.6
SliderTickRate:1

[Events]
//Background and Video events
0,0,"ok.jpg"
//Break Periods
//Storyboard Layer 0 (Background)
//Storyboard Layer 1 (Fail)
//Storyboard Layer 2 (Pass)
//Storyboard Layer 3 (Foreground)
//Storyboard Sound Samples
//Background Colour Transformations
3,100,163,162,255

[TimingPoints]
170,400,4,1,1,80,1,0
4570,-66.6666666666667,4,1,1,80,0,0
4770,-100,4,1,1,80,0,0
5870,-100,4,2,1,30,0,0
6070,-100,4,2,1,50,0,0
6270,-100,4,2,1,70,0,0
6470,-100,4,1,1,80,0,0
6570,-100,4,1,1,80,0,1
6670,-100,4,1,1,80,0,0
21770,-100,4,1,1,90,0,0
22170,-200,4,1,1,80,0,0
22370,-100,4,2,1,0,0,0
22470,-125,4,1,0,70,0,0
48170,-125,4,1,0,70,0,1
48270,-111.111111111111,4,1,0,70,0,0
60270,-100,4,2,0,30,0,0
60470,-100,4,2,0,50,0,0
60670,-100,4,2,0,70,0,0
60870,-100,4,1,1,80,0,0
60970,-100,4,1,1,80,0,1
74170,-100,4,1,1,80,0,0
88970,-100,4,1,1,90,0,0
89070,-100,4,1,1,95,0,0
89270,-100,4,1,1,100,0,0
89370,-100,4,1,1,100,0,1
89470,-100,4,1,1,100,0,0

[Colours]
Combo1 : 225,225,225
Combo2 : 255,77,255
Combo3 : 0,0,162

[HitObjects]
72,48,170,2,0,B|56:80|48:96|48:144,1,80,4|0
64,200,570,1,8
112,264,770,2,0,B|168:304,1,40
208,240,1070,2,0,B|256:224,1,40
304,288,1370,1,8
304,288,1470,1,0
304,288,1570,1,0
384,272,1770,6,0,B|432:256|464:240,1,80
472,160,2170,1,8
440,88,2370,2,0,B|376:48,1,40
344,120,2670,2,0,B|296:136,1,40
256,72,2970,1,8
256,72,3070,1,0
256,72,3170,1,0
176,56,3370,6,0,B|120:40|80:40,1,80
40,96,3770,1,8
40,176,3970,2,0,B|40:216,1,40
120,208,4270,2,0,B|120:256,1,40
200,232,4570,2,0,B|176:304|256:312|280:288|248:224,1,119.999996423721,12|0
336,272,4970,5,4
424,128,5270,1,4
272,48,5570,1,4
128,304,5970,5,4
104,224,6170,1,4
80,144,6370,1,4
56,64,6570,6,0,B|96:40|144:32,1,80,4|0
176,104,6970,1,8
256,88,7170,2,0,B|304:88,2,40
232,168,7570,5,0
272,272,7770,1,8
320,176,7970,1,0
360,248,8170,6,0,B|368:288|368:328,2,80,4|0|8
408,184,8770,2,0,B|448:152,2,40
384,104,9170,5,0
320,56,9370,1,0
240,32,9570,1,0
160,56,9770,5,4
160,56,9870,1,0
160,56,9970,1,0
88,96,10170,1,8
88,96,10270,1,0
88,96,10370,2,0,B|80:136|80:184,1,80
128,280,10770,5,0
200,192,10970,1,8
256,288,11170,1,0
320,200,11370,2,0,B|352:152|376:88|384:48,1,160,0|8
464,72,11970,2,0,B|416:40|352:16|312:8,1,160
256,56,12570,2,0,B|224:88|176:104,1,80,8|0
120,64,12970,5,4
64,160,13170,1,0
176,176,13370,6,0,B|192:224|192:256,1,80,8|0
176,288,13670,2,0,B|200:328,1,40
272,296,13970,5,0
384,296,14170,1,8
272,296,14370,1,0
384,296,14570,6,0,B|424:272,2,40,4|0|0
328,240,14970,2,0,B|328:192,2,40,8|0|0
272,296,15370,1,0
272,296,15470,1,0
272,296,15570,5,0
200,208,15770,1,8
168,312,15970,1,0
88,232,16170,5,4
88,232,16270,1,0
88,232,16370,2,0,B|56:192|48:152,2,80
200,208,16970,1,0
256,152,17170,1,0
256,152,17370,1,8
256,152,17570,1,0
256,72,17770,2,0,B|224:48|160:40|120:48|96:64,1,160,0|8
256,152,18370,2,0,B|288:176|352:184|392:176|416:160,1,160
448,168,18870,2,0,B|472:112,3,40,0|8|0|0
400,88,19370,6,0,B|368:64|320:40,1,80,4|0
256,72,19770,2,0,B|192:80,1,40,12|0
144,40,20070,2,0,B|96:24,3,40,0|8|0|4
56,96,20570,1,8
72,176,20770,1,4
128,232,20970,5,12
144,232,21070,1,0
160,232,21170,1,0
176,232,21270,1,0
192,232,21370,5,12
208,232,21470,1,0
224,232,21570,1,0
240,232,21670,1,0
256,232,21770,6,0,B|344:232,1,80,14|14
352,232,22170,2,0,B|392:232,1,40,4|0
472,232,22570,6,0,B|480:192|480:144|472:112|464:88,1,128,4|8
416,48,23170,1,0
384,120,23370,2,0,B|344:128|296:128|264:120|240:112,1,128,0|8
200,64,23970,1,0
128,96,24170,6,0,B|48:128,1,64
72,224,24570,2,0,B|152:256,1,64,8|0
128,96,24970,2,0,B|144:144|192:184|216:192,1,128,0|8
392,64,25770,6,0,B|424:112|432:144,2,64,0|0|8
320,32,26370,1,0
248,64,26570,2,0,B|216:112|208:144,2,64,0|0|8
320,32,27170,1,0
320,112,27370,5,0
336,216,27570,1,0
320,112,27770,1,8
336,216,27970,1,0
264,184,28170,2,0,B|208:160|184:208|128:176,1,128,0|8
376,288,28970,6,0,B|408:256|432:208|440:160,1,128,0|8
456,104,29570,1,0
384,120,29770,2,0,B|352:152|304:176|256:184,1,128,0|8
200,152,30370,1,0
144,96,30570,5,0
88,184,30770,2,0,B|64:240|64:256,1,64,0|8
144,96,31170,1,0
192,184,31370,2,0,B|192:232|224:280|256:288,1,128,0|8
432,72,32170,6,0,B|384:48|344:48,2,64,0|0|8
472,136,32770,1,0
432,200,32970,2,0,B|384:224|344:224,2,64,0|0|0
472,136,33570,1,0
368,128,33770,5,12
280,72,33970,1,0
176,72,34170,1,8
88,120,34370,1,0
160,192,34570,2,0,B|128:232|128:256,1,64,8|0
296,192,34970,2,0,B|328:232|328:256,1,64,12|0
392,296,35370,6,0,B|424:264|432:224|432:192|432:176,1,128,4|8
464,104,35970,1,0
408,48,36170,2,0,B|368:32|320:32,2,64,0|0|8
464,104,36770,1,0
368,128,36970,6,0,B|328:152,2,32
272,88,37370,1,8
192,152,37570,1,0
264,224,37770,1,8
264,224,37870,1,0
264,224,37970,1,0
264,224,38070,1,0
264,224,38170,1,8
64,64,38570,6,0,B|48:96|48:128,2,64,0|0|8
136,32,39170,1,0
208,64,39370,2,0,B|264:88|312:72|336:56,1,128,0|8
408,40,39970,1,0
472,120,40170,6,0,B|472:192,1,64
384,232,40570,2,0,B|384:160,1,64,8|0
472,120,40970,1,8
472,120,41070,1,0
472,120,41170,1,0
472,120,41270,1,0
472,120,41370,1,8
304,320,41770,6,0,B|176:320,1,128,0|8
96,320,42370,1,0
40,264,42570,1,0
40,184,42770,2,0,B|40:112,2,64,0|8|0
120,120,43370,5,0
224,120,43570,1,0
160,200,43770,1,8
264,200,43970,1,0
368,200,44170,1,8
368,200,44270,1,0
368,200,44370,1,0
368,200,44470,1,0
368,200,44570,1,8
176,40,44970,6,0,B|112:40,2,64,0|0|8
256,40,45570,1,0
336,40,45770,2,0,B|424:40,2,64,0|0|8
256,40,46370,1,0
200,128,46570,5,12
184,232,46770,1,0
288,248,46970,1,8
304,144,47170,1,0
244,192,47370,1,8
244,192,47470,1,0
244,192,47570,1,0
244,192,47670,1,0
244,192,47770,2,0,B|232:272,1,64,12|0
224,328,48170,5,0
144,296,48370,2,0,B|104:304|72:304,1,71.9999965667726,4|8
32,224,48770,1,0
64,144,48970,2,0,B|48:96,2,35.9999982833863
144,120,49370,1,8
176,200,49570,2,0,B|224:176,1,35.9999982833863
264,112,49870,6,0,B|296:136,3,35.9999982833863,0|0|0|8
344,200,50370,1,0
432,208,50570,2,0,B|472:232,3,32
288,320,51170,5,0
288,320,51270,1,0
288,320,51370,2,0,B|200:320,1,71.9999965667726
128,320,51770,1,8
128,320,51870,1,0
128,320,51970,2,0,B|48:256,1,71.9999965667726
32,200,52370,2,0,B|32:128,1,71.9999965667726,0|8
32,88,52670,2,0,B|64:64,1,35.9999982833863
144,40,52970,5,0
200,104,53170,1,0
272,56,53370,1,8
328,120,53570,1,0
400,80,53770,2,0,B|432:120|448:176|448:224,1,143.999993133545,0|8
424,296,54370,5,0
424,296,54470,1,0
424,296,54570,2,0,B|360:328,1,71.9999965667726
280,288,54970,1,8
200,328,55170,1,0
128,280,55370,2,0,B|80:232,3,35.9999982833863
48,136,55970,6,0,B|40:96|40:56,1,71.9999965667726
120,40,56370,1,0
120,40,56570,1,8
120,40,56770,1,0
176,104,56970,1,0
176,104,57070,1,0
176,104,57170,2,0,B|240:96|272:80,1,71.9999965667726,0|8
328,56,57570,6,0,B|384:56,2,35.9999982833863
312,144,57970,1,0
392,176,58170,2,0,B|320:184|224:216,1,143.999993133545,8|0
224,240,58670,2,0,B|160:216,3,35.9999982833863,0|0|0|12
256,64,59370,5,4
96,136,59670,1,4
152,304,59970,1,4
448,304,60370,5,4
432,216,60570,1,4
416,128,60770,1,4
368,48,60970,6,0,B|328:24|280:16,1,80,4|0
256,104,61370,1,8
192,32,61570,2,0,B|144:32,2,40
256,104,61970,5,0
304,216,62170,1,8
176,184,62370,1,0
120,264,62570,2,0,B|112:304|112:344,2,80,4|0|8
80,176,63170,2,0,B|40:144,2,40
112,88,63570,5,0
192,32,63770,1,8
256,104,63970,1,0
336,48,64170,5,4
336,48,64270,1,0
336,48,64370,1,0
416,96,64570,1,8
416,96,64670,1,0
416,96,64770,2,0,B|424:136|424:184,1,80,0|8
448,296,65170,5,0
352,224,65370,1,8
352,344,65570,1,0
256,272,65770,2,0,B|208:240|144:216|104:208,1,160,4|8
32,120,66370,2,0,B|80:88|144:64|184:56,1,160
272,24,66970,2,0,B|296:56|280:104,1,80,8|0
400,80,67370,5,4
464,152,67570,1,0
368,168,67770,6,0,B|352:216|352:248,1,80,8|0
384,288,68070,2,0,B|360:328,1,40
256,272,68370,5,0
144,224,68570,1,8
256,272,68770,1,0
144,224,68970,6,0,B|104:200,2,40,4|0|0
200,120,69370,2,0,B|200:72,2,40,8|0|0
312,88,69770,1,0
312,88,69870,1,0
312,88,69970,5,0
400,168,70170,1,8
312,208,70370,1,0
392,264,70570,5,4
392,264,70670,1,0
392,264,70770,2,0,B|432:296|472:304,2,80,0|8|0
312,208,71370,1,0
224,168,71570,1,0
224,168,71770,1,8
224,168,71970,1,0
224,72,72170,2,0,B|256:48|320:40|360:48|384:64,1,160,4|8
224,168,72770,2,0,B|192:192|128:200|88:192|64:176,1,160
40,144,73270,2,0,B|16:88,3,40,0|8|0|0
104,56,73770,2,0,B|136:32|200:24|240:32|264:48,1,160,4|8
336,64,74370,5,0
336,64,74470,1,0
336,64,74570,1,0
416,72,74770,1,0
464,136,74970,1,8
432,208,75170,1,0
352,208,75370,6,0,B|272:208,1,80
272,320,75770,2,0,B|184:320,1,80,8|0
192,208,76170,2,0,B|96:208,1,80
112,320,76570,1,8
256,192,76770,12,0,77970
208,152,78170,6,0,B|136:160|112:192,1,80,8|0
88,240,78570,1,0
160,272,78770,1,0
88,240,78970,1,8
160,272,79170,2,0,B|184:320|216:336,1,80
264,272,79570,2,0,B|288:224|320:208,1,80,0|8
392,224,79970,5,0
392,224,80070,1,0
392,224,80170,2,0,B|488:192,1,80
480,120,80570,2,0,B|424:96|320:64,1,160,8|0
256,40,81170,1,0
256,120,81370,5,8
256,40,81570,1,0
256,120,81770,2,0,B|232:152|216:192,1,80
256,256,82170,2,0,B|224:288|184:304,1,80,8|0
136,248,82570,2,0,B|96:208|88:176,1,80
128,113,82970,5,8
177,50,83170,2,0,B|254:36|275:42,1,80
328,80,83570,2,0,B|368:112|384:192|360:240,2,160
328,80,84570,1,0
256,120,84770,5,0
256,120,84870,1,0
256,120,84970,1,4
152,160,85170,1,0
240,224,85370,1,8
344,184,85570,1,0
408,280,85770,1,8
304,320,85970,1,0
192,328,86170,1,8
192,328,86270,1,0
192,328,86370,1,0
160,256,86570,6,0,B|80:256,1,80,4|0
40,184,86970,2,0,B|40:120,1,40,8|0
80,72,87270,2,0,B|112:40,3,40,0|8|0|4
192,48,87770,2,0,B|288:48,1,80,4|0
368,104,88170,5,12
368,120,88270,1,0
368,136,88370,1,0
368,152,88470,1,0
368,168,88570,5,12
368,184,88670,1,0
368,200,88770,1,0
368,216,88870,1,0
368,232,88970,5,14
280,304,89170,1,14
256,192,89370,1,14
