osu file format v13

[General]
AudioFilename: ochame.mp3
AudioLeadIn: 1489
PreviewTime: 5950
Countdown: 0
SampleSet: Normal
StackLeniency: 0.7
Mode: 0
LetterboxInBreaks: 1
WidescreenStoryboard: 1

[Editor]
Bookmarks: 5960,22560,48160,60960,74360,89360,22651
DistanceSpacing: 1.6
BeatDivisor: 4
GridSize: 8
TimelineZoom: 1

[Metadata]
Title:Mischievous Function
TitleUnicode:Mischievous Function
Artist:Lon
ArtistUnicode:Lon
Creator:LuCy200131
Version:Extra
Source:Nico Nico Douga
Tags:gojimaji-p kasane teto utau ochame kinou fukkireta lamaze-p
BeatmapID:615011
BeatmapSetID:270325

[Difficulty]
HPDrainRate:9
CircleSize:4
OverallDifficulty:10
ApproachRate:10
SliderMultiplier:2
SliderTickRate:1

[Events]
//Background and Video events
0,0,"Untitled.jpg",0,0
//Break Periods
//Storyboard Layer 0 (Background)
//Storyboard Layer 1 (Fail)
//Storyboard Layer 2 (Pass)
//Storyboard Layer 3 (Foreground)
//Storyboard Sound Samples

[TimingPoints]
170,400,4,1,1,80,1,0
4570,-66.6666666666667,4,1,1,80,0,0
4770,-100,4,1,1,80,0,0
5570,-200,4,1,1,80,0,0
5770,-100,4,2,1,0,0,0
5870,-100,4,2,1,30,0,0
6070,-100,4,2,1,50,0,0
6270,-100,4,2,1,70,0,0
6470,-100,4,1,1,80,0,0
6570,-100,4,1,1,80,0,1
6670,-100,4,1,1,80,0,0
7011,400,4,1,1,80,1,0
7011,400,4,1,1,80,1,0
7011,-100,4,1,1,80,0,0
7011,-100,4,1,1,80,0,0
11612,-133.333333333333,4,1,1,80,0,0
12111,-66.6666666666667,4,1,1,80,0,0
12570,-200,4,1,1,80,0,0
12770,-100,4,2,1,0,0,0
12870,-100,4,1,1,80,0,0
21770,-100,4,1,1,90,0,0
22170,-200,4,1,1,90,0,0
22370,-100,4,2,1,0,0,0
22470,-125,4,1,0,70,0,0
34970,-200,4,1,0,70,0,0
35170,-125,4,2,0,0,0,0
35270,-125,4,1,0,70,0,0
37582,-66.6666666666667,4,1,0,70,0,0
38311,-100,4,1,0,70,0,0
42111,-50,4,1,0,70,0,0
43211,-100,4,1,0,70,0,0
44711,-50,4,1,0,70,0,0
48070,-111.111111111111,4,1,0,75,0,0
48170,-111.111111111111,4,1,0,75,0,1
48270,-111.111111111111,4,1,0,75,0,0
53770,-66.6666666666667,4,1,0,75,0,0
53970,-111.111111111111,4,1,0,75,0,0
59970,-200,4,1,0,75,0,0
60170,-100,4,2,1,30,0,0
60470,-100,4,2,1,50,0,0
60670,-100,4,2,1,70,0,0
60870,-100,4,1,1,80,0,0
60970,-100,4,1,1,80,0,1
73770,-200,4,1,1,65,0,0
74170,-100,4,1,1,80,0,0
76770,-133.333333333333,4,1,1,80,0,0
77770,-100,4,1,1,80,0,0
88970,-100,4,1,1,90,0,0
89070,-100,4,1,1,95,0,0
89270,-100,4,1,1,100,0,0
89370,-100,4,1,1,100,0,1
89470,-100,4,1,1,100,0,0

[Colours]
Combo1 : 225,225,225
Combo2 : 255,77,255
Combo3 : 0,0,162

[HitObjects]
256,352,70,6,0,L|256:280,1,50
128,160,370,2,0,L|96:200,4,50,0|0|0|0|0,0:0|0:0|0:0|0:0|0:0,0:0:0:0:
216,80,970,1,0,0:0:0:0:
256,80,1070,1,0,0:0:0:0:
304,80,1170,1,0,0:0:0:0:
336,88,1370,2,0,P|360:136|336:240,1,150
96,64,1870,2,0,P|56:112|72:160,2,100,0|0|0,0:0|0:0|0:0,0:0:0:0:
216,240,2470,5,0,0:0:0:0:
256,232,2570,1,0,0:0:0:0:
280,200,2670,1,0,0:0:0:0:
304,160,2770,1,0,0:0:0:0:
320,128,2870,1,0,0:0:0:0:
408,208,3070,2,0,P|488:208|504:248,2,100,0|0|0,0:0|0:0|0:0,0:0:0:0:
464,88,3770,5,0,0:0:0:0:
432,72,3870,1,0,0:0:0:0:
384,72,3970,1,0,0:0:0:0:
344,80,4070,1,0,0:0:0:0:
312,96,4170,1,0,0:0:0:0:
256,248,4370,2,0,L|256:376,2,100,0|0|0,0:0|0:0|0:0,0:0:0:0:
104,344,5070,5,0,0:0:0:0:
176,56,5270,1,0,0:0:0:0:
392,56,5470,1,0,0:0:0:0:
248,200,6670,6,0,L|248:144,2,50,0|0|0,0:0|0:0|0:0,0:0:0:0:
248,248,6970,1,0,0:0:0:0:
271,266,7070,1,0,0:0:0:0:
298,278,7170,1,0,0:0:0:0:
328,283,7270,1,0,0:0:0:0:
358,280,7370,1,0,0:0:0:0:
386,270,7470,1,0,0:0:0:0:
432,120,7711,6,0,L|432:64,3,50,0|0|0|0,0:0|0:0|0:0|0:0,0:0:0:0:
248,48,8211,1,0,0:0:0:0:
208,53,8311,1,0,0:0:0:0:
172,71,8411,1,0,0:0:0:0:
143,98,8511,1,0,0:0:0:0:
125,133,8611,1,0,0:0:0:0:
117,172,8711,1,0,0:0:0:0:
432,320,8911,6,0,L|432:248,1,50,0|0,0:0|0:0,0:0:0:0:
184,264,9211,2,0,L|152:320,1,50
64,112,9511,2,0,L|16:80,2,50,0|0|0,0:0|0:0|0:0,0:0:0:0:
248,144,9911,5,0,0:0:0:0:
184,328,10111,1,0,0:0:0:0:
376,272,10311,1,0,0:0:0:0:
128,184,10511,1,0,0:0:0:0:
312,344,10711,1,0,0:0:0:0:
376,168,10911,1,0,0:0:0:0:
56,344,11111,2,0,L|-16:344,3,50,0|0|0|0,0:0|0:0|0:0|0:0,0:0:0:0:
464,40,11711,2,0,L|464:128,1,75.0000028610231,0|0,0:0|0:0,0:0:0:0:
272,112,12211,5,0,0:0:0:0:
256,144,12511,1,0,0:0:0:0:
232,184,12811,1,4,0:0:0:0:
40,64,13111,1,8,0:0:0:0:
472,264,13311,1,0,0:0:0:0:
460,282,13411,1,0,0:0:0:0:
446,298,13511,1,0,0:0:0:0:
430,312,13611,1,0,0:0:0:0:
413,324,13711,1,0,0:0:0:0:
393,334,13811,1,0,0:0:0:0:
373,340,13911,1,0,0:0:0:0:
352,344,14011,1,0,0:0:0:0:
432,48,14211,6,0,L|504:48,2,50,0|0|0,0:0|0:0|0:0,0:0:0:0:
183,235,14711,1,0,0:0:0:0:
192,136,14911,1,0,0:0:0:0:
289,113,15111,1,0,0:0:0:0:
340,199,15311,1,0,0:0:0:0:
275,274,15511,1,0,0:0:0:0:
48,72,15711,2,0,L|64:128,2,50,0|0|0,0:0|0:0|0:0,0:0:0:0:
440,32,16211,5,0,0:0:0:0:
455,64,16311,5,0,0:0:0:0:
464,98,16411,5,0,0:0:0:0:
467,134,16511,5,0,0:0:0:0:
463,169,16611,5,0,0:0:0:0:
453,203,16711,5,0,0:0:0:0:
437,235,16811,5,0,0:0:0:0:
416,263,16911,5,0,0:0:0:0:
56,192,17111,6,0,L|80:248,1,50
184,24,17411,2,0,L|192:80,1,50,0|0,0:0|0:0,0:0:0:0:
464,40,17711,2,0,L|440:96,1,50
472,272,18011,2,0,L|432:232,1,50
256,336,18311,2,0,L|256:280,1,50
56,232,18611,2,0,L|120:216,1,50,0|0,0:0|0:0,0:0:0:0:
136,32,18911,2,0,L|168:88,1,50,0|0,0:0|0:0,0:0:0:0:
416,88,19311,2,0,L|376:128,1,50
88,96,19611,6,0,P|112:96|128:128,3,50,0|0|0|0,0:0|0:0|0:0|0:0,0:0:0:0:
216,56,20111,1,0,0:0:0:0:
352,272,20311,2,0,P|368:296|352:320,3,50,0|0|0|0,0:0|0:0|0:0|0:0,0:0:0:0:
432,72,20811,1,0,0:0:0:0:
176,264,21011,2,0,P|168:288|128:288,3,50,0|0|0|0,0:0|0:0|0:0|0:0,0:0:0:0:
256,48,21611,5,0,0:0:0:0:
256,48,21811,1,0,0:0:0:0:
256,48,22011,2,0,B|304:112|304:112|264:152|304:192|304:192|264:208,1,200
96,64,22711,6,0,L|72:104,1,40,0|0,0:0|0:0,0:0:0:0:
256,120,23111,1,0,0:0:0:0:
176,288,23311,1,0,0:0:0:0:
320,296,23511,2,0,P|336:312|368:280,1,80
376,136,23911,1,0,0:0:0:0:
352,160,24011,1,0,0:0:0:0:
320,184,24111,1,0,0:0:0:0:
288,216,24211,1,0,0:0:0:0:
88,208,24511,6,0,L|88:144,1,40
240,56,24911,2,0,L|312:48,1,40
464,168,25311,2,0,L|464:208,1,40
312,312,25811,6,0,L|256:320,1,40
64,152,26211,2,0,P|80:104|128:112,2,80,0|0|0,0:0|0:0|0:0,0:0:0:0:
248,112,26911,5,0,0:0:0:0:
160,312,27111,1,0,0:0:0:0:
352,320,27311,1,0,0:0:0:0:
128,144,27511,1,0,0:0:0:0:
264,352,27711,1,0,0:0:0:0:
384,160,27911,1,0,0:0:0:0:
80,40,28111,1,0,0:0:0:0:
65,68,28211,1,0,0:0:0:0:
55,98,28311,1,0,0:0:0:0:
50,130,28411,1,0,0:0:0:0:
50,162,28511,1,0,0:0:0:0:
56,193,28611,1,0,0:0:0:0:
464,64,28911,5,0,0:0:0:0:
471,103,29011,1,0,0:0:0:0:
457,140,29111,1,0,0:0:0:0:
420,138,29211,1,0,0:0:0:0:
392,113,29311,1,0,0:0:0:0:
382,80,29411,1,0,0:0:0:0:
407,49,29511,1,0,0:0:0:0:
256,336,29711,2,0,L|256:288,2,40,0|0|0,0:0|0:0|0:0,0:0:0:0:
40,32,30211,2,0,L|144:104,1,120,0|0,0:0|0:0,0:0:0:0:
256,104,30611,5,0,0:0:0:0:
168,248,30811,1,0,0:0:0:0:
376,256,31011,1,0,0:0:0:0:
136,104,31211,1,0,0:0:0:0:
296,312,31411,1,0,0:0:0:0:
400,120,31611,1,0,0:0:0:0:
264,32,31811,1,0,0:0:0:0:
168,248,32011,1,0,0:0:0:0:
376,256,32211,1,0,0:0:0:0:
136,104,32411,1,0,0:0:0:0:
296,312,32611,1,0,0:0:0:0:
400,120,32811,1,0,0:0:0:0:
40,40,33011,1,0,0:0:0:0:
59,71,33077,1,0,0:0:0:0:
45,102,33144,1,0,0:0:0:0:
71,133,33210,1,0,0:0:0:0:
63,163,33277,1,0,0:0:0:0:
37,194,33344,1,0,0:0:0:0:
448,24,33611,6,0,L|416:56,1,40
480,240,33911,2,0,L|432:256,1,40,0|0,0:0|0:0,0:0:0:0:
304,352,34211,2,0,L|320:312,1,40
72,296,34511,2,0,L|128:280,1,40
24,128,34811,2,0,L|80:136,1,40
208,24,35111,2,0,L|224:64,1,25,4|4,0:0|0:0,0:0:0:0:
440,104,35411,2,0,L|408:144,1,40
376,232,35911,1,0,0:0:0:0:
364,252,36011,1,0,0:0:0:0:
345,267,36111,1,0,0:0:0:0:
323,276,36211,1,0,0:0:0:0:
299,281,36311,1,0,0:0:0:0:
276,280,36411,1,0,0:0:0:0:
56,192,36611,6,0,L|96:192,1,40,0|0,0:0|0:0,0:0:0:0:
320,24,36911,2,0,L|296:64,1,40
432,352,37211,2,0,L|408:320,1,40
160,352,37611,2,0,B|272:360|240:224|240:224|208:176|136:208|136:216|200:48,1,400
190,73,38311,1,0,0:0:0:0:
320,80,38611,1,0,0:0:0:0:
347,97,38711,1,0,0:0:0:0:
359,127,38811,1,0,0:0:0:0:
352,159,38911,1,0,0:0:0:0:
40,264,39211,6,0,L|40:344,1,50
56,56,39511,1,0,0:0:0:0:
105,63,39611,1,0,0:0:0:0:
126,103,39711,1,0,0:0:0:0:
173,107,39811,1,0,0:0:0:0:
209,73,39911,1,0,0:0:0:0:
48,216,40111,6,0,L|8:264,1,50
216,304,40411,2,0,L|224:360,1,50
392,248,40711,2,0,L|432:304,1,50
432,112,41011,2,0,L|472:64,1,50
232,64,41311,2,0,L|224:0,1,50
136,112,41611,2,0,L|80:56,3,50,0|0|0|0,0:0|0:0|0:0|0:0,0:0:0:0:
40,224,42111,1,0,0:0:0:0:
53,272,42211,1,0,0:0:0:0:
67,320,42311,1,0,0:0:0:0:
96,312,42411,1,0,0:0:0:0:
142,295,42511,1,0,0:0:0:0:
191,304,42611,1,0,0:0:0:0:
234,329,42711,1,0,0:0:0:0:
274,345,42811,1,0,0:0:0:0:
316,317,42911,1,0,0:0:0:0:
358,290,43011,1,0,0:0:0:0:
400,263,43111,1,0,0:0:0:0:
424,48,43311,6,0,L|416:104,1,50
56,352,43611,2,0,L|104:312,1,50
72,48,43911,2,0,L|120:80,1,50
464,360,44211,2,0,L|408:320,3,50,0|0|0|0,0:0|0:0|0:0|0:0,0:0:0:0:
448,192,44711,2,0,B|408:128|408:128|352:192|288:88|288:88|224:168|160:48,1,400
40,352,45311,2,0,L|112:272,1,100
464,32,45611,2,0,L|384:136,1,100
464,360,45911,2,0,L|368:288,4,100,0|0|0|0|0,0:0|0:0|0:0|0:0|0:0,0:0:0:0:
240,176,46511,1,0,0:0:0:0:
240,176,46711,1,0,0:0:0:0:
32,32,46911,2,0,L|112:128,2,100,0|0|0,0:0|0:0|0:0,0:0:0:0:
240,88,47311,5,0,0:0:0:0:
176,280,47411,1,0,0:0:0:0:
352,288,47511,1,0,0:0:0:0:
120,120,47611,1,0,0:0:0:0:
304,352,47711,1,0,0:0:0:0:
352,136,47811,1,0,0:0:0:0:
56,160,48111,5,0,0:0:0:0:
56,160,48311,1,0,0:0:0:0:
464,64,48511,2,0,L|464:128,1,44.999998626709
56,160,49011,1,0,0:0:0:0:
56,160,49211,1,0,0:0:0:0:
384,336,49411,2,0,L|320:344,1,44.999998626709
56,160,49711,1,0,0:0:0:0:
56,160,49911,1,0,0:0:0:0:
288,48,50111,2,0,L|288:112,1,44.999998626709
464,200,50511,5,0,0:0:0:0:
464,200,50711,1,0,0:0:0:0:
24,32,50911,2,0,L|64:64,1,44.999998626709
464,200,51211,1,0,0:0:0:0:
464,200,51411,1,0,0:0:0:0:
16,200,51611,2,0,L|88:200,1,44.999998626709
464,200,51911,1,0,0:0:0:0:
464,200,52111,1,0,0:0:0:0:
24,352,52311,2,0,L|88:328,3,44.999998626709,0|0|0|0,0:0|0:0|0:0|0:0,0:0:0:0:
216,32,52911,5,0,0:0:0:0:
249,50,53011,5,0,0:0:0:0:
277,77,53111,5,0,0:0:0:0:
295,110,53211,5,0,0:0:0:0:
304,148,53311,5,0,0:0:0:0:
304,186,53411,5,0,0:0:0:0:
295,224,53511,5,0,0:0:0:0:
279,259,53611,5,0,0:0:0:0:
480,32,53811,2,0,P|488:48|464:104,4,75.0000028610231,0|0|0|0|0,0:0|0:0|0:0|0:0|0:0,0:0:0:0:
8,312,54511,2,0,P|32:352|72:320,2,89.9999972534181,0|0|0,0:0|0:0|0:0,0:0:0:0:
248,336,55111,5,0,0:0:0:0:
248,336,55311,1,0,0:0:0:0:
256,40,55511,2,0,L|256:96,1,44.999998626709
248,336,55811,1,0,0:0:0:0:
248,336,56011,1,0,0:0:0:0:
56,40,56211,2,0,L|72:96,1,44.999998626709
452,98,56511,5,0,0:0:0:0:
448,136,56611,1,0,0:0:0:0:
416,160,56711,1,0,0:0:0:0:
384,168,56811,1,0,0:0:0:0:
344,168,56911,1,0,0:0:0:0:
296,160,57011,1,0,0:0:0:0:
432,296,57211,2,0,L|464:368,1,44.999998626709
40,232,57611,5,0,0:0:0:0:
44,265,57711,1,0,0:0:0:0:
61,294,57811,1,0,0:0:0:0:
88,314,57911,1,0,0:0:0:0:
120,322,58011,1,0,0:0:0:0:
256,192,58211,5,8,0:0:0:0:
360,32,58411,5,0,0:0:0:0:
390,46,58511,1,0,0:0:0:0:
413,71,58611,1,0,0:0:0:0:
425,102,58711,1,0,0:0:0:0:
427,135,58811,1,0,0:0:0:0:
256,192,59011,5,0,0:0:0:0:
56,72,59311,2,0,L|72:136,1,44.999998626709
256,344,59611,2,0,L|256:280,1,44.999998626709
448,56,59911,2,0,L|400:104,1,50
248,200,61011,6,0,L|248:144,2,50,0|0|0,0:0|0:0|0:0,0:0:0:0:
248,248,61311,1,0,0:0:0:0:
271,266,61411,1,0,0:0:0:0:
298,278,61511,1,0,0:0:0:0:
328,283,61611,1,0,0:0:0:0:
358,280,61711,1,0,0:0:0:0:
386,270,61811,1,0,0:0:0:0:
432,120,62052,6,0,L|432:64,3,50,0|0|0|0,0:0|0:0|0:0|0:0,0:0:0:0:
248,48,62552,1,0,0:0:0:0:
208,53,62652,1,0,0:0:0:0:
172,71,62752,1,0,0:0:0:0:
143,98,62852,1,0,0:0:0:0:
125,133,62952,1,0,0:0:0:0:
117,172,63052,1,0,0:0:0:0:
432,320,63252,6,0,L|432:248,1,50,0|0,0:0|0:0,0:0:0:0:
184,264,63552,2,0,L|152:320,1,50
64,112,63852,2,0,L|16:80,2,50,0|0|0,0:0|0:0|0:0,0:0:0:0:
248,144,64252,5,0,0:0:0:0:
184,328,64452,1,0,0:0:0:0:
376,272,64652,1,0,0:0:0:0:
128,184,64852,1,0,0:0:0:0:
312,344,65052,1,0,0:0:0:0:
376,168,65252,1,0,0:0:0:0:
56,344,65452,2,0,L|-16:344,3,50,0|0|0|0,0:0|0:0|0:0|0:0,0:0:0:0:
464,40,66052,2,0,L|464:128,1,75.0000028610231,0|0,0:0|0:0,0:0:0:0:
272,112,66552,5,0,0:0:0:0:
256,144,66852,1,0,0:0:0:0:
232,184,67152,1,4,0:0:0:0:
40,64,67452,1,8,0:0:0:0:
472,264,67652,1,0,0:0:0:0:
460,282,67752,1,0,0:0:0:0:
446,298,67852,1,0,0:0:0:0:
430,312,67952,1,0,0:0:0:0:
413,324,68052,1,0,0:0:0:0:
393,334,68152,1,0,0:0:0:0:
373,340,68252,1,0,0:0:0:0:
352,344,68352,1,0,0:0:0:0:
432,48,68552,6,0,L|504:48,2,50,0|0|0,0:0|0:0|0:0,0:0:0:0:
183,235,69052,1,0,0:0:0:0:
192,136,69252,1,0,0:0:0:0:
289,113,69452,1,0,0:0:0:0:
340,199,69652,1,0,0:0:0:0:
275,274,69852,1,0,0:0:0:0:
48,72,70052,2,0,L|64:128,2,50,0|0|0,0:0|0:0|0:0,0:0:0:0:
440,32,70552,5,0,0:0:0:0:
455,64,70652,5,0,0:0:0:0:
464,98,70752,5,0,0:0:0:0:
467,134,70852,5,0,0:0:0:0:
463,169,70952,5,0,0:0:0:0:
453,203,71052,5,0,0:0:0:0:
437,235,71152,5,0,0:0:0:0:
416,263,71252,5,0,0:0:0:0:
56,192,71452,6,0,L|80:248,1,50
184,24,71752,2,0,L|192:80,1,50,0|0,0:0|0:0,0:0:0:0:
464,40,72052,2,0,L|440:96,1,50
472,272,72352,2,0,L|432:232,1,50
256,336,72652,2,0,L|256:280,1,50
56,232,72952,2,0,L|120:216,1,50,0|0,0:0|0:0,0:0:0:0:
136,32,73252,2,0,L|168:88,1,50,0|0,0:0|0:0,0:0:0:0:
416,88,73652,2,0,L|376:128,1,50
256,192,74011,5,8,0:0:0:0:
256,192,74211,1,8,0:0:0:0:
40,48,74411,2,0,L|88:120,1,50
176,96,74711,1,0,0:0:0:0:
208,120,74811,1,0,0:0:0:0:
240,104,74911,1,0,0:0:0:0:
272,80,75011,1,0,0:0:0:0:
312,80,75111,1,0,0:0:0:0:
392,232,75311,6,0,L|432:272,1,50
400,152,75611,2,0,L|400:96,1,50
296,256,75911,2,0,L|272:304,1,50,0|0,0:0|0:0,0:0:0:0:
96,224,76211,2,0,L|72:272,1,50
80,144,76511,2,0,L|40:112,1,50
152,256,76811,2,0,B|144:320|224:352|296:312|296:304|272:216|272:216|320:208,1,300.000011444092
336,216,77811,1,0,0:0:0:0:
359,251,77911,1,0,0:0:0:0:
393,277,78011,1,0,0:0:0:0:
428,278,78111,1,0,0:0:0:0:
447,240,78211,1,0,0:0:0:0:
459,203,78311,1,0,0:0:0:0:
443,166,78411,1,0,0:0:0:0:
477,141,78511,1,0,0:0:0:0:
352,96,78711,6,0,L|392:32,1,50
160,120,79011,2,0,L|128:48,1,50
72,264,79311,2,0,L|16:272,3,50,0|0|0|0,0:0|0:0|0:0|0:0,0:0:0:0:
320,64,79811,2,0,L|336:112,3,50,8|8|8|8,0:0|0:0|0:0|0:0,0:0:0:0:
224,72,80311,1,0,0:0:0:0:
224,114,80411,1,0,0:0:0:0:
224,157,80511,1,0,0:0:0:0:
224,200,80611,1,0,0:0:0:0:
224,243,80711,1,0,0:0:0:0:
224,286,80811,1,0,0:0:0:0:
182,288,80911,1,0,0:0:0:0:
140,288,81011,1,0,0:0:0:0:
448,152,81311,6,0,P|464:184|408:224,2,100,0|0|0,0:0|0:0|0:0,0:0:0:0:
208,48,81911,1,0,0:0:0:0:
206,83,82011,1,0,0:0:0:0:
204,119,82111,1,0,0:0:0:0:
203,155,82211,1,0,0:0:0:0:
201,190,82311,1,0,0:0:0:0:
200,226,82411,1,0,0:0:0:0:
230,232,82511,1,0,0:0:0:0:
265,232,82611,1,0,0:0:0:0:
32,40,82911,6,0,L|112:152,1,100
392,112,83311,2,0,L|392:176,3,50,0|0|0|0,0:0|0:0|0:0|0:0,0:0:0:0:
112,320,83911,1,8,0:0:0:0:
200,320,84211,1,8,0:0:0:0:
261,303,84311,1,8,0:0:0:0:
265,234,84411,1,8,0:0:0:0:
221,180,84511,1,8,0:0:0:0:
155,155,84611,1,8,0:0:0:0:
146,121,84711,1,8,0:0:0:0:
113,73,84811,1,8,0:0:0:0:
52,107,84911,1,8,0:0:0:0:
456,72,85111,6,0,L|472:24,2,50,0|0|0,0:0|0:0|0:0,0:0:0:0:
232,344,85611,1,0,0:0:0:0:
279,355,85711,1,0,0:0:0:0:
324,335,85811,1,0,0:0:0:0:
348,292,85911,1,0,0:0:0:0:
341,243,86011,1,0,0:0:0:0:
306,209,86111,1,0,0:0:0:0:
248,80,86311,1,0,0:0:0:0:
88,96,86611,6,0,P|112:96|128:128,3,50,0|0|0|0,0:0|0:0|0:0|0:0,0:0:0:0:
216,56,87111,1,0,0:0:0:0:
352,272,87311,2,0,P|368:296|352:320,3,50,0|0|0|0,0:0|0:0|0:0|0:0,0:0:0:0:
432,72,87811,1,0,0:0:0:0:
176,264,88011,2,0,P|168:288|128:288,3,50,0|0|0|0,0:0|0:0|0:0|0:0,0:0:0:0:
88,96,88611,6,0,P|112:96|128:128,3,50,0|0|0|0,0:0|0:0|0:0|0:0,0:0:0:0:
216,56,89111,1,2,0:0:0:0:
280,296,89311,2,0,L|336:352,1,50
