osu file format v9

[General]
AudioFilename: 40mP, Lon - LeftBehind City.mp3
AudioLeadIn: 0
PreviewTime: 65737
Countdown: 0
SampleSet: Soft
StackLeniency: 0.4
Mode: 0
LetterboxInBreaks: 1

[Editor]
Bookmarks: 23293,37737,51737,65949,94404,122848,137071,191737
DistanceSpacing: 0.6
BeatDivisor: 2
GridSize: 4

[Metadata]
Title:LeftBehind City
Artist:Lon
Creator:Reed R Gale
Version:StraightBehind
Source:40mP
Tags:torinoko city hatsune Miku Vocaloid cover

[Difficulty]
HPDrainRate:1
CircleSize:4
OverallDifficulty:1
ApproachRate:2
SliderMultiplier:1.4
SliderTickRate:2

[Events]
//Background and Video events
0,0,"AltBackground.png"
Video,0,"torinokocityvideo.flv"
//Break Periods
2,80381,92844
2,133493,135511
2,179493,190399
//Storyboard Layer 0 (Background)
//Storyboard Layer 1 (Fail)
//Storyboard Layer 2 (Pass)
//Storyboard Layer 3 (Foreground)
//Storyboard Sound Samples
//Background Colour Transformations
3,100,163,162,255

[TimingPoints]
1960,444.444444444444,4,2,0,80,1,0
21737,-100,4,1,0,80,0,0
23071,-100,4,2,0,80,0,0
26162,-100,4,1,0,80,0,0
26717,-100,4,2,0,80,0,0
29959,-100,4,1,0,80,0,0
30182,-100,4,2,0,80,0,0
32182,-100,4,1,0,80,0,0
32626,-100,4,2,0,80,0,0
32848,-100,4,1,0,80,0,0
33737,-100,4,2,0,80,0,0
36848,-100,4,1,0,80,0,0
40626,-100,4,2,0,80,0,0
41071,-100,4,1,0,80,0,0
42162,-100,4,2,0,80,0,0
42384,-100,4,1,0,80,0,0
43717,-100,4,2,0,80,0,0
43939,-100,4,1,0,80,0,0
45051,-100,4,2,0,80,0,0
45273,-100,4,1,0,80,0,0
47293,-100,4,2,0,80,0,0
47737,-100,4,1,0,80,0,0
48162,-100,4,2,0,80,0,0
48384,-100,4,1,0,80,0,0
50606,-100,4,2,0,80,0,0
51273,-100,4,1,0,80,0,0
51737,-133.333333333333,4,2,0,80,0,0
65939,-100,4,1,0,80,0,1
69515,-100,4,2,0,80,0,1
70626,-100,4,1,0,80,0,1
72828,-100,4,1,0,80,0,0
73051,-100,4,2,0,80,0,1
73273,-100,4,1,0,80,0,1
79737,-100,4,2,0,80,0,1
80384,-100,4,2,0,80,0,0
95959,-100,4,1,0,80,0,0
97071,-100,4,2,0,80,0,0
97515,-100,4,1,0,80,0,0
100404,-100,4,2,0,80,0,0
100626,-100,4,1,0,80,0,0
101515,-100,4,2,0,80,0,0
101959,-100,4,1,0,80,0,0
102828,-100,4,2,0,80,0,0
103717,-100,4,1,0,80,0,0
106404,-100,4,2,0,80,0,0
107051,-100,4,1,0,80,0,0
108626,-100,4,2,0,80,0,0
109071,-100,4,1,0,80,0,0
109737,-100,4,2,0,80,0,0
110182,-100,4,1,0,80,0,0
111293,-100,4,2,0,80,0,0
111515,-100,4,1,0,80,0,0
112626,-100,4,2,0,80,0,0
113515,-100,4,1,0,80,0,0
114404,-100,4,2,0,80,0,0
114848,-100,4,1,0,80,0,0
116626,-100,4,2,0,80,0,0
117737,-100,4,1,0,80,0,0
119293,-100,4,2,0,80,0,0
119959,-100,4,1,0,80,0,0
120626,-100,4,2,0,80,0,0
121515,-100,4,1,0,80,0,0
122626,-133.333333333333,4,2,0,80,0,0
137051,-100,4,1,0,80,0,1
139293,-100,4,2,0,80,0,1
139959,-100,4,1,0,80,0,1
143071,-100,4,2,0,80,0,1
143959,-100,4,1,0,80,0,0
144182,-100,4,1,0,80,0,1
148404,-100,4,1,0,80,0,1
151071,-100,4,2,0,80,0,0
151293,-100,4,1,0,80,0,1
151737,-100,4,2,0,80,0,1
151959,-100,4,1,0,80,0,1
152626,-100,4,2,0,80,0,1
153959,-100,4,1,0,80,0,1
157737,-100,4,1,0,80,0,1
158182,-100,4,1,0,80,0,0
158626,-100,4,1,0,80,0,1
159293,-100,4,2,0,80,0,1
159959,-100,4,1,0,80,0,1
165182,-100,4,1,0,80,0,0
168404,-100,4,2,0,80,0,0
191737,-100,4,1,0,80,0,0
199071,-100,4,2,1,50,0,0
199515,-100,4,2,1,30,0,0
199959,-100,4,2,1,20,0,0
200404,-100,4,2,1,15,0,0
200848,-100,4,2,1,12,0,0
201293,-100,4,2,1,11,0,0
201737,-100,4,2,1,7,0,0
202182,-100,4,2,1,6,0,0
202626,-100,4,2,1,5,0,0
203071,-100,4,2,1,5,0,0

[Colours]
Combo1 : 255,0,255
Combo2 : 124,124,124
Combo3 : 168,168,168
Combo4 : 255,0,128

[HitObjects]
116,344,9071,2,0,B|48:308|48:240|48:240|140:192|140:192|48:120|48:120|48:72|116:44|152:76,1,490,2|0
204,140,11071,1,0
256,72,11515,2,0,B|296:152|296:152|352:152,1,140,2|0
400,40,12626,6,0,B|460:124|400:208|400:208|456:260|456:260|404:340,1,350,2|0
348,276,14182,1,0
284,328,14626,2,0,B|200:328|200:328|188:296|188:296|152:296,1,140,2|0
84,292,15515,2,0,B|40:232,1,70,2|0
116,200,16182,38,0,B|68:136|68:136|124:64|124:64|196:104|272:60|272:60|300:104,1,350,2|0
212,40,17737,2,0,B|200:128|264:232|368:248,1,280,2|0
444,244,19071,1,2
340,312,19737,6,0,B|136:312|136:312|136:248|136:248|232:248,1,350
256,172,21293,37,8
196,112,21737,1,0
256,52,22182,1,0
316,112,22626,1,0
256,224,23293,6,0,B|256:336|256:336|320:288|380:344|380:344|436:344,2,280,10|0|8
184,268,25515,2,0,B|184:116,2,140,2|2|0
104,244,26848,38,0,B|64:108|64:108|116:52|192:48|192:48|272:88,1,350,2|0
256,160,28404,1,8
256,244,28848,6,0,B|256:328,2,70,2|0|0
256,200,29515,1,2
256,116,29959,1,8
184,160,30404,38,0,B|308:160|384:124|384:124|456:88,2,280,2|0|0
116,108,32626,6,0,B|92:176|92:176|144:240,2,140,2|8|0
180,52,33959,2,0,B|276:0|276:140|392:52,2,210,8|0|8
144,72,35515,2,0,B|8:136,2,140
212,120,36848,1,8
156,232,37515,38,0,B|252:188|252:188|280:224|280:224|400:168,1,280
360,48,39071,2,0,B|263:47|180:110|167:213|212:295,1,350
292,276,40626,2,0,B|244:200|308:136,1,140,2|0
364,200,41515,2,0,B|376:110|466:103,2,140,0|8|0
448,184,42848,1,0
448,268,43293,6,0,B|448:356,2,70
408,268,43959,2,0,B|376:284|340:268,1,70,8|0
260,288,44626,38,0,B|220:300|220:300|176:280|176:280|116:296,1,140,0|2
112,252,45293,2,0,B|196:232|196:232|248:256,1,140,8|0
188,192,46182,2,0,B|320:256,2,140
116,148,47515,1,8
244,100,48182,6,0,B|316:68|372:124|372:124|456:92|496:160,1,280,2|8
476,76,49515,2,0,B|404:124|452:200|496:276|392:336,1,280,8|8
376,248,50848,2,0,B|340:240|340:240|300:248,2,70,2|0|8
460,260,51737,38,0,B|436:364|308:368|256:272|300:200|300:200|376:80,1,420,8|0
416,80,53959,6,0,B|356:176,2,104.999996870756,8|2|0
480,76,55293,2,0,B|264:36|264:36|228:108,1,262.499992176891,8|0
220,132,56848,2,0,B|176:236,2,104.999996870756,2|2|0
244,76,58182,2,8,B|328:92,1,52.4999984353781
356,96,58848,38,0,B|472:120|472:120|404:180|420:228,2,209.999993741512,2|0|8
296,80,61071,2,0,B|216:60,1,52.4999984353781,2|8
256,148,61959,2,0,B|180:128,2,52.4999984353781,2|0|0
320,156,62848,2,0,B|360:160|360:160|392:184,1,52.4999984353781,2|8
312,244,63737,6,0,B|275:261|275:261|253:294,1,52.4999984353781,2|0
268,304,64182,2,0,B|272:360,2,52.4999984353781,0|0|8
236,312,64848,1,8
256,104,65959,38,0,B|284:8|448:16|476:144|276:252|280:364|452:420|500:312,1,560,4|0
476,240,68182,2,0,B|172:236|172:236|204:176,1,350
220,156,69515,2,0,B|260:88,2,70,2|0|2
208,116,70182,2,0,B|172:176,2,70,0|0|4
168,120,70848,1,4
172,36,71293,6,0,B|88:48|48:128|104:212|200:196|200:196|272:184|272:184|256:256,1,420
272,332,73071,38,0,B|320:116,1,210,4|0
328,88,73959,2,0,B|368:76|368:76|412:80,1,70,8|0
416,120,74404,2,0,B|444:32,1,70
400,172,75293,2,0,B|352:304|352:304|428:304|428:304|304:208,1,350,8|0
288,200,76626,6,0,B|224:152,2,70
248,212,77293,2,0,B|304:254,2,70,0|0|4
240,252,77959,1,4
252,336,78404,38,0,B|304:336|304:336|384:84|384:84|336:84,1,350
308,84,79737,2,0,B|236:84,2,70,2|4|8
68,32,94404,6,0,B|32:32|32:32|60:324|48:336|168:304,1,350,2|0
156,248,95959,38,0,B|140:112|140:112|208:80|208:80|260:148,1,280,8|0
276,168,97071,2,0,B|328:240,2,70,2|0|0
320,96,97959,5,0
204,144,98626,1,0
44,192,99515,38,0,B|104:144|104:144|112:240|188:240|188:240|256:240,1,280,0|2
220,272,100626,2,0,B|364:272,1,140,8|0
308,204,101515,6,0,B|336:180|336:180|376:180,2,70,2|0|8
256,140,102404,2,0,B|256:116|256:116|268:104|268:104|244:104|244:104|256:92|256:92|256:28,2,140,8|2|0
256,224,103737,2,0,B|256:312,1,70,0|8
420,328,104848,37,0
464,328,105071,2,0,B|432:260|432:260|368:260|368:260|332:160|332:160|408:160|408:160|380:64,1,420
340,64,106626,2,0,B|252:64,2,70
360,28,107293,1,8
256,280,108626,6,0,B|256:208,2,70,2|0|0
172,280,109515,2,0,B|172:240|172:240|136:224,2,70
216,280,110182,1,0
320,348,110848,2,0,B|384:348|384:348|424:136|424:136|340:136|340:136|324:208,1,420
244,184,112626,38,0,B|256:116|256:116|216:84|152:92|152:92|120:196,1,280,2|0
108,228,113737,1,0
192,324,114404,6,0,B|170:353|130:349,2,70,2|0|0
208,304,115071,2,0,B|228:280|228:280|236:284|236:284|268:284,1,70
348,304,115737,38,0,B|372:236|372:236|297:208|297:208|294:148|337:99|337:99|359:108,1,280,0|2
384,124,116848,2,0,B|404:148|456:144,1,70
488,132,117293,1,8
444,60,117737,6,0,B|400:24|320:24|320:24|232:24|232:24|264:80|264:80|236:128|236:128|224:208,1,420
216,248,119293,2,0,B|204:324,1,70,2|0
176,288,119737,2,0,B|188:216,2,70
116,344,120626,38,0,B|68:296|84:200|84:200|108:60,1,280,2|0
256,116,122848,6,0,B|256:240|256:240|328:288,2,209.999993741512,2|0|8
200,192,125071,2,0,B|136:192,1,52.4999984353781,2|8
256,244,125959,38,0,B|256:308,1,52.4999984353781,2|8
308,192,126848,6,0,B|372:192,1,52.4999984353781,2|8
256,140,127737,38,0,B|256:76,1,52.4999984353781,2|8
308,192,128626,6,0,B|372:192,1,52.4999984353781,2|8
424,192,129293,37,8
456,192,129515,1,8
392,192,129959,6,0,B|56:192,1,314.999990612269,2|0
12,192,131737,2,0,B|12:132|12:132|96:132|144:60,1,209.999993741512,2|0
196,96,133071,2,0,B|196:44,1,52.4999984353781,2|8
256,136,137071,38,0,B|256:276|256:276|332:260|384:200,1,280,4|0
360,84,138626,2,0,B|384:300,1,210,0|2
300,312,139737,2,0,B|296:352|336:368,2,70,2|4|4
256,240,140626,6,0,B|220:116|220:116|196:100,2,140
216,256,141737,2,4,B|240:324,1,70
160,352,142404,38,0,B|76:308|20:192|72:68|164:12,1,350
160,48,143737,2,0,B|208:48|208:48|224:72,1,70,0|4
236,112,144182,1,4
256,280,145071,6,0,B|312:328|312:328|364:328|364:328|392:352,2,140
224,256,146182,2,0,B|168:204,1,70
256,188,146848,2,4,B|256:112,1,70
360,48,147737,38,0,B|416:184|416:184|464:184|464:184|416:260|416:260|432:328|432:328|344:328,1,420,8|4
324,328,149293,2,0,B|288:244|288:244|348:208|348:208|292:68|292:68|232:96|232:96|268:184|268:184|180:224,1,560,4|0
152,236,151293,1,4
72,264,151737,6,0,B|72:300|72:300|84:328|64:348,2,70
40,188,152626,2,0,B|0:40|0:40|64:20|64:20|100:160|100:160|164:144,1,420,2|0
236,128,154404,1,4
316,108,154848,38,0,B|336:108|336:108|372:120|404:108,2,70
348,184,155737,2,0,B|424:192,1,70,0|4
452,312,156626,6,0,B|376:348|256:368|144:352|32:312,1,420
28,232,158404,1,4
192,192,159293,38,0,B|256:124|256:124|312:192|312:192|348:192,1,210
256,284,160626,1,0
256,200,161071,2,4,B|256:120,1,70
360,56,161959,6,0,B|400:60|428:104,2,70
364,140,162848,2,0,B|384:160|384:160|420:164|420:164|440:184,2,70
304,200,163737,2,0,B|312:280,2,70
220,196,164626,2,0,B|188:260,2,70
256,172,165293,6,0,B|256:44|256:44|172:44|80:88|48:188|80:312|152:376|260:384|340:384|416:320|452:216|428:136|380:64|296:32,1,980
312,48,168626,1,0
256,192,168848,12,0,171293
256,192,171737,12,0,179293
40,192,191959,37,8
48,164,192404,1,8
68,144,192848,1,8
96,136,193293,1,8
124,140,193737,1,8
148,156,194182,1,8
160,180,194626,1,8
172,204,195071,1,8
192,224,195515,37,0
216,236,195960,1,0
244,240,196404,1,0
268,228,196849,1,0
288,208,197293,1,0
296,180,197738,1,0
308,156,198182,1,0
332,140,198627,1,0
360,136,199071,37,2
388,148,199515,1,2
404,172,199959,1,2
416,200,200404,1,2
432,224,200848,1,2
460,232,201293,37,0
488,228,201737,1,0
508,208,202182,1,0
508,180,202626,1,0
492,156,203070,1,0
