osu file format v9

[General]
AudioFilename: 40mP, Lon - LeftBehind City.mp3
AudioLeadIn: 0
PreviewTime: 65737
Countdown: 0
SampleSet: Soft
StackLeniency: 0.4
Mode: 0
LetterboxInBreaks: 1

[Editor]
Bookmarks: 23202,37737,51626,65949,87273,122848,137071,165182,191737
DistanceSpacing: 1
BeatDivisor: 4
GridSize: 4

[Metadata]
Title:LeftBehind City
Artist:Lon
Creator:Reed R Gale
Version:RightBehind
Source:40mP
Tags:torinoko city hatsune Miku Vocaloid cover

[Difficulty]
HPDrainRate:3
CircleSize:4
OverallDifficulty:3
ApproachRate:3
SliderMultiplier:1.4
SliderTickRate:2

[Events]
//Background and Video events
0,0,"AltBackground.png"
Video,0,"torinokocityvideo.flv"
//Break Periods
2,80381,85853
2,134159,135631
2,179493,190519
//Storyboard Layer 0 (Background)
//Storyboard Layer 1 (Fail)
//Storyboard Layer 2 (Pass)
//Storyboard Layer 3 (Foreground)
//Storyboard Sound Samples
//Background Colour Transformations
3,100,163,162,255

[TimingPoints]
1960,444.444444444444,4,2,0,80,1,0
21717,-100,4,1,0,80,0,0
23051,-100,4,2,0,80,0,0
26162,-100,4,1,0,80,0,0
26717,-100,4,2,0,80,0,0
27273,-100,4,1,0,80,0,0
27384,-100,4,2,0,80,0,0
29939,-100,4,1,0,80,0,0
30051,-100,4,2,0,80,0,0
32606,-100,4,1,0,80,0,0
33717,-100,4,2,0,80,0,0
36828,-100,4,1,0,80,0,0
42162,-100,4,2,0,80,0,0
42384,-100,4,1,0,80,0,0
43717,-100,4,2,0,80,0,0
43939,-100,4,1,0,80,0,0
45051,-100,4,2,0,80,0,0
45273,-100,4,1,0,80,0,0
47293,-100,4,2,0,80,0,0
47737,-100,4,1,0,80,0,0
48162,-100,4,2,0,80,0,0
48384,-100,4,1,0,80,0,0
50606,-100,4,2,0,80,0,0
51273,-100,4,1,0,80,0,0
51606,-100,4,2,0,80,0,0
65939,-100,4,1,0,80,0,1
72828,-100,4,1,0,80,0,0
73051,-100,4,2,0,80,0,1
73273,-100,4,1,0,80,0,1
80384,-100,4,2,0,80,0,0
94384,-100,4,1,0,80,0,0
94606,-100,4,2,0,80,0,0
94828,-100,4,1,0,80,0,0
95717,-100,4,2,0,80,0,0
97051,-100,4,1,0,80,0,0
99273,-100,4,2,0,80,0,0
100162,-100,4,1,0,80,0,0
102162,-100,4,2,0,80,0,0
102399,-100,4,1,0,80,0,0
102828,-100,4,2,0,80,0,0
103717,-100,4,1,0,80,0,0
105495,-100,4,2,0,80,0,0
105717,-100,4,1,0,80,0,0
106162,-100,4,2,0,80,0,0
107051,-100,4,1,0,80,0,0
109737,-100,4,2,0,80,0,0
110182,-100,4,1,0,80,0,0
111293,-100,4,2,0,80,0,0
111515,-100,4,1,0,80,0,0
122626,-100,4,2,0,80,0,0
137051,-100,4,1,0,80,0,1
143071,-100,4,2,0,80,0,1
143959,-100,4,1,0,80,0,0
144182,-100,4,1,0,80,0,1
148404,-100,4,1,0,80,0,1
151071,-100,4,2,0,80,0,0
151293,-100,4,1,0,80,0,1
157737,-100,4,1,0,80,0,1
158182,-100,4,1,0,80,0,0
158404,-100,4,1,0,80,0,1
158959,-100,4,1,0,80,0,1
165182,-100,4,1,0,80,0,0
168404,-100,4,2,0,80,0,0
191737,-100,4,1,0,80,0,0
199071,-100,4,2,1,50,0,0
199515,-100,4,2,1,30,0,0
199959,-100,4,2,1,20,0,0
200404,-100,4,2,1,15,0,0
200848,-100,4,2,1,12,0,0
201293,-100,4,2,1,11,0,0
201737,-100,4,2,1,7,0,0
202182,-100,4,2,1,6,0,0
202626,-100,4,2,1,5,0,0
203071,-100,4,2,1,5,0,0

[Colours]
Combo1 : 255,0,255
Combo2 : 124,124,124
Combo3 : 168,168,168
Combo4 : 255,0,128

[HitObjects]
40,64,9071,6,0,B|112:80|112:104|112:104|96:112|96:112|96:224|96:224|112:232|112:232|112:256|176:256,1,280,2|2
168,184,10182,2,0,B|192:144|216:144|216:144|232:160|232:160|272:160|272:160|288:144|288:144|352:144,1,210
168,40,11515,2,0,B|168:112|168:112|200:112|200:112|200:148|200:148|168:184|168:184|168:232,1,210,2|2
256,320,12626,6,0,B|336:320|336:280|336:280|384:280|384:280|432:224,1,210,2|2
496,240,13515,2,0,B|500:200|476:168|432:160|432:160|408:136|408:136|432:112|432:112|432:64,1,210,2|0
344,192,14626,2,0,B|288:192|288:160|288:160|256:144|256:144|224:160|224:160|224:208|224:208|160:216|160:216|160:184,1,280,2|0
8,40,16182,38,0,B|8:128|8:128|-32:136|-32:192|8:200|8:200|8:296,1,280,2|2
40,352,17293,2,0,B|88:336|88:264|88:264|88:168|88:168|88:104|136:88,1,280
240,32,18626,2,0,B|304:32|312:96|312:96|360:104|360:104|344:160,1,210,2|0
240,248,19737,6,0,B|304:232|320:248|320:248|368:248|368:248|384:232|448:248,1,210,2|2
396,296,20626,2,0,B|401:228|447:158|524:125,1,210,2|8
368,112,21737,37,8
256,192,22182,1,8
256,56,22626,1,8
144,112,23071,1,2
96,56,23293,6,0,B|64:88|48:152|64:208|64:208|136:184,1,210,0|2
88,328,24404,2,0,B|168:304|168:304|176:256|176:256|200:240,2,140,2|2|0
56,264,25515,2,0,B|104:248|104:248|112:192|168:176,1,140
224,160,26182,1,8
256,24,26626,37,0
200,64,26848,2,0,B|224:108|292:108|316:60,2,140,2|8|0
156,116,27959,2,0,B|196:168|264:180|328:160|360:112,2,210,2|8|0
104,160,29515,2,0,B|144:216|208:228|208:228|208:264,1,140,2|8
152,284,30182,6,0,B|188:324|248:316|248:316|284:280|280:232|280:232|320:232,1,210,2|2
340,292,31071,2,0,B|384:272|372:216|400:192|400:192|400:152|400:152|372:136|376:76,1,210
332,56,31959,2,0,B|232:120,2,105,0|2|8
400,44,32848,1,8
332,316,33737,38,0,B|316:252|256:236|196:252|180:324,1,210
256,324,34626,2,0,B|256:212|256:212|300:200|356:168|360:120|360:120|328:120,1,280
292,120,35737,2,0,B|236:168|144:172|88:136,1,210,0|2
232,108,36848,2,0,B|224:152|244:224|304:260|372:260,1,210,8|0
72,316,38404,6,0,B|72:236|120:236|120:236|120:204|120:204|168:204|168:204|168:236|168:236|184:268|216:288,1,280,8|0
252,212,39515,2,0,B|292:268|360:312|440:312,1,210,0|8
428,240,40404,1,8
420,32,41071,38,0,B|420:104|352:104|352:104|344:36|280:36,1,210
272,176,42182,2,0,B|272:112|272:112|212:92|212:40,1,140,0|0
200,204,43071,2,0,B|204:240|240:256|268:256|268:256|280:312,1,140
204,312,43737,2,0,B|156:316|116:268|116:220,1,140,2|0
44,224,44404,6,0,B|28:144|40:68,1,140
4,156,45071,2,0,B|96:156|96:156|116:112|156:112,1,140,2|0
104,52,45737,2,0,B|140:32|240:20|360:32|392:52,1,280
352,112,46848,2,0,B|328:100|296:100|256:104|256:104|256:164,2,140
256,216,48182,38,0,B|256:296|256:296|224:328|224:328|224:360,1,140
156,344,48848,2,0,B|296:344|296:344|368:344|408:304|408:256,2,280
24,300,51071,2,0,B|28:268|56:232|100:232|100:232|100:172,1,140,8|8
103,201,51737,6,0,B|128:144|188:108|256:96|324:108|384:144|416:208|416:208|440:156|440:156,1,420,0|2
424,100,53293,2,0,B|352:60|352:60|256:40|256:40|160:60|160:60,1,280
96,92,54404,1,0
300,52,54848,2,0,B|256:40|256:40|256:112|256:112|216:124,1,140
128,212,55737,37,0
192,248,55959,2,0,B|208:212|256:200|308:212|328:248,2,140,2|2|0
196,320,57071,2,0,B|224:360|292:360|292:360|284:328,1,140,2|0
348,296,57737,2,8,B|348:140,1,140,8|0
176,40,58848,6,0,B|176:116|176:116|176:176|208:212|256:220|304:212|332:176|332:116|332:116|332:36,1,420,0|2
396,64,60404,2,0,B|332:108|300:100|300:100|256:92|256:92|212:100|212:100|172:108|108:108,1,280,2|0
140,40,61515,2,0,B|104:84|124:148|180:160|180:160|312:172,1,280,2|0
108,240,63071,38,0,B|264:252,1,140
424,136,64182,2,0,B|268:124,1,140
328,72,64848,1,0
280,204,65293,5,0
312,144,65515,1,0
328,72,65737,1,0
256,36,65959,38,0,B|256:192|156:192|156:192|156:120,1,280,4|0
156,48,67071,2,0,B|196:52|228:80|228:132|228:132|316:132,1,210,8|4
368,88,67959,2,0,B|396:128|368:180,1,70
444,180,68404,2,0,B|420:228|360:224|360:224|360:276,1,140,8|4
320,324,69071,1,4
256,360,69293,5,0
256,292,69515,2,0,B|256:204,1,70,8|0
188,224,69959,2,0,B|188:156|188:156|144:128|144:128|144:84,1,140
112,44,70626,2,4,B|36:44,1,70
184,44,71293,38,0,B|256:44|272:64|272:64|312:64|312:64|328:44|420:44,1,210
376,116,72182,2,0,B|352:140|300:136,2,70,8|4|4
236,128,73071,6,0,B|236:188|256:208|256:208|256:252|256:252|236:268|236:268|168:268|168:268,1,210
160,200,73959,2,4,B|160:116,1,70
88,124,74404,2,0,B|88:168|88:168|48:208|48:208|88:268|88:268|64:300,1,210
124,340,75293,2,0,B|192:340,1,70,8|0
264,340,75737,2,4,B|348:340,1,70
256,224,76404,38,0,B|256:156|312:140|312:140|312:72|384:60,1,210
384,132,77293,2,0,B|420:272,1,140,0|4
296,204,78182,2,0,B|252:192|204:160|188:84|208:28,1,210
272,56,79071,2,0,B|252:132|164:152,1,140
124,196,79737,2,8,B|164:220|204:220,2,70,8|8|0
268,60,87293,6,2,B|280:116|280:116|240:100|188:116|156:152|160:208|160:208|196:256,1,280,2|0
252,212,88404,38,0,B|248:272|304:304|356:276|356:276|420:276,1,210
400,208,89293,2,0,B|332:208|332:208|332:140|376:128,1,140,0|2
208,136,90182,2,0,B|280:108,1,70,2|0
136,92,90848,6,0,B|116:152|160:216|224:216|224:216|224:260,1,210,2|0
156,272,91737,2,0,B|180:320|256:344|324:328|348:272,1,210
396,328,92626,2,0,B|460:288|460:288|460:200,1,140,2|0
400,184,93293,1,0
328,172,93515,2,0,B|332:112|332:112|368:96|368:96|384:48,1,140,0|2
256,0,94404,37,0
200,40,94626,2,0,B|220:64|256:72|256:72|256:100,1,70,2|0
256,148,95071,2,0,B|256:216|256:216|280:232|280:232|256:252|256:252|256:340,1,210
156,236,96182,6,0,B|112:212|112:124|112:124|112:68|112:68|48:68|24:128,1,280,8|0
56,252,97515,1,8
168,340,97959,1,0
256,152,98626,38,0,B|260:72|260:72|264:12|328:-12|368:16,1,210
336,84,99515,2,0,B|340:176|304:244|304:244|256:244,1,210
188,244,100404,1,8
124,276,100626,1,0
120,136,101071,1,0
256,100,101515,6,0,B|256:36|312:36|312:36|356:36|356:36|372:88|432:88,1,210,0|2
448,24,102404,2,0,B|484:48|480:104|480:104|476:156|476:156|408:156,1,210,0|2
268,168,103515,1,0
284,236,103737,1,0
216,216,103959,1,8
16,20,104848,38,0,B|16:92|16:92|88:92|96:160|96:160|132:176,1,210,0|2
92,236,105737,2,0,B|152:244|180:192|180:192|240:184|256:120,1,210
360,268,106848,1,0
368,200,107071,1,0
376,132,107293,1,8
24,356,108626,6,0,B|68:336|76:288|76:288|120:288|160:252|172:212|172:212|220:216|252:184,1,280
192,140,109737,2,0,B|80:140|80:140|100:216|164:312,1,280,2|0
200,344,110848,2,0,B|272:344,1,70
268,272,111293,2,0,B|336:232,1,70,2|0
256,40,112182,38,0,B|256:116|256:116|256:180|284:208|336:208,1,210
328,136,113071,2,0,B|256:120|256:120|180:120|180:120|108:152|48:120,1,280
96,64,114182,2,0,B|144:64|184:124|184:124|184:228,1,210
308,288,115293,1,0
252,160,115737,6,0,B|336:160|336:160|376:132|444:136|476:164|476:164|476:228,1,280
408,216,116848,1,0
408,216,117071,2,0,B|408:140|408:140|452:96,2,140
404,356,118404,1,0
356,304,118626,1,4
256,120,119293,38,0,B|256:228|192:304|192:304|128:304|128:304|128:268,1,280
164,224,120404,2,0,B|256:180|336:88,1,210
264,68,121293,2,0,B|248:156,1,70,8|4
40,184,122626,5,0
40,260,122848,2,0,B|104:248|112:192|112:192|168:144|168:144|168:248,1,280,0|2
236,264,123959,2,0,B|164:256|96:216|64:144|64:144|40:72,1,280
132,92,125071,2,0,B|224:24|224:24|256:24,1,140,0|2
320,24,125737,2,0,B|396:24|396:24|440:56|440:108|440:108|396:108,1,210,2|0
332,112,126626,38,0,B|332:148|332:148|428:216|428:216|428:284,1,210,0|2
424,344,127515,1,0
356,332,127737,2,0,B|356:260|356:260|300:220,1,140,2|0
256,164,128404,1,2
256,304,128848,1,2
128,352,129293,2,8,B|52:352,1,70
180,284,129959,6,0,B|120:232|120:232|120:180|100:160|100:160|100:124|100:124|120:104|120:40,1,280
24,144,131293,2,0,B|112:188|112:188|200:168|208:132|208:132|252:112|252:112|288:136,1,280,2|0
204,96,132404,2,0,B|244:176|244:176|244:248,1,140,0|2
184,260,133071,2,0,B|284:260,1,70,0|8
452,328,133959,37,2
256,40,137071,5,4
256,180,137515,2,0,B|332:180|332:180|364:124|364:124|440:124,1,210
320,208,138626,2,0,B|304:116|304:116|248:88|188:112,1,210
256,236,139737,1,0
188,252,139959,2,4,B|200:296|236:304,1,70
100,348,140626,38,0,B|48:292|48:292|48:216|48:216|88:192|88:192|88:136|88:136|44:88|44:88|44:52,1,350,0|4
112,60,141959,1,4
252,60,142404,6,0,B|208:112|216:196|268:240|268:240|288:344,1,280,4|0
352,304,143515,1,4
340,236,143737,1,2
408,224,143959,1,8
420,292,144182,1,4
256,68,145071,38,0,B|256:144|256:144|256:224|224:272|164:272|132:256,1,280
172,124,146404,1,0
132,256,146848,2,0,B|104:332|104:332,1,70,4|4
256,172,147737,6,0,B|256:320|256:320|304:264|372:264|424:280|444:324,1,350
388,112,149515,2,0,B|360:64|316:40|256:24|200:40|152:64|128:112,1,280
256,172,150848,1,4
256,172,151071,1,0
256,172,151293,1,4
132,232,151737,38,0,B|144:296|144:296|236:296|236:296|248:348,1,210
320,344,152626,2,0,B|296:236|296:236|352:236|400:184|392:120,1,280
324,140,153737,2,0,B|360:200|444:220,1,140,0|4
444,284,154404,1,4
312,336,154848,6,0,B|256:284|256:284|256:252|228:224|228:224|236:148|184:92,1,280
188,168,155959,2,4,B|260:144,1,70
256,76,156404,2,0,B|316:80|324:144|324:144|384:156|388:232,1,210
316,212,157293,2,0,B|416:152|416:68|416:68|464:68|472:160,1,280,0|4
468,208,158404,1,4
388,324,158848,38,0,B|256:352|256:352|112:324,1,280
168,368,159959,2,0,B|228:312|224:240|224:240|280:288,1,210
336,248,160848,2,0,B|396:192,1,70,0|8
320,176,161293,2,4,B|256:140,1,70
128,92,161959,6,0,B|176:40|256:32|340:40|388:88,1,280
448,56,163071,2,4,B|476:124,1,70
412,160,163515,38,0,B|452:268|452:268|400:352,1,210
336,324,164404,2,0,B|376:260|376:260|352:192,1,140,4|0
320,136,165071,1,4
372,84,165293,22,0,B|300:4|204:-8|52:36|8:196|48:304|132:392|248:432|388:392|416:280|424:216|416:160,1,910
318,133,168626,2,0,B|279:90|227:83|145:107|121:194|143:252|188:300|251:321|327:300|342:239|346:204|342:174,1,490,2|0
256,192,170404,1,0
256,192,170626,1,0
116,192,171071,5,0
256,192,171737,12,2,175293
256,192,175404,12,0,179293
183,119,191959,5,8
330,119,192404,1,8
330,265,192848,1,8
182,265,193293,1,8
183,119,193737,1,8
330,119,194182,1,8
330,265,194626,1,8
182,265,195071,1,8
256,88,195515,5,0
359,192,195960,1,0
256,296,196404,1,0
151,192,196849,1,0
292,155,197293,1,0
292,229,197738,1,0
218,229,198182,1,0
218,154,198627,1,0
256,192,199071,5,2
256,192,199515,1,2
256,192,199959,1,2
256,192,200404,1,2
256,192,200848,1,2
256,192,201293,5,0
256,192,201737,1,0
256,192,202182,1,0
256,192,202626,1,0
256,192,203071,1,0
