osu file format v9

[General]
AudioFilename: 40mP, Lon - LeftBehind City.mp3
AudioLeadIn: 0
PreviewTime: 65737
Countdown: 0
SampleSet: Soft
StackLeniency: 0.7
Mode: 0
LetterboxInBreaks: 1

[Editor]
Bookmarks: 23293,37737,51606,65959,87293,94404,115717,122828,137182,151182,158293,165071
DistanceSpacing: 0.8
BeatDivisor: 4
GridSize: 4

[Metadata]
Title:LeftBehind City
Artist:Lon
Creator:Reed R Gale
Version:LeftBehind
Source:40mP
Tags:torinoko city hatsune Miku Vocaloid cover

[Difficulty]
HPDrainRate:6
CircleSize:5
OverallDifficulty:6
ApproachRate:9
SliderMultiplier:1.4
SliderTickRate:2

[Events]
//Background and Video events
0,0,"AltBackground.png"
Video,0,"torinokocityvideo.flv"
//Break Periods
2,80382,86693
2,179937,191360
//Storyboard Layer 0 (Background)
//Storyboard Layer 1 (Fail)
//Storyboard Layer 2 (Pass)
//Storyboard Layer 3 (Foreground)
//Storyboard Sound Samples
//Background Colour Transformations
3,100,163,162,255

[TimingPoints]
1960,444.444444444444,4,2,0,67,1,0
9071,-66.6666666666667,4,2,0,80,0,0
21162,-66.6666666666667,4,1,0,80,0,0
22606,-66.6666666666667,4,2,0,80,0,0
23273,-66.6666666666667,4,1,0,80,0,0
23939,-66.6666666666667,4,2,0,80,0,0
24606,-66.6666666666667,4,1,0,80,0,0
25051,-66.6666666666667,4,2,0,80,0,0
26162,-66.6666666666667,4,1,0,80,0,0
26828,-66.6666666666667,4,2,0,80,0,0
27495,-66.6666666666667,4,1,0,80,0,0
28162,-66.6666666666667,4,2,0,80,0,0
28606,-66.6666666666667,4,1,0,80,0,0
29051,-66.6666666666667,4,2,0,80,0,0
29495,-66.6666666666667,4,1,0,80,0,0
30162,-66.6666666666667,4,2,0,80,0,0
30384,-66.6666666666667,4,1,0,80,0,0
31051,-66.6666666666667,4,2,0,80,0,0
31384,-66.6666666666667,4,2,0,80,0,0
32384,-66.6666666666667,4,1,0,80,0,0
32606,-66.6666666666667,4,2,0,80,0,0
33273,-66.6666666666667,4,1,0,80,0,0
33495,-66.6666666666667,4,2,0,80,0,0
34162,-66.6666666666667,4,1,0,80,0,0
35273,-66.6666666666667,4,2,0,80,0,0
35717,-66.6666666666667,4,1,0,80,0,0
35939,-66.6666666666667,4,2,0,80,0,0
36717,-66.6666666666667,4,1,0,80,0,0
36939,-66.6666666666667,4,2,0,80,0,0
37051,-66.6666666666667,4,1,0,80,0,0
37273,-66.6666666666667,4,2,0,80,0,0
37495,-66.6666666666667,4,1,0,80,0,0
38162,-66.6666666666667,4,2,0,80,0,0
38384,-66.6666666666667,4,1,0,80,0,0
41051,-66.6666666666667,4,2,0,80,0,0
41495,-66.6666666666667,4,1,0,80,0,0
41939,-66.6666666666667,4,2,0,80,0,0
42606,-66.6666666666667,4,1,0,80,0,0
43495,-66.6666666666667,4,2,0,80,0,0
43717,-66.6666666666667,4,1,0,80,0,0
44384,-66.6666666666667,4,2,0,80,0,0
44828,-66.6666666666667,4,1,0,80,0,0
45495,-66.6666666666667,4,2,0,80,0,0
46162,-66.6666666666667,4,1,0,80,0,0
46384,-66.6666666666667,4,2,0,80,0,0
46828,-66.6666666666667,4,1,0,80,0,0
47051,-66.6666666666667,4,2,0,80,0,0
47273,-66.6666666666667,4,1,0,80,0,0
48606,-66.6666666666667,4,2,0,80,0,0
48828,-66.6666666666667,4,1,0,80,0,0
50162,-66.6666666666667,4,2,0,80,0,0
50606,-66.6666666666667,4,1,0,80,0,0
51717,-133.333333333333,4,2,0,80,0,0
57051,-200,4,2,0,80,0,0
57939,-133.333333333333,4,2,0,80,0,0
64162,-66.6666666666667,4,2,0,80,0,0
64384,-66.6666666666667,4,1,0,80,0,0
64606,-66.6666666666667,4,2,0,80,0,0
64828,-66.6666666666667,4,1,0,80,0,0
65182,-66.6666666666667,4,2,0,80,0,0
65293,-66.6666666666667,4,2,0,45,0,0
65404,-66.6666666666667,4,2,0,40,0,0
65515,-66.6666666666667,4,2,0,35,0,0
65626,-66.6666666666667,4,2,0,30,0,0
65737,-66.6666666666667,4,2,0,25,0,0
65959,-66.6666666666667,4,1,0,80,0,1
66384,-66.6666666666667,4,2,0,80,0,1
66606,-66.6666666666667,4,1,0,80,0,1
72848,-66.6666666666667,4,1,0,80,0,0
73071,-66.6666666666667,4,1,0,80,0,1
79959,-66.6666666666667,4,2,0,80,0,1
80404,-66.6666666666667,4,2,0,80,0,0
93051,-66.6666666666667,4,1,0,80,0,0
93498,-66.6666666666667,4,2,0,80,0,0
94293,-66.6666666666667,4,1,0,80,0,0
94404,-66.6666666666667,4,2,0,80,0,0
97293,-66.6666666666667,4,1,0,80,0,0
97717,-66.6666666666667,4,2,0,80,0,0
99051,-66.6666666666667,4,1,0,80,0,0
99717,-66.6666666666667,4,2,0,80,0,0
100384,-66.6666666666667,4,1,0,80,0,0
101051,-66.6666666666667,4,2,0,80,0,0
101717,-66.6666666666667,4,1,0,80,0,0
101959,-66.6666666666667,4,2,0,80,0,0
102404,-66.6666666666667,4,1,0,80,0,0
102606,-66.6666666666667,4,2,0,80,0,0
103273,-66.6666666666667,4,1,0,80,0,0
103495,-66.6666666666667,4,2,0,80,0,0
103939,-66.6666666666667,4,1,0,80,0,0
104162,-66.6666666666667,4,2,0,80,0,0
104626,-66.6666666666667,4,1,0,80,0,0
104848,-66.6666666666667,4,2,0,80,0,0
105051,-66.6666666666667,4,1,0,80,0,0
105273,-66.6666666666667,4,2,0,80,0,0
105717,-66.6666666666667,4,1,0,80,0,0
106384,-66.6666666666667,4,2,0,80,0,0
107051,-66.6666666666667,4,1,0,80,0,0
108051,-66.6666666666667,4,2,0,80,0,0
108828,-66.6666666666667,4,1,0,80,0,0
109717,-66.6666666666667,4,2,0,80,0,0
109939,-66.6666666666667,4,1,0,80,0,0
110273,-66.6666666666667,4,2,0,80,0,0
110828,-66.6666666666667,4,1,0,80,0,0
111051,-66.6666666666667,4,2,0,80,0,0
111495,-66.6666666666667,4,1,0,80,0,0
112162,-66.6666666666667,4,2,0,80,0,0
112606,-66.6666666666667,4,1,0,80,0,0
113495,-66.6666666666667,4,2,0,80,0,0
113939,-66.6666666666667,4,1,0,80,0,0
117051,-66.6666666666667,4,2,0,80,0,0
117939,-66.6666666666667,4,1,0,80,0,0
118384,-66.6666666666667,4,2,0,80,0,0
119051,-66.6666666666667,4,1,0,80,0,0
119717,-66.6666666666667,4,2,0,80,0,0
120162,-66.6666666666667,4,1,0,80,0,0
122606,-133.333333333333,4,2,0,80,0,0
134828,-133.333333333333,4,1,0,80,0,0
136515,-133.333333333333,4,2,0,50,0,0
136626,-133.333333333333,4,2,0,45,0,0
136737,-133.333333333333,4,2,0,40,0,0
136848,-133.333333333333,4,2,0,35,0,0
136959,-133.333333333333,4,2,0,30,0,0
137071,-66.6666666666667,4,2,0,80,0,1
137293,-50,4,1,0,80,0,1
137848,-50,4,2,0,80,0,1
137959,-50,4,1,0,80,0,1
138737,-50,4,2,0,80,0,1
138848,-50,4,1,0,80,0,1
139737,-50,4,2,0,80,0,1
139959,-50,4,1,0,80,0,1
140848,-50,4,2,0,80,0,1
141071,-50,4,1,0,80,0,1
142626,-50,4,2,0,80,0,1
142848,-50,4,1,0,80,0,1
143071,-50,4,2,0,80,0,1
143515,-50,4,1,0,80,0,1
143959,-50,4,1,0,80,0,0
144182,-50,4,1,0,80,0,1
144404,-50,4,1,0,80,0,1
144626,-50,4,2,0,80,0,1
144848,-50,4,1,0,80,0,1
145848,-50,4,2,0,80,0,1
146182,-50,4,1,0,80,0,1
147959,-50,4,2,0,80,0,1
148404,-50,4,1,0,80,0,1
151071,-50,4,2,0,80,0,0
151293,-50,4,1,0,80,0,1
151626,-50,4,2,0,80,0,1
151737,-50,4,1,0,80,0,1
152404,-50,4,2,0,80,0,1
152848,-50,4,1,0,80,0,1
153959,-50,4,2,0,80,0,1
154182,-50,4,1,0,80,0,1
155515,-50,4,2,0,80,0,1
155959,-50,4,1,0,80,0,1
157293,-50,4,2,0,80,0,1
157737,-50,4,1,0,80,0,1
158182,-50,4,1,0,80,0,0
158404,-50,4,1,0,80,0,1
158626,-50,4,2,0,80,0,1
158959,-50,4,1,0,80,0,1
165293,-50,4,1,0,80,0,0
165348,-50,4,2,0,80,0,0
169515,-50,4,1,0,80,0,0
170853,-50,4,2,0,80,0,0
171182,-50,4,1,0,80,0,0
171959,-50,4,2,0,80,0,0
172182,-50,4,1,0,80,0,0
179737,-50,4,2,0,80,0,0
191959,-50,4,1,0,80,0,0
199071,-100,4,2,1,50,0,0
199515,-100,4,2,1,30,0,0
199959,-100,4,2,1,20,0,0
200404,-100,4,2,1,15,0,0
200848,-100,4,2,1,12,0,0
201293,-100,4,2,1,11,0,0
201737,-100,4,2,1,7,0,0
202182,-100,4,2,1,6,0,0
202626,-100,4,2,1,5,0,0
203071,-100,4,2,1,5,0,0

[Colours]
Combo1 : 255,0,255
Combo2 : 124,124,124
Combo3 : 168,168,168
Combo4 : 255,0,128

[HitObjects]
92,312,9071,2,0,B|160:264|188:184|180:96|104:36,1,314.999990612269,2|0
20,52,9960,1,0
92,100,10182,2,0,B|124:144|124:144|176:144|176:144|204:188|204:188|256:188,1,209.999993741512,2|0
256,272,10848,1,0
256,188,11071,1,0
256,108,11293,2,0,B|316:108|316:108|316:200|416:200|416:200,1,209.999993741512,2|0
332,204,11960,2,0,B|356:140|416:124|416:124|416:32,1,209.999993741512,2|8
344,76,12626,5,0
168,76,13071,1,8
256,56,13293,2,0,B|256:164,1,104.999996870756,0|2
172,168,13737,2,0,B|184:204|224:228|256:228|256:228|188:312,1,209.999993741512
124,256,14404,2,0,B|128:308,2,52.4999984353781,0|2|0
92,192,14848,1,0
20,152,15071,2,0,B|56:100|116:112|116:112|172:80|172:80|228:80,1,209.999993741512,2|8
240,144,15737,1,2
228,180,15848,1,0
300,192,16071,37,0
288,224,16182,2,0,B|256:272|256:272|256:336|312:360|312:360|384:336,1,209.999993741512,2|2
348,264,16848,2,0,B|384:204|384:204|392:144|344:96|344:96|288:96,1,209.999993741512,8|0
256,144,17515,6,0,B|256:56|192:36|192:36|184:108|184:108|72:108,1,314.999990612269
128,40,18404,2,0,B|128:188,1,104.999996870756,2|8
256,256,19071,1,8
384,148,19515,1,2
384,64,19737,38,0,B|324:64|292:112|292:112|292:184|292:184|272:160,1,209.999993741512,2|0
256,80,20404,1,0
256,40,20515,1,0
256,80,20626,1,0
172,84,20848,2,0,B|188:136|188:136|160:184|160:184,1,104.999996870756,2|0
80,192,21293,5,8
256,368,21737,1,8
432,192,22182,1,8
256,16,22626,1,8
256,100,22848,37,0
256,140,22959,1,0
256,184,23071,1,0
256,224,23182,1,0
256,264,23293,1,8
176,236,23515,6,0,B|176:132|176:132|140:132|104:108|104:64,1,209.999993741512
171,132,24182,2,0,B|68:148,2,104.999996870756,0|0|8
92,228,24848,1,0
64,260,24959,1,0
52,300,25071,1,2
136,296,25293,2,0,B|184:320,1,52.4999984353781,0|2
204,236,25626,2,0,B|256:236,1,52.4999984353781,0|2
236,156,25959,2,0,B|328:100,1,104.999996870756,2|0
400,60,26404,37,0
412,100,26515,1,0
428,140,26626,1,0
392,160,26737,1,0
356,180,26848,1,2
432,212,27071,6,0,B|492:188|496:128,2,104.999996870756
356,248,27737,2,0,B|252:304,1,104.999996870756
256,212,28182,2,0,B|256:160|220:100,1,104.999996870756,2|8
184,224,28737,1,0
184,264,28848,1,0
108,228,29071,2,0,B|108:136|108:136|64:84|64:20,2,209.999993741512,2|8|0
184,188,30182,38,0,B|184:132|184:132|224:96|224:96|224:48|180:8,1,209.999993741512,2|0
176,92,30848,2,0,B|220:128|220:128|324:128,1,157.499995306134,0|2
300,92,31293,2,0,B|276:152|276:152|276:296,1,209.999993741512,8|0
352,260,31959,1,0
308,192,32182,5,2
224,176,32404,1,0
168,112,32626,1,0
224,176,32848,1,2
308,192,33071,1,8
352,260,33293,1,8
276,112,33737,38,0,B|352:112|376:52|376:52|472:52,1,209.999993741512,2|0
271,52,34404,2,0,B|376:52,1,104.999996870756,8|0
188,52,34848,2,0,B|212:124|212:124|164:184|164:184|164:260,1,209.999993741512
184,160,35515,1,0
184,160,35737,2,0,B|240:192|240:192|304:192,1,104.999996870756,8|0
256,272,36182,1,0
256,312,36293,1,2
256,352,36404,1,0
340,320,36626,6,0,B|380:280,1,52.4999984353781,2|0
328,216,36959,2,0,B|340:160,1,52.4999984353781,2|8
256,120,37293,2,0,B|256:8,1,104.999996870756,2|0
231,193,37737,38,0,B|256:172|256:172|256:100,1,104.999996870756
192,136,38182,2,0,B|168:152|168:152|168:256,1,104.999996870756,2|0
84,232,38626,2,0,B|100:288|164:320|212:320|212:320|256:320,1,209.999993741512
176,348,39293,2,0,B|200:284|256:260|256:260|256:156,1,209.999993741512,8|0
256,88,39959,1,8
172,108,40182,2,0,B|256:172,1,104.999996870756
196,232,40626,5,8
316,232,40848,1,0
392,192,41071,2,0,B|428:136|416:84|416:84|432:48|432:48|404:20|404:20|388:20,1,209.999993741512
327,150,41737,2,0,B|372:144|416:96,1,104.999996870756,0|2
256,196,42182,2,0,B|256:288,1,52.4999984353781
256,292,42404,2,0,B|256:348,1,52.4999984353781
256,384,42626,1,0
180,348,42848,38,0,B|180:272|180:272|180:188|136:144,1,209.999993741512
112,228,43515,2,0,B|204:160,1,104.999996870756,2|0
256,8,44182,1,8
256,92,44404,2,0,B|312:76|340:24|340:24|404:24|404:24|404:84,1,209.999993741512,2|0
348,124,45071,2,0,B|312:164|256:172,1,104.999996870756,8|0
328,216,45515,2,0,B|328:272|328:272|280:272|256:316,1,104.999996870756,8|2
196,316,45959,6,0,B|168:324|148:348|148:348|148:288,1,104.999996870756,2|8
208,240,46404,1,0
236,208,46515,1,0
264,176,46626,1,0
292,144,46737,1,0
320,112,46848,1,8
236,100,47071,2,0,B|160:184,1,104.999996870756,2|0
240,140,47515,2,0,B|184:124|120:152,1,104.999996870756,8|0
212,216,47959,37,0
112,244,48182,2,0,B|92:188|56:176|56:176|76:148,1,104.999996870756
112,96,48626,2,0,B|152:52|152:52|212:52|212:52,1,104.999996870756,2|0
260,112,49071,2,0,B|260:180|260:180|316:196|316:196|256:264,1,209.999993741512
372,136,49737,2,0,B|372:184|372:184|316:196,1,104.999996870756
376,52,50182,2,0,B|428:60|444:108|444:108|444:224,1,209.999993741512,2|0
392,292,50848,5,0
256,312,51071,1,0
120,296,51293,1,0
256,280,51515,1,0
320,288,51737,38,0,B|320:244|320:244|288:220|288:220|292:192,1,104.999996870756,2|0
192,288,52404,2,0,B|192:244|192:244|224:220|224:220|220:192,1,104.999996870756,2|0
256,144,53071,2,0,B|256:92,2,52.4999984353781,2|0|0
192,144,53737,2,0,B|144:160|144:160|96:188,1,104.999996870756,0|2
320,144,54404,2,0,B|368:160|368:160|416:188,1,104.999996870756,0|2
440,128,55071,6,0,B|428:68|364:60,1,104.999996870756
72,128,55737,2,0,B|84:68|148:60,1,104.999996870756
256,145,56404,2,0,B|256:40,1,104.999996870756,2|0
256,208,57071,2,0,B|256:288,2,70,2|0|2
112,192,58182,37,8
400,192,58404,1,8
256,116,58626,1,0
256,52,58848,2,0,B|308:60|320:112|320:112|348:112,1,104.999996870756
180,112,59515,6,0,B|192:112|192:112|204:60|256:52,1,104.999996870756,2|0
256,168,60182,2,0,B|256:116,1,52.4999984353781,0|2
256,232,60626,2,0,B|256:284,1,52.4999984353781,0|2
192,304,61071,2,0,B|212:348|256:356|300:348|320:304,1,157.499995306134
284,236,61959,2,0,B|68:236,1,209.999993741512
224,172,63071,2,0,B|440:172,1,209.999993741512,0|8
256,132,64182,37,2
136,192,64404,1,0
256,260,64626,1,2
376,192,64848,1,8
256,72,65071,5,0
256,112,65182,1,0
256,152,65293,1,0
256,192,65404,1,0
256,232,65515,1,0
256,272,65626,1,0
256,308,65737,1,0
188,296,65959,38,0,B|188:224|188:224|156:172|156:172|156:132,1,157.499995306134,4|0
156,100,66404,1,2
88,180,66626,2,0,B|88:108|88:108|88:56|120:28|160:28|184:40,1,209.999993741512,8|8
256,104,67293,2,0,B|256:32,2,52.4999984353781
352,64,67737,2,0,B|368:112|352:148|332:168|300:176|300:176|300:256,1,209.999993741512,8|0
256,344,68404,2,0,B|256:288,2,52.4999984353781
172,284,68848,2,4,B|224:184,1,104.999996870756
256,92,69293,6,0,B|256:36|256:36|324:36|352:80|352:80|400:80,1,209.999993741512,8|0
308,140,69959,2,0,B|308:212|308:212|348:212|384:192|384:192|448:212|448:212,1,209.999993741512,0|8
384,120,70626,2,4,B|384:268,1,104.999996870756,4|4
444,312,71071,38,0,B|384:284|340:316|340:316|288:284,1,157.499995306134,8|0
252,300,71515,1,0
140,332,71737,2,0,B|148:260|200:244|200:244|216:208|216:208|256:192|256:192|260:144,1,209.999993741512,0|8
168,140,72404,2,4,B|256:80,2,104.999996870756,4|4|4
256,212,73071,6,0,B|256:156|316:124|316:124|380:84|380:84|416:88,1,209.999993741512,8|0
316,28,73737,2,0,B|356:184|356:184|412:172,1,209.999993741512,8|0
484,104,74404,2,4,B|496:160|472:212,1,104.999996870756
384,256,74848,1,0
468,316,75071,1,0
372,356,75293,1,0
316,268,75515,1,0
256,120,75737,1,12
256,224,75959,1,0
256,224,76071,1,4
256,224,76182,1,0
256,328,76404,1,0
152,348,76626,38,0,B|116:300|124:232|124:232|152:184|152:184|128:148,1,209.999993741512
188,68,77293,2,8,B|208:20|256:-8|256:-8|308:20|332:72,1,209.999993741512,8|4
260,144,77959,1,4
312,152,78071,1,0
364,144,78182,6,0,B|404:120|420:56|420:56|420:176,1,209.999993741512
496,216,78848,2,0,B|464:264|400:272,1,104.999996870756
340,348,79293,1,0
292,332,79404,1,0
264,296,79515,2,0,B|264:236|220:204|220:204|188:232,2,104.999996870756,4|4|2
160,288,80182,1,0
256,64,87293,38,0,B|256:168,1,104.999996870756,2|0
172,156,87737,1,0
180,196,87848,1,2
192,236,87959,1,0
268,312,88182,1,2
228,320,88293,1,0
188,328,88404,1,0
268,312,88626,5,0
352,316,88848,1,2
340,276,88959,1,0
312,196,89182,1,0
344,168,89293,1,2
408,108,89515,2,0,B|380:60|316:64|316:64|276:112|276:112|240:76,1,209.999993741512,0|2
240,164,90182,38,0,B|152:72,1,104.999996870756,0|2
136,168,90626,1,0
164,200,90737,1,2
192,232,90848,1,0
292,368,91293,5,0
272,332,91404,1,2
248,296,91515,1,0
256,256,91626,1,0
272,216,91737,1,2
284,176,91848,1,0
260,140,91959,1,0
236,108,92071,1,2
244,68,92182,1,0
256,28,92293,1,0
160,112,92626,38,0,B|208:136|272:120|304:80|304:80|368:96,1,209.999993741512,2|8
364,176,93293,1,0
324,260,93515,2,0,B|268:220|256:156,1,104.999996870756,2|0
197,171,93848,2,2,B|200:128|200:128|184:64,1,104.999996870756
256,32,94293,1,0
256,32,94404,6,0,B|256:104|256:104|308:116|308:116|356:104|400:124,1,209.999993741512,2|0
320,44,95071,2,0,B|344:160,1,104.999996870756
396,56,95515,2,0,B|432:56|464:88|452:136,1,104.999996870756,0|2
328,216,95959,1,2
412,200,96182,1,0
300,296,96404,1,0
216,304,96626,1,2
152,360,96848,38,0,B|128:304|160:256|144:244|132:260|148:272|204:232|204:232|216:188,1,209.999993741512
132,172,97515,2,0,B|80:120,1,52.4999984353781,0|0
68,104,97737,1,2
136,72,97959,6,0,B|184:120|184:120|228:136|264:112|264:112|320:132,1,209.999993741512,8|0
288,48,98626,1,0
328,60,98737,1,0
368,76,98848,1,2
408,92,98959,1,0
448,108,99071,1,8
432,28,99293,38,0,B|392:92|408:176|408:176|424:240,1,209.999993741512,0|8
340,208,99959,1,0
380,196,100071,1,0
420,192,100182,1,0
460,192,100293,1,0
500,200,100404,1,8
424,232,100626,6,0,B|396:140|300:120|300:120|228:108,1,209.999993741512,0|2
252,192,101293,38,0,B|308:120|308:120|300:48|300:48|356:24,1,209.999993741512,2|0
372,108,101959,1,0
328,108,102071,1,0
288,120,102182,1,0
248,104,102293,1,0
208,100,102404,1,8
264,36,102626,6,0,B|232:104|232:104|232:132,2,104.999996870756,2|0|2
180,32,103293,2,0,B|124:48|120:108,1,104.999996870756,8|2
40,136,103737,2,0,B|72:184|72:184|128:184,1,104.999996870756,0|8
132,268,104182,1,2
164,240,104293,1,0
184,204,104404,1,0
224,204,104515,1,0
265,204,104626,1,4
224,276,104848,38,8,B|292:276|292:276|320:304,1,104.999996870756,2|8
396,336,105293,2,0,B|432:276|408:208|408:208|408:136|408:136|432:136,1,209.999993741512
472,196,105959,2,0,B|424:216|424:216|344:216,1,104.999996870756,8|0
344,136,106404,2,0,B|308:84|332:16,2,104.999996870756,8|0|0
388,64,107071,2,0,B|268:112,1,104.999996870756,0|8
216,68,107515,5,8
188,100,107626,1,0
172,140,107737,1,0
212,152,107848,1,0
252,172,107959,1,8
276,204,108071,1,2
292,244,108182,1,4
216,208,108404,38,0,B|248:160|320:140,1,104.999996870756
300,64,108848,1,0
368,116,109071,2,0,B|392:176|352:212|352:212|380:272|380:272|356:316,1,209.999993741512
440,272,109737,2,0,B|348:212,1,104.999996870756,2|0
284,272,110182,1,0
244,272,110293,1,2
204,260,110404,1,0
212,344,110626,6,0,B|244:272|244:272|244:240,1,104.999996870756
168,212,111071,2,0,B|232:188|232:188|236:144,1,104.999996870756,2|0
244,68,111515,1,8
104,144,111737,1,0
124,108,111848,1,0
160,88,111959,1,0
84,228,112182,38,0,B|56:304|56:304|80:340|124:356|180:344,1,209.999993741512,2|0
144,268,112848,2,0,B|192:224|244:272,1,104.999996870756
240,268,113293,2,0,B|288:224|340:272,1,104.999996870756,0|2
334,266,113737,2,0,B|376:172,1,104.999996870756,0|8
300,200,114182,2,0,B|352:228|352:228|420:232|452:208|460:144,1,209.999993741512
372,152,114848,1,0
336,132,114959,1,0
300,112,115071,1,0
268,140,115182,1,0
236,168,115293,1,8
228,60,115515,1,8
228,60,115737,6,0,B|96:116,1,104.999996870756
132,184,116182,2,0,B|132:100|132:100|88:80,1,104.999996870756
64,160,116626,2,0,B|64:240|116:244,1,104.999996870756
32,272,117071,2,0,B|64:220|132:184|132:184|132:184,1,104.999996870756,2|0
132,184,117515,2,0,B|240:184,1,104.999996870756
260,200,117959,2,0,B|312:168|376:196,1,104.999996870756,8|0
288,228,118404,37,2
260,200,118515,1,0
248,160,118626,1,0
248,120,118737,1,0
264,80,118848,1,4
180,80,119071,6,0,B|240:80|240:80|264:32,2,104.999996870756,0|0|8
204,160,119737,1,0
248,160,119848,1,2
289,160,119959,1,0
312,240,120182,1,0
271,240,120293,1,8
227,240,120404,1,0
204,160,120626,1,0
248,160,120737,1,0
289,160,120848,1,8
372,160,121071,38,0,B|356:92|356:92|320:76,1,104.999996870756
240,88,121515,2,0,B|308:72|308:72|316:20,1,104.999996870756
232,20,121959,1,0
192,32,122071,1,0
164,64,122182,1,0
156,104,122293,1,0
172,144,122404,1,0
92,168,122626,1,2
60,240,122848,6,0,B|136:240|136:240|168:220,1,104.999996870756
452,144,123515,2,0,B|376:144|376:144|344:164,1,104.999996870756,0|2
404,216,124182,2,0,B|332:296,1,104.999996870756
108,168,124848,2,0,B|180:88,1,104.999996870756,0|2
256,68,125515,37,0
256,316,125959,1,2
184,292,126182,2,0,B|128:280|108:220,1,104.999996870756,0|2
156,120,126848,2,0,B|168:64|228:44,1,104.999996870756
328,92,127515,2,0,B|384:104|404:164,1,104.999996870756,0|2
356,264,128182,2,0,B|344:320|284:340,1,104.999996870756
256,268,128848,6,0,B|256:156,1,104.999996870756
120,192,129515,1,8
392,192,129737,1,8
256,124,129959,2,0,B|256:56|256:56|292:24,1,104.999996870756
256,260,130626,2,0,B|256:328|256:328|220:360,1,104.999996870756,0|2
200,280,131293,2,0,B|256:304|256:304|316:304,1,104.999996870756
312,104,131959,2,0,B|256:80|256:80|196:80,1,104.999996870756,0|2
144,40,132626,38,0,B|56:96,1,104.999996870756
368,344,133293,2,0,B|456:288,1,104.999996870756,0|2
360,192,133959,1,0
256,192,134182,1,0
152,192,134404,1,8
256,312,134626,1,0
256,232,134848,1,0
256,192,134959,1,0
256,152,135071,1,8
256,72,135293,1,8
320,156,135737,5,0
192,156,135959,1,0
256,232,136182,1,0
256,32,136404,1,0
256,60,136515,1,0
256,88,136626,1,0
256,116,136737,1,8
256,144,136848,1,0
256,172,136959,1,0
256,200,137071,1,4
200,268,137293,38,0,B|224:320|292:320|312:264,1,140,8|0
348,196,137737,1,0
328,232,137848,1,2
308,268,137959,1,0
392,264,138182,2,0,B|328:232|328:232|284:176,1,140,8|0
256,100,138626,1,0
256,60,138737,1,2
256,20,138848,1,0
184,60,139071,2,0,B|256:100|256:100|316:100|352:144|352:144|404:144|436:188,1,280
356,220,139737,5,2
316,212,139848,1,0
284,184,139959,1,4
244,176,140071,1,0
204,188,140182,1,4
248,260,140404,2,0,B|204:184|204:184|152:196,1,140,8|0
184,276,140848,2,0,B|228:220|240:132,1,140
156,124,141293,1,0
168,164,141404,1,0
204,188,141515,1,0
256,44,141737,37,4
256,340,141959,1,4
312,280,142182,6,0,B|344:260|344:224|344:224|384:220|384:220|408:192,1,140,8|0
408,280,142626,2,0,B|348:144,1,140,2|0
384,76,143071,37,2
344,60,143182,1,0
304,64,143293,1,0
268,84,143404,1,0
240,116,143515,1,8
224,156,143626,1,0
196,188,143737,1,0
156,192,143848,1,0
116,184,143959,1,4
88,152,144071,1,0
76,112,144182,1,4
160,120,144404,6,0,B|156:192|156:192|168:264|168:264,1,140,8|2
84,248,144848,2,0,B|160:216|228:240|228:240|304:208|304:140,1,280,0|4
224,164,145515,1,4
172,232,145737,1,0
176,272,145848,1,2
200,308,145960,1,0
256,372,146182,38,0,B|256:316|256:316|296:296|296:296|320:252,1,140,8|0
368,328,146626,1,0
412,256,146848,1,0
424,216,146960,1,0
432,176,147071,1,4
432,136,147182,1,0
424,96,147293,1,4
492,144,147515,6,0,B|432:176|432:176|360:176|332:208,1,140,8|0
280,212,147960,2,0,B|272:128|340:84,2,140,2|8|0
280,212,148626,2,0,B|224:268|224:268|164:268,1,140,8|0
212,200,149071,2,0,B|224:268|224:268|292:320,1,140
364,320,149515,1,0
396,296,149626,1,0
412,256,149737,1,0
468,192,149960,37,8
256,84,150182,5,8
44,192,150404,37,8
256,308,150626,5,8
256,84,150848,1,0
256,304,151071,1,4
256,40,151293,1,4
256,144,151515,1,0
268,192,151626,1,2
256,240,151737,1,0
192,164,151960,38,0,B|268:192|268:192|340:192,1,140,8|0
404,128,152404,2,0,B|432:164|432:220|408:256|408:256|436:256,2,140,2|0|0
456,212,153071,2,0,B|388:200|388:200|332:140,1,140
348,244,153515,1,0
312,208,153626,1,0
268,192,153737,1,8
256,96,153960,1,2
208,112,154071,1,0
176,148,154182,1,4
164,196,154293,1,0
176,244,154404,1,4
96,184,154626,6,0,B|104:96|176:56,1,140
80,112,155071,2,0,B|176:148|176:148|208:112,1,140,8|0
256,40,155515,2,0,B|256:188,1,140,2|0
256,276,155960,1,4
256,40,156182,1,4
256,136,156404,38,0,B|256:152|256:152|248:160|248:160|264:160|264:160|256:168|256:168|256:144|256:216|316:216,1,140
360,132,156848,2,0,B|224:232,1,140
168,156,157293,1,2
168,204,157404,1,0
180,252,157515,1,0
136,228,157626,1,0
148,276,157737,1,8
180,312,157848,1,0
132,300,157960,1,4
168,332,158071,1,0
216,348,158182,1,4
256,260,158404,5,4
256,164,158626,2,0,B|264:116|324:100,1,70,2|0
340,92,158848,2,0,B|340:124|340:124|368:168,1,70
340,200,159071,2,0,B|360:156|360:156|400:156,1,70,0|0
404,200,159293,2,0,B|372:268,1,70,8|0
400,304,159515,2,0,B|372:264|312:272,1,70
292,276,159737,1,4
256,368,159960,1,4
256,268,160182,38,0,B|256:128,1,140
303,277,160626,2,0,B|272:272|256:244|256:212|256:212|256:160,1,140
172,196,161071,1,8
204,156,161182,1,0
236,124,161293,1,4
236,80,161404,1,0
256,40,161515,1,4
336,108,161737,6,0,B|336:184|412:232|412:232|444:296|444:296|416:348,1,280
352,272,162404,2,0,B|424:260|472:192,1,140
436,104,162848,2,4,B|408:28|324:32,1,140
348,128,163293,1,0
260,172,163515,1,0
256,96,163737,1,4
212,212,163960,1,0
160,128,164182,1,4
144,224,164404,2,0,B|168:300|256:348|356:292|364:220,1,280,0|4
256,192,165071,1,0
84,192,165293,6,0,B|76:264|120:352|192:392|304:456|464:384|536:236|492:76|384:-12|280:-36|132:8|92:132,2,980,4|0|0
114,88,168626,1,2
132,136,168737,1,0
176,160,168848,1,0
224,160,168960,1,0
268,136,169071,1,8
256,232,169293,5,0
244,280,169404,1,0
232,328,169515,1,8
280,340,169626,1,0
328,348,169737,1,0
352,252,169960,38,0,B|412:192,1,70,8|0
352,208,170182,2,0,B|436:176,1,70
372,160,170404,2,0,B|452:172,1,70
412,132,170626,1,0
364,48,170848,5,2
328,88,170960,1,0
280,104,171071,1,0
272,152,171182,1,0
264,200,171293,1,8
224,168,171404,1,0
192,204,171515,1,4
240,120,171737,1,4
148,148,171960,2,0,B|192:204|192:204|180:308,1,140,2|8
84,276,172404,38,0,B|252:272,2,140
176,304,173071,1,8
256,248,173293,1,0
336,304,173515,2,0,B|380:300|400:340|400:340|468:352,2,140,0|0|8
400,228,174182,2,0,B|444:284|444:284|512:296,1,140
476,212,174626,2,0,B|412:128,1,70
400,120,174848,1,8
304,140,175071,1,0
256,224,175293,6,0,B|256:320|256:320|308:356,2,140,0|0|8
184,292,175960,2,0,B|344:268,1,140,8|0
224,264,176404,1,0
172,180,176626,1,8
220,264,176848,1,0
236,168,177071,1,0
228,264,177293,1,8
296,192,177515,1,0
232,264,177737,1,0
256,192,178182,12,0,179515
256,192,179737,5,0
256,360,191960,5,8
44,48,192404,1,8
472,48,192848,1,8
256,24,193293,1,8
256,360,193737,1,8
472,336,194182,1,8
44,336,194626,1,8
256,24,195071,1,8
129,192,195515,37,0
364,32,195960,1,0
364,354,196404,1,0
382,192,196848,1,0
129,192,197293,1,0
148,354,197737,1,0
148,32,198182,1,0
382,192,198626,1,0
256,192,199071,21,2
256,192,199515,1,2
256,192,199960,1,2
256,192,200404,1,2
256,192,200848,1,2
256,192,201293,5,0
256,192,201737,1,0
256,192,202182,1,0
256,192,202626,1,0
256,192,203071,1,0
