osu file format v9

[General]
AudioFilename: Lon & Koge Inu - Do Re Mi Fa Rondo.mp3
AudioLeadIn: 0
PreviewTime: -1
Countdown: 0
SampleSet: Soft
StackLeniency: 0.8
Mode: 0
LetterboxInBreaks: 0

[Editor]
Bookmarks: 13520,25040,28880,32720,48080,57680,65360,74960,84560,88400,92240,107600,119120,126800,136400,142160,157520,165200,174800,182480,190160,195440
DistanceSpacing: 1.4
BeatDivisor: 6
GridSize: 4

[Metadata]
Title:Do Re Mi Fa Rondo
Artist:Lon & Koge Inu
Creator:Fuuko
Version:Hard
Source:40mP
Tags:Hatsune Miku VOCALOID Cover Lissete

[Difficulty]
HPDrainRate:6
CircleSize:4
OverallDifficulty:7
ApproachRate:8
SliderMultiplier:1.6
SliderTickRate:1

[Events]
//Background and Video events
0,0,"Background.jpg"
Video,0,"kewt video is kewt.avi"
//Break Periods
//Storyboard Layer 0 (Background)
//Storyboard Layer 1 (Fail)
//Storyboard Layer 2 (Pass)
//Storyboard Layer 3 (Foreground)
//Storyboard Sound Samples
//Background Colour Transformations
3,100,163,162,255

[TimingPoints]
5840,480,4,2,1,60,1,0
57680,-100,4,2,1,60,0,1
73039,-100,4,2,1,60,0,0
73040,-100,4,2,1,60,0,1
74960,-100,4,2,1,60,0,0

[Colours]
Combo1 : 252,114,117
Combo2 : 255,165,121
Combo3 : 255,255,119

[HitObjects]
436,36,5840,2,0,B|480:76|456:140,1,106.666666666667
384,148,6320,2,0,B|344:204|400:260,1,106.666666666667
432,308,6800,2,0,B|360:360|276:304,1,160
192,80,7760,6,0,B|160:28,2,53.3333333333333
136,132,8240,2,0,B|88:100,2,53.3333333333333
148,204,8720,2,0,B|144:312|28:304,1,160
56,80,9680,6,0,B|44:20,2,53.3333333333333
132,76,10160,2,0,B|120:8,2,53.3333333333333
208,80,10640,2,0,B|296:104|292:208,1,160
460,340,11440,5,0
460,340,11600,2,0,B|500:292|456:228,1,106.666666666667
396,280,12080,2,0,B|368:224|420:164,1,106.666666666667
452,108,12560,5,0
380,84,12720,1,0
308,64,12880,1,0
236,44,13040,1,0
144,156,13360,1,0
144,156,13520,6,0,B|152:212|136:268,1,106.666666666667
48,292,14000,2,0,B|40:236|56:180,1,106.666666666667
144,156,14480,2,0,B|208:96|308:120,1,160
488,232,15440,6,0,B|504:288,2,53.3333333333333
412,272,15920,2,0,B|428:328,2,53.3333333333333,0|0|0
388,188,16400,2,0,B|340:216|340:216|336:268|272:288,1,160
28,328,17360,6,0,B|8:268,2,53.3333333333333
108,300,17840,2,0,B|88:232,2,53.3333333333333
176,248,18320,2,0,B|228:232|216:148|256:104,1,160
352,40,19120,5,2
352,40,19280,1,0
376,160,19600,1,0
376,160,19760,1,0
308,256,20080,1,0
308,256,20240,2,0,B|256:296|256:296|260:348|224:384,2,160
175,311,21520,6,0,B|136:276,3,53.3333333333333
136,276,22160,2,0,B|158:202|134:118,1,160
32,120,22960,1,0
32,120,23120,2,0,B|9:193|33:277,2,160
32,120,24560,5,0
196,64,25040,6,0,B|124:48|100:120,1,106.666666666667
256,120,25520,2,0,B|332:120|336:36,1,106.666666666667
232,192,26000,2,0,B|164:208|172:276,1,106.666666666667
300,224,26480,2,0,B|360:244|400:184,1,106.666666666667
428,96,26960,6,0,B|444:24,2,53.3333333333333
344,96,27440,2,0,B|328:28,2,53.3333333333333
280,144,27920,1,4
280,144,28400,1,4
248,344,28880,6,0,B|261:290|245:238,1,106.666666666667
144,240,29360,2,0,B|130:293|146:345,1,106.666666666667
248,344,29840,2,0,B|302:357|354:341,1,106.666666666667
350,237,30320,2,0,B|296:224|244:240,1,106.666666666667
144,240,30800,6,0,B|156:128,1,106.666666666667
56,112,31280,2,0,B|44:218,1,106.666666666667
144,240,31760,1,4
144,240,32240,1,4
263,37,32720,6,0,B|283:97|232:132,1,106.666666666667
124,200,33200,2,0,B|108:136|159:109,1,106.666666666667
232,132,33680,2,0,B|272:180|336:140,1,106.666666666667
460,76,34160,2,0,B|412:44|360:72,1,106.666666666667
359,72,34640,5,0
284,200,34960,1,0
284,200,35120,1,0
136,224,35440,1,0
136,224,35600,2,0,B|44:224|32:328,1,160
220,340,36400,6,0,B|288:328,1,53.3333333333333
388,228,36880,2,0,B|336:240,1,53.3333333333333
188,180,37360,2,0,B|260:168,1,53.3333333333333
356,68,37840,2,0,B|304:80,1,53.3333333333333
132,44,38320,2,0,B|200:28,1,53.3333333333333
356,68,38800,5,0
364,144,38960,1,0
420,196,39120,1,0
420,272,39280,1,0
476,320,39440,1,0
476,320,39920,1,0
328,340,40240,5,0
328,340,40400,2,0,B|272:300|212:336,1,106.666666666667
152,336,40880,2,0,B|80:332|64:272,1,106.666666666667
72,208,41360,2,0,B|108:152|68:100,1,106.666666666667
73,107,41840,1,0
252,44,42160,5,0
252,44,42320,2,0,B|312:68|300:140,1,106.666666666667
276,200,42800,2,0,B|288:264|364:256,1,106.666666666667
396,320,43280,2,0,B|460:320|488:264,1,106.666666666667
484,270,43680,1,0
484,270,43760,1,0
440,84,44080,5,0
440,84,44240,1,0
308,152,44560,1,0
308,152,44720,1,0
168,100,45040,1,0
168,100,45200,1,0
32,160,45520,1,0
32,160,45680,2,0,B|4:220|48:272,1,106.666666666667
104,208,46160,6,0,B|160:176|204:232|268:208,1,160
436,72,47120,1,0
468,140,47280,1,0
472,216,47440,1,0
448,288,47600,1,0
312,352,47920,5,0
312,352,48080,2,0,B|188:352,1,106.666666666667
124,288,48560,2,0,B|8:288,1,106.666666666667
209,232,49040,1,0
264,348,49360,1,0
264,348,49520,1,0
124,360,49840,5,0
124,360,50000,2,0,B|4:360,1,106.666666666667
56,280,50480,2,0,B|56:160,1,106.666666666667
88,140,51760,5,0
88,140,51920,1,0
29,45,52240,1,0
29,45,52400,2,0,B|145:45,1,106.666666666667
189,108,52880,5,0
213,29,53040,1,0
301,29,53200,1,0
324,108,53360,1,0
376,228,53680,5,0
376,228,53840,2,0,B|340:284|340:284|352:320|324:396,1,160
180,375,54640,1,0
180,375,54800,2,0,B|160:320|172:284|172:284|136:228,1,160
256,164,55600,1,0
256,164,55760,2,0,B|244:236|278:262|256:328,2,160
256,164,57200,1,0
52,68,57680,6,0,B|-4:40,2,53.3333333333333
120,104,58160,2,0,B|156:168|120:216,1,106.666666666667
64,248,58640,2,0,B|48:316|128:344,1,106.666666666667
180,328,59120,1,0
180,328,59440,1,0
212,260,59600,6,0,B|164:208,2,53.3333333333333
288,264,60080,2,0,B|324:212|392:244,1,106.666666666667
416,308,60560,2,0,B|468:344|520:288,1,106.666666666667
508,220,61040,1,0
508,220,61360,1,0
476,152,61520,5,0
404,132,61680,1,0
332,144,61840,1,0
260,132,62000,2,0,B|148:124,1,106.666666666667
108,200,62480,2,0,B|214:207,1,106.666666666667
244,276,62960,1,0
416,304,63280,5,0
416,304,63440,1,0
444,172,63760,1,0
444,172,63920,1,0
336,68,64240,1,0
272,108,64400,1,0
208,144,64560,1,0
144,180,64720,1,0
80,216,64880,1,0
192,320,65200,5,0
192,320,65360,2,0,B|204:352|204:392,2,53.3333333333333
256,260,65840,2,0,B|312:248|376:252,1,106.666666666667
448,276,66320,1,0
448,276,66800,1,0
448,276,67280,6,0,B|460:348,2,53.3333333333333
496,204,67760,2,0,B|498:139|477:81,1,106.666666666667
408,152,68240,2,0,B|392:92|358:38,1,106.666666666667
284,32,68720,1,0
284,32,69200,6,0,B|216:40,2,53.3333333333333
272,116,69680,2,0,B|272:228,1,106.666666666667
148,308,70960,1,0
148,308,71120,5,0
232,272,71440,1,0
232,272,71600,2,0,B|338:270,1,106.666666666667
256,192,73040,12,0,74960
