osu file format v13

[General]
AudioFilename: 01 Lolicon Pantsu Rape.mp3
AudioLeadIn: 0
PreviewTime: 112033
Countdown: 1
SampleSet: None
StackLeniency: 1
Mode: 2
LetterboxInBreaks: 1
WidescreenStoryboard: 1

[Editor]
Bookmarks: 15420
DistanceSpacing: 2
BeatDivisor: 4
GridSize: 32
TimelineZoom: 4.15

[Metadata]
Title:Lolicon Pantsu Fun
TitleUnicode:Lolicon Pantsu Fun
Artist:Lolishit
ArtistUnicode:Lolishit
Creator:Suzuki
Version:SuzuDose
Source:Loli Juice
Tags:
BeatmapID:581477
BeatmapSetID:253239

[Difficulty]
HPDrainRate:1.5
CircleSize:4
OverallDifficulty:7
ApproachRate:9
SliderMultiplier:1.00000000596047
SliderTickRate:1

[Events]
//Background and Video events
0,0,"vlcsnap-00002.jpg",0,0
//Break Periods
//Storyboard Layer 0 (Background)
//Storyboard Layer 1 (Fail)
//Storyboard Layer 2 (Pass)
//Storyboard Layer 3 (Foreground)
//Storyboard Sound Samples

[TimingPoints]
28.1079789742323,392.156862745098,4,1,0,23,1,0
15420,319.148936170213,4,1,0,23,1,1
15420,-50,4,1,0,23,0,1

[Colours]
Combo1 : 204,151,3
Combo2 : 159,176,207
Combo3 : 148,199,60
Combo4 : 239,116,95
Combo5 : 181,126,204
Combo6 : 98,234,218
Combo7 : 88,0,189
Combo8 : 111,209,99

[HitObjects]
480,32,28,6,0,B|32:32|32:64|32:128|480:128|480:128|480:64,1,850.000005066391
32,32,3557,5,0,0:0:0:0:
480,32,3753,2,0,B|32:32|32:64|32:128|480:128|480:128|480:64,1,850.000005066391
32,32,7283,5,0,0:0:0:0:
480,32,7479,6,0,B|32:32|32:64|32:128|480:128|480:128|480:64,1,850.000005066391
32,32,11008,2,0,L|32:128,1,75.0000004470345
256,32,11400,1,0,0:0:0:0:
480,32,11498,6,0,L|480:128,1,75.0000004470345
256,32,11890,5,0,0:0:0:0:
32,32,11988,6,0,L|32:128,1,75.0000004470345
480,32,12479,6,0,L|480:128,1,75.0000004470345
256,32,12871,1,0,0:0:0:0:
32,32,12969,6,0,L|32:128,1,75.0000004470345
256,32,13361,1,0,0:0:0:0:
480,32,13459,6,0,L|480:128,1,75.0000004470345
256,32,13851,1,0,0:0:0:0:
384,32,14047,1,0,0:0:0:0:
128,32,14243,1,0,0:0:0:0:
32,32,14439,1,0,0:0:0:0:
256,32,14635,5,0,0:0:0:0:
384,32,14733,2,0,L|384:128,1,75.0000004470345
128,32,15126,2,0,L|128:128,1,75.0000004470345
256,32,15498,5,0,0:0:0:0:
352,32,15656,1,0,0:0:0:0:
160,32,15814,1,0,0:0:0:0:
256,32,15972,1,0,0:0:0:0:
416,32,16130,5,0,0:0:0:0:
96,32,16288,1,0,0:0:0:0:
256,32,16604,5,0,0:0:0:0:
416,32,16762,2,0,L|416:128,1,50.000000298023
96,32,16998,2,0,L|96:96,1,50.000000298023
256,32,17235,1,0,0:0:0:0:
480,32,17393,6,0,L|480:160,1,100.000000596046
32,32,17709,2,0,L|32:160,1,100.000000596046
288,32,18104,1,0,0:0:0:0:
320,32,18183,1,0,0:0:0:0:
352,32,18262,1,0,0:0:0:0:
384,32,18341,1,0,0:0:0:0:
416,32,18420,1,0,0:0:0:0:
448,32,18498,1,0,0:0:0:0:
480,32,18577,1,0,0:0:0:0:
512,32,18656,1,0,0:0:0:0:
512,32,18735,1,0,0:0:0:0:
512,32,18814,1,0,0:0:0:0:
512,32,18893,1,0,0:0:0:0:
512,32,18972,1,0,0:0:0:0:
512,32,19051,2,0,L|608:32,1,50.000000298023
0,32,19209,5,0,0:0:0:0:
0,32,19288,1,0,0:0:0:0:
0,32,19367,1,0,0:0:0:0:
0,32,19446,1,0,0:0:0:0:
0,32,19525,1,0,0:0:0:0:
0,32,19604,1,0,0:0:0:0:
512,32,19683,5,0,0:0:0:0:
512,32,19762,1,0,0:0:0:0:
512,32,19841,1,0,0:0:0:0:
512,32,19920,1,0,0:0:0:0:
512,32,19998,1,0,0:0:0:0:
512,32,20077,1,0,0:0:0:0:
0,32,20156,5,0,0:0:0:0:
0,32,20235,1,0,0:0:0:0:
0,32,20314,1,0,0:0:0:0:
0,32,20393,1,0,0:0:0:0:
0,32,20472,1,0,0:0:0:0:
0,32,20551,1,0,0:0:0:0:
512,32,20630,5,0,0:0:0:0:
512,32,20709,1,0,0:0:0:0:
512,32,20788,1,0,0:0:0:0:
512,32,20867,1,0,0:0:0:0:
512,32,20946,1,0,0:0:0:0:
512,32,21025,1,0,0:0:0:0:
512,32,21104,2,0,L|0:32,1,500.00000298023
512,32,22051,5,0,0:0:0:0:
448,32,22130,1,0,0:0:0:0:
512,32,22209,1,0,0:0:0:0:
448,32,22288,1,0,0:0:0:0:
512,32,22367,1,0,0:0:0:0:
448,32,22446,1,0,0:0:0:0:
0,32,22525,5,0,0:0:0:0:
64,32,22604,1,0,0:0:0:0:
0,32,22683,1,0,0:0:0:0:
64,32,22762,1,0,0:0:0:0:
0,32,22841,1,0,0:0:0:0:
256,32,22998,6,0,L|256:352,1,300.000001788138
512,32,23551,1,0,0:0:0:0:
0,32,23709,1,0,0:0:0:0:
512,32,23867,1,0,0:0:0:0:
0,32,24025,1,0,0:0:0:0:
416,32,24183,1,0,0:0:0:0:
128,32,24341,1,0,0:0:0:0:
416,32,24498,1,0,0:0:0:0:
128,32,24656,1,0,0:0:0:0:
256,32,24814,1,0,0:0:0:0:
352,32,24972,1,0,0:0:0:0:
256,32,25130,1,0,0:0:0:0:
160,32,25288,1,0,0:0:0:0:
256,32,25446,1,0,0:0:0:0:
256,32,25604,5,0,0:0:0:0:
256,32,25683,1,0,0:0:0:0:
256,32,25762,1,0,0:0:0:0:
256,32,25841,1,0,0:0:0:0:
256,32,25920,1,0,0:0:0:0:
256,192,26077,12,0,29393,0:0:0:0:
352,32,29551,5,0,0:0:0:0:
352,32,29630,1,0,0:0:0:0:
352,32,29709,1,0,0:0:0:0:
352,32,29788,1,0,0:0:0:0:
352,32,29867,1,0,0:0:0:0:
352,32,29946,1,0,0:0:0:0:
160,32,30025,5,0,0:0:0:0:
160,32,30104,1,0,0:0:0:0:
160,32,30183,1,0,0:0:0:0:
160,32,30262,1,0,0:0:0:0:
160,32,30341,1,0,0:0:0:0:
160,32,30420,1,0,0:0:0:0:
256,32,30499,5,0,0:0:0:0:
320,32,30578,1,0,0:0:0:0:
384,32,30657,1,0,0:0:0:0:
448,32,30736,1,0,0:0:0:0:
512,32,30815,1,0,0:0:0:0:
448,32,30894,1,0,0:0:0:0:
384,32,30973,1,0,0:0:0:0:
320,32,31051,1,0,0:0:0:0:
256,32,31130,1,0,0:0:0:0:
192,32,31209,5,0,0:0:0:0:
128,32,31288,1,0,0:0:0:0:
64,32,31367,1,0,0:0:0:0:
0,32,31446,1,0,0:0:0:0:
0,32,31525,1,0,0:0:0:0:
64,32,31604,1,0,0:0:0:0:
128,32,31683,1,0,0:0:0:0:
192,32,31762,1,0,0:0:0:0:
256,32,31841,1,0,0:0:0:0:
352,32,31920,5,0,0:0:0:0:
448,32,31999,1,0,0:0:0:0:
512,32,32078,1,0,0:0:0:0:
448,32,32157,1,0,0:0:0:0:
352,32,32236,1,0,0:0:0:0:
256,32,32315,1,0,0:0:0:0:
160,32,32394,1,0,0:0:0:0:
64,32,32473,1,0,0:0:0:0:
0,32,32551,1,0,0:0:0:0:
64,32,32630,1,0,0:0:0:0:
160,32,32709,1,0,0:0:0:0:
256,32,32788,1,0,0:0:0:0:
384,32,32867,5,0,0:0:0:0:
512,32,32946,1,0,0:0:0:0:
384,32,33025,1,0,0:0:0:0:
256,32,33104,1,0,0:0:0:0:
128,32,33183,1,0,0:0:0:0:
0,32,33262,1,0,0:0:0:0:
128,32,33341,1,0,0:0:0:0:
256,32,33420,1,0,0:0:0:0:
256,32,33577,6,0,L|256:160,1,100.000000596046
256,32,33814,1,0,0:0:0:0:
512,32,33893,2,0,L|512:160,1,100.000000596046
512,32,34130,1,0,0:0:0:0:
256,32,34209,1,0,0:0:0:0:
0,32,34288,2,0,L|0:160,1,100.000000596046
0,32,34525,1,0,0:0:0:0:
256,32,34604,6,0,L|256:160,1,100.000000596046
256,32,34841,1,0,0:0:0:0:
512,32,34920,2,0,L|512:160,1,100.000000596046
512,32,35156,1,0,0:0:0:0:
256,32,35235,1,0,0:0:0:0:
0,32,35314,2,0,L|0:160,1,100.000000596046
0,32,35551,1,0,0:0:0:0:
256,32,35630,1,0,0:0:0:0:
320,32,35709,5,0,0:0:0:0:
320,32,35788,1,0,0:0:0:0:
192,32,35867,1,0,0:0:0:0:
192,32,35946,1,0,0:0:0:0:
352,32,36025,1,0,0:0:0:0:
352,32,36104,1,0,0:0:0:0:
160,32,36183,1,0,0:0:0:0:
160,32,36262,1,0,0:0:0:0:
384,32,36341,1,0,0:0:0:0:
384,32,36420,1,0,0:0:0:0:
128,32,36498,1,0,0:0:0:0:
128,32,36577,1,0,0:0:0:0:
416,32,36656,1,0,0:0:0:0:
416,32,36735,1,0,0:0:0:0:
96,32,36814,1,0,0:0:0:0:
96,32,36893,1,0,0:0:0:0:
448,32,36972,1,0,0:0:0:0:
448,32,37051,1,0,0:0:0:0:
64,32,37130,1,0,0:0:0:0:
64,32,37209,1,0,0:0:0:0:
480,32,37288,1,0,0:0:0:0:
480,32,37367,1,0,0:0:0:0:
32,32,37446,1,0,0:0:0:0:
32,32,37525,1,0,0:0:0:0:
512,32,37604,1,0,0:0:0:0:
512,32,37683,1,0,0:0:0:0:
0,32,37762,1,0,0:0:0:0:
0,32,37841,1,0,0:0:0:0:
256,32,37920,5,0,0:0:0:0:
288,32,37998,1,0,0:0:0:0:
224,32,38077,1,0,0:0:0:0:
256,32,38156,1,0,0:0:0:0:
512,32,38235,2,0,L|512:160,1,100.000000596046
480,32,38472,1,0,0:0:0:0:
480,32,38551,1,0,0:0:0:0:
448,32,38630,2,0,L|448:160,1,100.000000596046
416,32,38867,1,0,0:0:0:0:
416,32,38946,1,0,0:0:0:0:
384,32,39025,2,0,L|384:160,1,100.000000596046
352,32,39262,1,0,0:0:0:0:
352,32,39341,1,0,0:0:0:0:
320,32,39420,2,0,L|320:160,1,100.000000596046
288,32,39656,1,0,0:0:0:0:
288,32,39735,1,0,0:0:0:0:
256,32,39814,2,0,L|256:160,1,100.000000596046
224,32,40051,1,0,0:0:0:0:
224,32,40130,1,0,0:0:0:0:
192,32,40209,2,0,L|192:160,1,100.000000596046
160,32,40446,1,0,0:0:0:0:
160,32,40525,1,0,0:0:0:0:
128,32,40604,2,0,L|128:160,1,100.000000596046
96,32,40841,1,0,0:0:0:0:
96,32,40920,1,0,0:0:0:0:
64,32,40998,2,0,L|64:160,1,100.000000596046
32,32,41235,1,0,0:0:0:0:
32,32,41314,1,0,0:0:0:0:
0,32,41393,2,0,L|0:160,1,100.000000596046
256,192,41670,12,0,41749,0:0:0:0:
480,32,41829,5,0,0:0:0:0:
256,192,41909,12,0,41989,0:0:0:0:
32,32,42068,5,0,0:0:0:0:
256,192,42148,12,0,42227,0:0:0:0:
480,32,42307,5,0,0:0:0:0:
256,192,42387,12,0,42467,0:0:0:0:
32,32,42546,5,0,0:0:0:0:
256,192,42627,12,0,42706,0:0:0:0:
480,32,42786,5,0,0:0:0:0:
256,192,42866,12,0,42946,0:0:0:0:
32,32,43025,5,0,0:0:0:0:
256,192,43106,12,0,43185,0:0:0:0:
480,32,43265,5,0,0:0:0:0:
256,192,43345,12,0,43425,0:0:0:0:
32,32,43504,5,0,0:0:0:0:
256,192,43584,12,0,43663,0:0:0:0:
480,32,43743,5,0,0:0:0:0:
256,192,43823,12,0,43903,0:0:0:0:
32,32,43982,5,0,0:0:0:0:
32,32,44063,2,0,B|256:32|256:32|256:64|256:64|192:32|192:32|256:128|256:128|160:96|160:96|192:64|192:64|160:64|160:64|128:96|128:96|128:128|128:128|96:128|96:128|64:96|64:96|96:64|96:64|128:64|128:64|192:128|192:128|192:160|192:160|160:160|160:160|256:160|256:160|320:128|320:128|320:32|320:32|288:96|288:96|256:96|288:64|288:64|352:32|352:32|512:32,1,1600.00000953674
488,32,46696,6,0,L|480:96,1,50.000000298023
512,64,46856,1,0,0:0:0:0:
23,32,46935,6,0,L|32:96,1,50.000000298023
0,64,47095,1,0,0:0:0:0:
488,32,47175,6,0,L|480:96,1,50.000000298023
512,64,47335,1,0,0:0:0:0:
23,32,47414,6,0,L|32:96,1,50.000000298023
0,64,47574,1,0,0:0:0:0:
488,32,47654,6,0,L|480:96,1,50.000000298023
512,64,47814,1,0,0:0:0:0:
23,32,47893,6,0,L|32:96,1,50.000000298023
0,64,48053,1,0,0:0:0:0:
488,32,48132,6,0,L|480:96,1,50.000000298023
512,64,48292,1,0,0:0:0:0:
23,32,48371,6,0,L|32:96,1,50.000000298023
0,64,48531,1,0,0:0:0:0:
256,192,48611,12,0,48612,0:0:0:0:
256,192,48691,5,0,0:0:0:0:
256,192,48771,12,0,48772,0:0:0:0:
256,192,48850,5,0,0:0:0:0:
256,192,48930,12,0,48931,0:0:0:0:
256,192,49010,5,0,0:0:0:0:
256,192,49090,12,0,49091,0:0:0:0:
256,192,49169,5,0,0:0:0:0:
256,192,49249,12,0,49250,0:0:0:0:
256,192,49329,5,0,0:0:0:0:
256,192,49409,12,0,49410,0:0:0:0:
256,192,49488,5,0,0:0:0:0:
256,192,49568,12,0,50287,0:0:0:0:
32,32,49648,5,0,0:0:0:0:
480,32,49728,1,0,0:0:0:0:
32,32,49808,1,0,0:0:0:0:
480,32,49888,1,0,0:0:0:0:
480,32,49967,5,0,0:0:0:0:
32,32,50047,1,0,0:0:0:0:
480,32,50127,1,0,0:0:0:0:
32,32,50207,1,0,0:0:0:0:
480,32,50366,5,0,0:0:0:0:
475,32,50445,1,0,0:0:0:0:
470,32,50525,1,0,0:0:0:0:
465,32,50605,1,0,0:0:0:0:
460,32,50685,1,0,0:0:0:0:
455,32,50764,1,0,0:0:0:0:
450,32,50844,1,0,0:0:0:0:
445,32,50924,1,0,0:0:0:0:
440,32,51004,1,0,0:0:0:0:
435,32,51084,1,0,0:0:0:0:
430,32,51163,1,0,0:0:0:0:
425,32,51243,1,0,0:0:0:0:
420,32,51323,1,0,0:0:0:0:
415,32,51403,1,0,0:0:0:0:
410,32,51483,1,0,0:0:0:0:
405,32,51562,1,0,0:0:0:0:
400,32,51642,1,0,0:0:0:0:
395,32,51722,1,0,0:0:0:0:
390,32,51802,1,0,0:0:0:0:
385,32,51881,1,0,0:0:0:0:
380,32,51961,1,0,0:0:0:0:
375,32,52041,1,0,0:0:0:0:
370,32,52121,1,0,0:0:0:0:
365,32,52201,1,0,0:0:0:0:
360,32,52280,1,0,0:0:0:0:
355,32,52360,1,0,0:0:0:0:
350,32,52440,1,0,0:0:0:0:
345,32,52520,1,0,0:0:0:0:
340,32,52600,1,0,0:0:0:0:
335,32,52679,1,0,0:0:0:0:
330,32,52759,1,0,0:0:0:0:
325,32,52839,1,0,0:0:0:0:
320,32,52919,1,0,0:0:0:0:
315,32,52998,1,0,0:0:0:0:
310,32,53078,1,0,0:0:0:0:
305,32,53158,1,0,0:0:0:0:
300,32,53238,1,0,0:0:0:0:
295,32,53318,1,0,0:0:0:0:
290,32,53397,1,0,0:0:0:0:
285,32,53477,1,0,0:0:0:0:
280,32,53557,1,0,0:0:0:0:
275,32,53637,1,0,0:0:0:0:
270,32,53717,1,0,0:0:0:0:
265,32,53796,1,0,0:0:0:0:
260,32,53876,1,0,0:0:0:0:
255,32,53956,1,0,0:0:0:0:
250,32,54036,1,0,0:0:0:0:
245,32,54115,1,0,0:0:0:0:
240,32,54195,1,0,0:0:0:0:
235,32,54275,1,0,0:0:0:0:
230,32,54355,1,0,0:0:0:0:
225,32,54435,1,0,0:0:0:0:
220,32,54514,1,0,0:0:0:0:
215,32,54594,1,0,0:0:0:0:
210,32,54674,1,0,0:0:0:0:
205,32,54754,1,0,0:0:0:0:
200,32,54834,1,0,0:0:0:0:
195,32,54913,1,0,0:0:0:0:
190,32,54993,1,0,0:0:0:0:
185,32,55073,1,0,0:0:0:0:
180,32,55153,1,0,0:0:0:0:
175,32,55233,1,0,0:0:0:0:
170,32,55312,1,0,0:0:0:0:
165,32,55392,1,0,0:0:0:0:
160,32,55472,1,0,0:0:0:0:
155,32,55552,1,0,0:0:0:0:
150,32,55631,1,0,0:0:0:0:
145,32,55711,1,0,0:0:0:0:
140,32,55791,1,0,0:0:0:0:
135,32,55871,1,0,0:0:0:0:
130,32,55951,1,0,0:0:0:0:
125,32,56030,1,0,0:0:0:0:
120,32,56110,1,0,0:0:0:0:
115,32,56190,1,0,0:0:0:0:
110,32,56270,1,0,0:0:0:0:
105,32,56350,1,0,0:0:0:0:
100,32,56429,1,0,0:0:0:0:
95,32,56509,1,0,0:0:0:0:
90,32,56589,1,0,0:0:0:0:
85,32,56669,1,0,0:0:0:0:
80,32,56748,1,0,0:0:0:0:
75,32,56828,1,0,0:0:0:0:
70,32,56908,1,0,0:0:0:0:
65,32,56988,1,0,0:0:0:0:
60,32,57068,1,0,0:0:0:0:
55,32,57147,1,0,0:0:0:0:
50,32,57227,1,0,0:0:0:0:
45,32,57307,1,0,0:0:0:0:
40,32,57387,1,0,0:0:0:0:
34,32,57467,1,0,0:0:0:0:
29,32,57546,1,0,0:0:0:0:
416,32,57627,5,0,0:0:0:0:
423,32,57706,1,0,0:0:0:0:
430,32,57786,1,0,0:0:0:0:
437,32,57866,1,0,0:0:0:0:
444,32,57946,1,0,0:0:0:0:
451,32,58025,1,0,0:0:0:0:
458,32,58105,1,0,0:0:0:0:
466,32,58185,1,0,0:0:0:0:
480,32,58265,1,0,0:0:0:0:
96,32,58345,5,0,0:0:0:0:
88,32,58424,1,0,0:0:0:0:
81,32,58504,1,0,0:0:0:0:
74,32,58584,1,0,0:0:0:0:
67,32,58664,1,0,0:0:0:0:
60,32,58743,1,0,0:0:0:0:
53,32,58823,1,0,0:0:0:0:
46,32,58903,1,0,0:0:0:0:
32,32,58983,1,0,0:0:0:0:
416,32,59063,5,0,0:0:0:0:
423,32,59142,1,0,0:0:0:0:
430,32,59222,1,0,0:0:0:0:
437,32,59302,1,0,0:0:0:0:
444,32,59382,1,0,0:0:0:0:
451,32,59461,1,0,0:0:0:0:
458,32,59541,1,0,0:0:0:0:
466,32,59621,1,0,0:0:0:0:
480,32,59701,1,0,0:0:0:0:
96,32,59781,5,0,0:0:0:0:
88,32,59860,1,0,0:0:0:0:
81,32,59940,1,0,0:0:0:0:
74,32,60020,1,0,0:0:0:0:
67,32,60100,1,0,0:0:0:0:
60,32,60179,1,0,0:0:0:0:
53,32,60259,1,0,0:0:0:0:
46,32,60339,1,0,0:0:0:0:
32,32,60419,1,0,0:0:0:0:
480,32,60499,5,0,0:0:0:0:
32,32,60579,5,0,0:0:0:0:
480,32,60659,5,0,0:0:0:0:
32,32,60739,5,0,0:0:0:0:
480,32,60818,5,0,0:0:0:0:
32,32,60898,5,0,0:0:0:0:
480,32,60978,5,0,0:0:0:0:
32,32,61058,5,0,0:0:0:0:
480,32,61138,5,0,0:0:0:0:
32,32,61217,5,0,0:0:0:0:
480,32,61297,5,0,0:0:0:0:
32,32,61377,5,0,0:0:0:0:
480,32,61457,5,0,0:0:0:0:
32,32,61537,5,0,0:0:0:0:
256,192,61616,12,0,64010,0:0:0:0:
32,352,61696,5,0,0:0:0:0:
480,32,61776,1,0,0:0:0:0:
32,352,61935,6,0,L|480:32,2,550.000003278253,0|0|0,0:0|0:0|0:0,0:0:0:0:
32,352,63850,5,0,0:0:0:0:
480,32,63930,1,0,0:0:0:0:
480,32,64090,5,0,0:0:0:0:
416,32,64170,1,0,0:0:0:0:
480,32,64249,1,0,0:0:0:0:
32,32,64329,5,0,0:0:0:0:
96,32,64409,1,0,0:0:0:0:
32,32,64488,1,0,0:0:0:0:
480,32,64568,5,0,0:0:0:0:
416,32,64648,1,0,0:0:0:0:
480,32,64727,1,0,0:0:0:0:
32,32,64807,5,0,0:0:0:0:
96,32,64887,1,0,0:0:0:0:
32,32,64966,1,0,0:0:0:0:
480,32,65047,5,0,0:0:0:0:
416,32,65127,1,0,0:0:0:0:
480,32,65206,1,0,0:0:0:0:
32,32,65286,5,0,0:0:0:0:
96,32,65366,1,0,0:0:0:0:
32,32,65445,1,0,0:0:0:0:
480,32,65526,5,0,0:0:0:0:
416,32,65606,1,0,0:0:0:0:
480,32,65685,1,0,0:0:0:0:
32,32,65765,5,0,0:0:0:0:
96,32,65845,1,0,0:0:0:0:
32,32,65924,1,0,0:0:0:0:
480,32,66005,5,0,0:0:0:0:
416,32,66085,1,0,0:0:0:0:
480,32,66164,1,0,0:0:0:0:
32,32,66244,5,0,0:0:0:0:
96,32,66324,1,0,0:0:0:0:
32,32,66403,1,0,0:0:0:0:
288,32,66483,6,0,L|384:128,4,100.000000596047,0|0|0|0|0,0:0|0:0|0:0|0:0|0:0,0:0:0:0:
224,32,66802,6,0,L|128:128,4,100.000000596047,0|0|0|0|0,0:0|0:0|0:0|0:0|0:0,0:0:0:0:
352,32,67122,6,0,L|448:128,4,100.000000596047,0|0|0|0|0,0:0|0:0|0:0|0:0|0:0,0:0:0:0:
160,32,67441,6,0,L|64:128,4,100.000000596047,0|0|0|0|0,0:0|0:0|0:0|0:0|0:0,0:0:0:0:
416,32,67760,6,0,L|512:128,4,100.000000596047,0|0|0|0|0,0:0|0:0|0:0|0:0|0:0,0:0:0:0:
96,32,68079,6,0,L|0:128,4,100.000000596047,0|0|0|0|0,0:0|0:0|0:0|0:0|0:0,0:0:0:0:
