osu file format v14

[General]
AudioFilename: Lolipusher - tears - 01 why as soon as we became so close, we have to say goodbye-.mp3
AudioLeadIn: 0
PreviewTime: 28813
Countdown: 0
SampleSet: Soft
StackLeniency: 0.7
Mode: 0
LetterboxInBreaks: 1
WidescreenStoryboard: 1

[Editor]
Bookmarks: 43213,57613,62413,67213,84013,96013,105613,115213,124663
DistanceSpacing: 1.1
BeatDivisor: 4
GridSize: 4
TimelineZoom: 2.5

[Metadata]
Title:why as soon as we became so close, we have to say goodbye?
TitleUnicode:why as soon as we became so close, we have to say goodbye?
Artist:Lolipusher
ArtistUnicode:Lolipusher
Creator:tomhet65
Version:Normal Collab
Source:
Tags:waqs breakcore lolicore experimental air ticclick ryuu
BeatmapID:653196
BeatmapSetID:283927

[Difficulty]
HPDrainRate:7
CircleSize:3
OverallDifficulty:5
ApproachRate:6
SliderMultiplier:1
SliderTickRate:1

[Events]
//Background and Video events
0,0,"3b45d29745b22e184729394a76d53ea8.jpg",0,0
//Break Periods
2,67262,82963
//Storyboard Layer 0 (Background)
//Storyboard Layer 1 (Fail)
//Storyboard Layer 2 (Pass)
//Storyboard Layer 3 (Foreground)
//Storyboard Sound Samples

[TimingPoints]
28813,300,4,2,0,49,1,0

[Colours]
Combo1 : 164,164,238
Combo2 : 215,180,72

[HitObjects]
124,132,28813,6,0,P|176:128|232:104,1,100
264,212,29413,2,0,L|256:276,2,50
356,152,30013,2,0,P|336:92|332:40,1,100
280,72,30463,1,0,0:0:0:0:
228,52,30613,2,0,L|160:76,1,50
144,112,30913,2,0,L|168:232,1,100
228,300,31513,5,0,0:0:0:0:
332,340,31813,2,0,P|384:344|488:248,1,200
420,164,32713,1,0,0:0:0:0:
372,64,33013,2,0,L|384:4,2,50
272,108,33613,5,0,0:0:0:0:
244,216,33913,2,0,P|236:240|232:264,1,50
224,320,34213,2,0,P|176:336|124:312,1,100
104,212,34813,2,0,L|84:152,1,50
144,172,35113,2,0,L|124:112,1,50
184,132,35413,2,0,L|164:72,1,50
220,108,35713,2,0,L|200:48,1,50
256,80,36013,6,0,P|316:64|368:72,2,100
276,188,36913,1,0,0:0:0:0:
168,172,37213,2,0,P|108:200|52:196,1,100
20,188,37663,1,0,0:0:0:0:
20,188,37813,1,0,0:0:0:0:
84,280,38113,1,0,0:0:0:0:
192,308,38413,6,0,B|240:292|296:312,1,100
388,264,39013,2,0,P|384:208|356:164,1,100
372,116,39463,1,0,0:0:0:0:
372,60,39613,2,0,P|428:40|480:40,1,100
504,144,40213,2,0,L|496:252,1,100
388,264,40813,6,0,P|386:290|392:320,2,50
304,192,41413,2,0,P|252:208|196:196,1,100
96,224,42013,2,0,P|94:248|84:276,2,50
88,168,42463,1,0,0:0:0:0:
80,112,42613,2,0,P|112:76|176:48,1,100
264,28,43213,5,0,0:0:0:0:
316,48,43363,2,0,L|312:112,1,50
348,140,43663,1,0,0:0:0:0:
384,180,43813,2,0,L|392:240,2,50
280,220,44413,6,0,P|224:216|172:228,1,100
168,276,44863,2,0,P|156:304|152:340,2,50
124,240,45313,6,0,P|128:196|108:132,1,100
48,52,45913,1,0,0:0:0:0:
156,36,46213,2,0,B|220:40|264:72|264:72|284:12|284:12|344:60|412:56,1,300
444,216,47563,2,0,P|424:264|432:320,1,100
380,336,48013,6,0,L|328:340,1,50
228,296,48463,2,0,L|176:300,1,50
68,284,48913,1,0,0:0:0:0:
60,228,49063,1,0,0:0:0:0:
84,180,49213,2,0,P|100:132|88:68,1,100
196,40,49813,2,0,L|268:32,1,50
288,72,50113,2,0,L|360:80,1,50
392,84,50413,6,0,P|368:192|416:284,1,200
244,316,51463,2,0,B|160:336|160:336|76:308,1,150
68,212,52213,2,0,L|64:144,1,50
104,120,52513,2,0,P|156:128|220:108,1,100
292,64,53113,6,0,P|360:44|456:60,2,150
304,172,54313,2,0,P|236:192|140:176,1,150
104,176,54913,6,0,P|120:244|112:304,1,100
204,340,55513,2,0,L|264:332,1,50
292,296,55813,2,0,L|400:308,1,100
456,216,56413,5,0,0:0:0:0:
444,108,56713,1,0,0:0:0:0:
348,56,57013,1,0,0:0:0:0:
240,68,57313,1,0,0:0:0:0:
160,140,57613,6,0,L|180:232,1,50
216,220,57913,2,0,L|236:312,1,50
212,324,58213,2,0,B|165:340|165:340|108:340,1,100
36,272,58813,1,0,0:0:0:0:
120,200,59113,1,0,0:0:0:0:
40,124,59413,1,0,0:0:0:0:
128,56,59713,2,0,P|156:56|184:64,1,50
208,108,60013,6,0,P|256:144|392:100,1,200
436,120,60763,1,0,0:0:0:0:
444,176,60913,2,0,B|452:244|412:304|412:304|324:276|248:348,1,300
204,332,61963,1,0,0:0:0:0:
152,316,62113,2,0,L|84:336,1,50
56,304,62413,5,0,0:0:0:0:
108,208,62713,1,0,0:0:0:0:
84,100,63013,2,0,L|148:92,1,50
172,56,63313,2,0,L|228:64,1,50
276,56,63613,6,0,P|328:68|400:44,2,100
264,108,64363,1,0,0:0:0:0:
284,160,64513,2,0,L|288:232,1,50
332,240,64813,6,0,L|324:364,1,100
216,364,65413,2,0,L|208:308,1,50
160,288,65713,1,0,0:0:0:0:
108,192,66013,6,0,P|64:200|4:188,2,100
180,108,66913,2,0,L|184:52,1,50
64,220,84013,6,0,L|80:340,1,100
244,172,84913,2,0,L|256:60,1,100
456,340,86413,5,0,0:0:0:0:
360,288,86713,1,0,0:0:0:0:
252,316,87013,1,0,0:0:0:0:
148,276,87313,2,0,L|140:220,1,50
188,196,87613,2,0,L|204:136,1,50
184,96,87913,2,0,P|120:72|64:88,2,100
292,112,88813,6,0,L|348:92,1,50
392,88,89113,2,0,P|424:152|424:196,1,100
392,284,89713,1,0,0:0:0:0:
284,308,90013,2,0,B|213:296|152:312|152:312|92:256|80:156,1,300
128,64,91213,6,0,P|180:68|248:56,1,100
332,88,91813,2,0,L|396:48,2,50
248,160,92413,2,0,P|224:220|220:296,1,100
324,292,93013,1,0,0:0:0:0:
432,320,93313,1,0,0:0:0:0:
484,224,93613,6,0,P|456:152|352:92,1,200
316,132,94363,1,0,0:0:0:0:
260,124,94513,2,0,L|192:132,1,50
160,108,94813,2,0,P|128:164|124:216,1,100
200,272,95413,2,0,L|188:340,2,50
308,248,96013,6,0,L|296:180,1,50
332,156,96313,2,0,L|344:88,1,50
360,56,96613,6,0,P|276:84|192:72,1,175
164,24,97288,2,0,P|152:92|92:164,1,150
140,200,97888,2,0,P|136:224|144:260,2,50
216,168,98413,5,0,0:0:0:0:
324,176,98713,1,0,0:0:0:0:
424,128,99013,1,0,0:0:0:0:
492,216,99313,2,0,L|480:276,1,50
444,308,99613,5,0,0:0:0:0:
336,292,99913,1,0,0:0:0:0:
240,344,100213,1,0,0:0:0:0:
136,304,100513,2,0,L|124:244,1,50
92,212,100813,6,0,P|112:164|104:108,1,100
216,100,101413,2,0,L|316:88,1,100
364,64,101863,1,0,0:0:0:0:
412,92,102013,6,0,P|386:201|508:304,1,250
504,340,102913,2,0,P|448:332|396:340,1,100
352,328,103363,6,0,P|296:336|244:328,1,100
204,304,103813,1,0,0:0:0:0:
96,332,104113,1,0,0:0:0:0:
48,232,104413,2,0,L|108:220,1,50
188,160,104863,2,0,L|248:172,1,50
340,212,105313,2,0,L|400:200,1,50
416,156,105613,6,0,P|424:96|440:48,1,100
332,28,106213,1,0,0:0:0:0:
224,56,106513,1,0,0:0:0:0:
116,80,106813,2,0,L|92:124,1,50
72,176,107113,2,0,B|92:224|92:224|88:320,1,100
72,324,107563,2,0,P|156:348|256:332,1,150
324,316,108313,6,0,P|324:264|344:220,1,100
308,180,108763,2,0,P|248:156|196:156,1,100
160,168,109213,1,0,0:0:0:0:
64,116,109513,2,0,L|52:56,1,50
216,44,110113,2,0,B|260:60|260:60|340:52,1,100
420,88,110713,5,0,0:0:0:0:
428,200,111013,2,0,B|424:256|436:300|436:300|384:320|344:360,1,200
268,284,111913,2,0,P|212:244|136:244,1,100
72,248,112513,1,0,0:0:0:0:
88,140,112813,6,0,L|96:80,2,50
164,288,113563,2,0,L|157:337,1,50
268,324,114013,2,0,L|274:274,1,50
328,256,114313,2,0,L|334:206,1,50
304,160,114613,2,0,B|260:144|220:168|220:168|192:184|124:164,1,150
104,160,115213,6,0,L|92:104,1,50
156,20,115663,1,0,0:0:0:0:
208,40,115813,2,0,L|288:36,2,75
200,96,116413,2,0,P|208:144|192:200,1,100
168,300,117013,2,0,P|249:286|320:300,1,150
368,292,117613,6,0,L|376:208,1,50
416,208,117913,1,0,0:0:0:0:
388,100,118213,2,0,L|280:92,1,100
244,60,118663,1,0,0:0:0:0:
80,84,119113,2,0,B|71:163|71:163|95:238|95:238|84:349,1,250
136,356,120013,6,0,L|240:352,1,100
340,312,120613,2,0,P|328:236|352:168,1,150
392,128,121213,1,0,0:0:0:0:
320,44,121513,1,0,0:0:0:0:
212,40,121813,2,0,L|144:44,1,50
108,48,122113,6,0,P|124:104|112:152,1,100
52,236,122713,1,0,0:0:0:0:
124,320,123013,1,0,0:0:0:0:
220,264,123313,2,0,L|288:260,1,50
316,292,123613,2,0,L|368:300,1,50
416,272,123913,1,0,0:0:0:0:
424,164,124213,6,0,B|324:172|324:172|280:132,1,150
