osu file format v14

[General]
AudioFilename: Lolipusher - tears - 01 why as soon as we became so close, we have to say goodbye-.mp3
AudioLeadIn: 0
PreviewTime: 28813
Countdown: 0
SampleSet: Normal
StackLeniency: 0.7
Mode: 0
LetterboxInBreaks: 1
WidescreenStoryboard: 1

[Editor]
Bookmarks: 43213,57613,62413,67213,84013,86413,96013,105613,115213,124813
DistanceSpacing: 1.3
BeatDivisor: 8
GridSize: 4
TimelineZoom: 2.200002

[Metadata]
Title:why as soon as we became so close, we have to say goodbye?
TitleUnicode:why as soon as we became so close, we have to say goodbye?
Artist:Lolipusher
ArtistUnicode:Lolipusher
Creator:tomhet65
Version:Insane Collab
Source:
Tags:waqs breakcore lolicore experimental air ticclick ryuu
BeatmapID:656637
BeatmapSetID:283927

[Difficulty]
HPDrainRate:7
CircleSize:4
OverallDifficulty:7
ApproachRate:9
SliderMultiplier:1.3
SliderTickRate:1

[Events]
//Background and Video events
0,0,"3b45d29745b22e184729394a76d53ea8.jpg",0,0
//Break Periods
2,67262,83413
//Storyboard Layer 0 (Background)
//Storyboard Layer 1 (Fail)
//Storyboard Layer 2 (Pass)
//Storyboard Layer 3 (Foreground)
//Storyboard Sound Samples

[TimingPoints]
28813,300,4,1,0,49,1,0
83938,-133.333333333333,4,1,0,49,0,0
86394,-117.647058823529,4,1,0,49,0,0
88738,-100,4,1,0,49,0,0
92975,-100,4,1,0,49,0,0
93875,-66.6666666666667,4,1,0,49,0,0
94175,-100,4,1,0,49,0,0
107994,-133.333333333333,4,1,0,49,0,0
109138,-100,4,1,0,49,0,0

[Colours]
Combo1 : 164,164,238
Combo2 : 215,180,72

[HitObjects]
208,324,28813,6,0,L|204:252,1,65
128,128,29113,1,0,0:0:0:0:
104,228,29263,1,0,0:0:0:0:
230,192,29413,2,0,L|228:160,1,32.5
260,92,29563,1,0,0:0:0:0:
260,92,29638,1,0,0:0:0:0:
260,92,29713,2,0,P|291:84|332:88,1,65
484,160,30013,6,0,P|458:179|427:190,1,65
424,208,30238,1,0,0:0:0:0:
420,228,30313,1,0,0:0:0:0:
296,192,30463,1,0,0:0:0:0:
292,348,30613,1,0,0:0:0:0:
412,324,30763,1,0,0:0:0:0:
188,296,30913,2,0,L|164:304,6,16.25
256,268,31213,6,0,B|308:248|347:281,1,97.5
412,324,31513,2,0,L|448:320,2,32.5
400,184,31813,2,0,L|400:156,7,16.25
368,208,32113,2,0,L|352:244,3,32.5
332,144,32413,6,0,L|332:116,7,16.25
300,168,32750,2,0,L|284:204,3,32.5
240,256,33050,2,0,P|214:258|192:256,1,48.75
95,191,33313,2,0,P|63:192|33:202,1,65
200,152,33613,6,0,P|195:103|172:55,1,97.5
100,68,33913,1,0,0:0:0:0:
292,112,34063,1,0,0:0:0:0:
408,64,34213,2,0,L|416:48,3,16.25
424,36,34363,2,0,L|464:24,4,32.5
456,192,34813,6,0,P|423:227|407:275,1,97.5
400,352,35113,2,0,P|348:348|288:356,1,97.5
224,368,35413,2,0,P|212:324|208:264,1,97.5
244,199,35713,2,0,P|242:167|234:136,1,65
376,96,36013,5,0,0:0:0:0:
400,184,36163,1,0,0:0:0:0:
292,68,36313,1,0,0:0:0:0:
328,240,36463,1,0,0:0:0:0:
234,136,36613,2,0,L|208:128,4,16.25
328,240,36913,1,0,0:0:0:0:
300,348,37063,1,0,0:0:0:0:
188,236,37213,6,0,P|156:231|117:237,1,65
300,348,37513,1,0,0:0:0:0:
404,316,37663,1,0,0:0:0:0:
424,208,37813,1,0,0:0:0:0:
488,336,37963,1,0,0:0:0:0:
328,240,38113,1,0,0:0:0:0:
324,200,38188,1,0,0:0:0:0:
312,164,38263,1,0,0:0:0:0:
284,136,38338,1,0,0:0:0:0:
248,120,38413,6,0,P|218:125|171:114,1,65
272,36,38713,1,0,0:0:0:0:
204,204,38863,1,0,0:0:0:0:
180,216,38938,1,0,0:0:0:0:
156,220,39013,1,0,0:0:0:0:
48,240,39163,1,0,0:0:0:0:
64,348,39313,1,0,0:0:0:0:
172,328,39463,1,0,0:0:0:0:
280,352,39613,5,0,0:0:0:0:
168,232,39763,2,0,L|156:188,2,32.5
280,352,40063,1,0,0:0:0:0:
96,244,40213,2,0,L|76:212,2,32.5
296,280,40513,2,0,L|304:256,6,16.25
219,275,40813,6,0,P|208:245|209:213,1,65
312,168,41113,1,0,0:0:0:0:
164,112,41263,1,0,0:0:0:0:
268,68,41413,1,0,0:0:0:0:
292,60,41488,1,0,0:0:0:0:
316,56,41563,1,0,0:0:0:0:
340,60,41638,1,0,0:0:0:0:
364,64,41713,2,0,P|380:63|396:60,3,32.5
420,48,42013,5,0,0:0:0:0:
492,128,42163,1,0,0:0:0:0:
488,152,42238,1,0,0:0:0:0:
488,176,42313,1,0,0:0:0:0:
380,144,42463,1,0,0:0:0:0:
460,276,42613,2,0,P|474:282|490:287,2,32.5
352,248,42913,1,0,0:0:0:0:
308,348,43063,1,0,0:0:0:0:
204,316,43213,6,0,P|171:315|139:321,1,65
204,200,43513,2,0,P|236:201|268:195,1,65
324,100,43813,2,0,L|312:60,1,32.5
300,32,43963,2,0,P|264:32|228:40,1,65
136,84,44263,1,0,0:0:0:0:
136,84,44338,1,0,0:0:0:0:
136,84,44413,6,0,L|128:144,1,48.75
168,308,44713,2,0,L|174:259,1,48.75
320,216,45013,2,0,P|352:220|388:240,1,65
448,148,45313,2,0,L|472:144,6,16.25
396,132,45613,6,0,P|364:120|332:92,2,65
428,244,46063,1,0,0:0:0:0:
324,296,46213,2,0,L|312:328,2,32.5
312,268,46400,2,0,P|288:232|276:224,2,48.75
164,264,46738,1,0,0:0:0:0:
164,264,46813,6,0,P|164:224|172:188,1,65
104,104,47113,1,0,0:0:0:0:
300,128,47263,1,0,0:0:0:0:
300,128,47338,1,0,0:0:0:0:
300,128,47413,2,0,L|364:108,1,65
476,172,47713,1,0,0:0:0:0:
384,224,47863,1,0,0:0:0:0:
472,284,48013,6,0,P|464:316|464:352,1,65
348,312,48313,1,0,0:0:0:0:
256,356,48463,2,0,P|220:320|208:296,1,65
120,360,48763,1,0,0:0:0:0:
76,264,48913,2,0,L|40:268,2,32.5
184,168,49213,6,0,P|224:184|256:184,1,65
272,180,49438,1,0,0:0:0:0:
296,168,49513,2,0,L|308:96,1,65
352,256,49813,1,0,0:0:0:0:
352,256,49888,1,0,0:0:0:0:
352,256,49963,1,0,0:0:0:0:
252,276,50113,2,0,P|200:276|144:260,1,97.5
116,232,50413,6,0,L|76:284|76:284,1,65
28,144,50713,2,0,L|20:104,2,32.5
32,320,51013,2,0,P|68:328|108:328,1,65
252,276,51313,2,0,B|255:240|272:200|272:200|248:177|240:156,2,130
464,344,52213,5,0,0:0:0:0:
464,344,52363,1,0,0:0:0:0:
412,248,52513,2,0,L|396:204,1,32.5
448,188,52663,2,0,L|464:152,1,32.5
468,104,52813,6,0,P|416:88|396:88,1,65
328,168,53113,1,0,0:0:0:0:
272,72,53263,2,0,P|220:56|200:56,1,65
132,136,53563,1,0,0:0:0:0:
36,84,53713,2,0,L|32:40,7,32.5
36,124,54313,6,0,P|32:164|20:196,1,65
88,276,54613,1,0,0:0:0:0:
88,276,54688,1,0,0:0:0:0:
88,276,54763,1,0,0:0:0:0:
280,232,54913,2,0,P|324:228|368:264,1,97.5
428,200,55213,6,0,L|420:136,1,65
308,132,55513,2,0,L|300:68,1,65
172,52,55813,1,0,0:0:0:0:
156,60,55888,1,0,0:0:0:0:
140,68,55963,1,0,0:0:0:0:
120,76,56038,1,0,0:0:0:0:
104,84,56113,2,0,L|84:80,6,16.25
104,128,56413,6,0,P|96:184|44:248,1,130
272,296,57013,2,0,L|200:276,1,65
392,196,57313,2,0,L|424:176,2,32.5
388,224,57538,1,0,0:0:0:0:
388,252,57613,6,0,L|384:316,1,65
272,296,57913,1,0,0:0:0:0:
163,271,58063,2,0,L|160:336,1,65
160,336,58288,1,0,0:0:0:0:
160,336,58363,1,0,0:0:0:0:
44,280,58513,1,0,0:0:0:0:
264,208,58813,5,0,0:0:0:0:
284,200,58888,1,0,0:0:0:0:
304,192,58963,1,0,0:0:0:0:
216,96,59113,2,0,L|208:60,2,32.5
124,184,59413,1,0,0:0:0:0:
104,180,59488,1,0,0:0:0:0:
84,176,59563,1,0,0:0:0:0:
188,276,59713,1,0,0:0:0:0:
140,104,59863,1,0,0:0:0:0:
124,88,59938,1,0,0:0:0:0:
108,72,60013,6,0,L|104:44,4,16.25
12,128,60313,2,0,L|8:164,3,32.5
22,174,60613,2,0,L|22:238,1,65
96,340,60913,1,0,0:0:0:0:
116,344,60988,1,0,0:0:0:0:
136,344,61063,1,0,0:0:0:0:
156,340,61138,1,0,0:0:0:0:
176,332,61213,6,0,P|194:319|216:312,3,32.5
224,308,61513,2,0,L|252:304,6,16.25
260,307,61813,2,0,P|291:314|320:329,1,65
452,312,62113,1,0,0:0:0:0:
452,196,62263,2,0,L|468:176,3,16.25
416,208,62413,6,0,P|396:216|340:208,1,65
268,144,62713,2,0,P|236:136|192:140,1,65
104,184,63013,1,0,0:0:0:0:
208,292,63163,1,0,0:0:0:0:
208,292,63238,1,0,0:0:0:0:
208,292,63313,1,0,0:0:0:0:
268,144,63463,1,0,0:0:0:0:
368,156,63613,6,0,P|400:152|440:132,2,65
168,124,64063,2,0,P|135:128|106:140,1,65
92,272,64363,1,0,0:0:0:0:
40,76,64475,2,0,P|88:52|148:36,1,113.75
188,56,64813,6,0,L|164:128,1,65
128,244,65113,2,0,L|120:268,4,16.25
232,204,65413,2,0,P|260:208|300:212,1,65
392,156,65713,2,0,L|384:136,4,16.25
440,256,66013,6,0,P|444:280|444:324,1,65
336,340,66313,2,0,L|320:356,4,16.25
280,260,66613,2,0,L|256:264,4,16.25
292,164,66913,2,0,P|264:156|216:152,1,65
152,192,84013,6,0,P|156:236|176:284,1,97.50000371933
360,192,84913,2,0,P|356:148|336:100,1,97.50000371933
140,100,85813,6,0,L|120:96,15,12.1875004649162
160,112,86413,6,0,L|168:172,1,55.2500010538101
256,212,86713,2,0,L|248:152,1,55.2500010538101
343,191,87013,2,0,P|398:188|444:159,1,110.50000210762
472,280,87463,1,0,0:0:0:0:
472,280,87613,6,0,P|445:273|417:274,1,55.2500010538101
344,336,87913,1,0,0:0:0:0:
228,324,88213,1,0,0:0:0:0:
111,352,88513,2,0,P|111:324|108:297,1,55.2500010538101
180,220,88813,5,0,0:0:0:0:
32,180,88963,1,0,0:0:0:0:
136,96,89113,1,0,0:0:0:0:
168,104,89188,1,0,0:0:0:0:
200,108,89263,1,0,0:0:0:0:
232,108,89338,1,0,0:0:0:0:
264,104,89413,1,0,0:0:0:0:
364,160,89563,1,0,0:0:0:0:
364,184,89638,1,0,0:0:0:0:
360,208,89713,1,0,0:0:0:0:
484,140,89863,1,0,0:0:0:0:
472,256,90013,1,0,0:0:0:0:
384,136,90163,6,0,L|380:112,3,16.25
352,100,90350,2,0,L|344:60,7,32.5
360,43,90913,2,0,P|392:40|424:45,1,65
256,40,91213,6,0,L|248:16,6,16.25
216,80,91513,2,0,L|216:124,3,32.5
248,156,91813,2,0,P|280:164|312:160,1,65
311,160,92038,1,0,0:0:0:0:
311,160,92113,1,0,0:0:0:0:
208,232,92263,2,0,L|208:252,3,16.25
224,264,92413,6,0,P|251:281|283:287,1,65
152,316,92713,1,0,0:0:0:0:
120,316,92788,1,0,0:0:0:0:
88,324,92863,1,0,0:0:0:0:
60,340,92938,1,0,0:0:0:0:
40,356,93013,1,0,0:0:0:0:
380,380,93313,1,0,0:0:0:0:
412,224,93613,5,0,0:0:0:0:
380,216,93688,1,0,0:0:0:0:
352,200,93763,1,0,0:0:0:0:
328,176,93838,1,0,0:0:0:0:
311,151,93913,2,0,P|303:104|315:57,1,97.50000371933
200,40,94213,1,0,0:0:0:0:
180,36,94288,1,0,0:0:0:0:
160,36,94363,1,0,0:0:0:0:
140,40,94438,1,0,0:0:0:0:
124,52,94513,2,0,L|116:96,3,32.5
88,112,94813,5,0,0:0:0:0:
172,204,94963,1,0,0:0:0:0:
292,184,95113,2,0,P|296:151|295:119,1,65
392,244,95413,1,0,0:0:0:0:
296,324,95563,1,0,0:0:0:0:
167,303,95713,2,0,P|135:300|103:301,1,65
124,168,96013,5,0,0:0:0:0:
124,168,96163,1,0,0:0:0:0:
192,64,96313,2,0,L|180:24,2,32.5
332,64,96613,2,0,B|372:104|376:160|376:160,1,97.5
264,248,96913,2,0,B|228:276|228:276|172:264,1,97.5
124,168,97288,6,0,L|136:136,4,32.5
76,312,97738,1,0,0:0:0:0:
256,320,97888,2,0,L|268:352,2,32.5
216,212,98188,2,0,L|188:148,1,65
180,120,98413,6,0,P|208:104|248:96,1,65
336,200,98713,2,0,P|367:208|401:231,1,65
384,72,99013,1,0,0:0:0:0:
240,76,99163,1,0,0:0:0:0:
240,76,99238,1,0,0:0:0:0:
240,76,99313,2,0,L|176:80,1,65
112,208,99613,6,0,P|112:224|140:280,1,65
252,248,99913,2,0,P|260:261|312:296,1,65
404,224,100213,2,0,P|417:232|480:235,1,65
408,348,100513,1,0,0:0:0:0:
408,348,100663,1,0,0:0:0:0:
288,296,100813,6,0,L|216:308,2,65
312,216,101263,1,0,0:0:0:0:
224,136,101413,2,0,L|232:100,3,32.5
212,172,101713,2,0,P|176:192|140:192,1,65
112,320,102013,6,0,L|104:344,6,16.25
168,320,102313,2,0,L|179:289,3,32.5
224,324,102613,2,0,L|212:354,3,32.5
272,292,102913,2,0,P|300:288|376:300,1,97.5
412,332,103213,5,0,0:0:0:0:
488,212,103363,1,0,0:0:0:0:
488,212,103438,1,0,0:0:0:0:
488,212,103513,1,0,0:0:0:0:
348,216,103663,1,0,0:0:0:0:
364,92,103813,2,0,P|397:69|428:60,1,65
312,16,104113,1,0,0:0:0:0:
312,16,104263,1,0,0:0:0:0:
284,148,104413,6,0,L|268:224,2,65
232,60,104863,1,0,0:0:0:0:
232,60,105013,1,0,0:0:0:0:
100,104,105163,1,0,0:0:0:0:
180,220,105313,1,0,0:0:0:0:
48,248,105463,2,0,L|20:256,3,16.25
76,240,105613,6,0,P|96:268|104:304,1,65
152,148,105913,1,0,0:0:0:0:
272,200,106063,1,0,0:0:0:0:
284,228,106138,1,0,0:0:0:0:
288,256,106213,1,0,0:0:0:0:
420,316,106363,1,0,0:0:0:0:
244,344,106513,1,0,0:0:0:0:
408,216,106663,1,0,0:0:0:0:
180,220,106813,6,0,P|148:224|116:236,1,65
192,104,107113,1,0,0:0:0:0:
192,104,107188,1,0,0:0:0:0:
192,104,107263,1,0,0:0:0:0:
192,104,107338,1,0,0:0:0:0:
192,104,107413,2,0,P|224:104|255:113,1,65
304,112,107638,1,0,0:0:0:0:
352,108,107713,2,0,P|358:95|360:80,6,16.25
400,108,108013,6,0,P|427:174|416:246,1,146.250005578995,0|0,0:0|2:0,0:0:0:0:
304,328,108613,2,0,B|252:308|216:360|158:339,1,146.250005578995,0|0,2:0|2:0,0:0:0:0:
164,172,109213,6,0,P|196:171|227:180,1,65
227,180,109438,1,0,0:0:0:0:
227,180,109513,1,0,0:0:0:0:
116,48,109663,1,0,0:0:0:0:
36,96,109813,1,0,0:0:0:0:
36,96,109963,1,0,0:0:0:0:
204,72,110113,2,0,L|208:56,6,16.25
275,115,110413,6,0,P|322:128|369:116,1,97.5
424,192,110713,2,0,P|428:228|420:256,1,65
300,336,111013,2,0,P|268:331|238:317,1,65
164,216,111313,1,0,0:0:0:0:
160,180,111388,1,0,0:0:0:0:
156,144,111463,1,0,0:0:0:0:
152,108,111538,1,0,0:0:0:0:
148,72,111613,6,0,L|155:7,1,65
28,76,111913,1,0,0:0:0:0:
24,112,111988,1,0,0:0:0:0:
20,148,112063,1,0,0:0:0:0:
16,184,112138,1,0,0:0:0:0:
12,220,112213,1,0,0:0:0:0:
120,328,112363,1,0,0:0:0:0:
120,328,112438,1,0,0:0:0:0:
120,328,112513,2,0,L|144:328,6,16.25
208,344,112813,6,0,L|215:279,1,65
304,228,113113,1,0,0:0:0:0:
136,176,113263,1,0,0:0:0:0:
136,176,113338,1,0,0:0:0:0:
136,176,113413,2,0,L|128:240,1,65
232,152,113713,2,0,L|240:76,1,65
304,228,114013,5,0,0:0:0:0:
388,228,114163,1,0,0:0:0:0:
456,176,114313,1,0,0:0:0:0:
480,96,114463,1,0,0:0:0:0:
488,272,114613,2,0,L|492:296,4,16.25
352,112,114913,2,0,L|328:112,6,16.25
