osu file format v14

[General]
AudioFilename: Lolipusher - tears - 01 why as soon as we became so close, we have to say goodbye-.mp3
AudioLeadIn: 0
PreviewTime: 28813
Countdown: 0
SampleSet: Soft
StackLeniency: 0.7
Mode: 0
LetterboxInBreaks: 1
WidescreenStoryboard: 1

[Editor]
DistanceSpacing: 1.2
BeatDivisor: 4
GridSize: 4
TimelineZoom: 2.5

[Metadata]
Title:why as soon as we became so close, we have to say goodbye?
TitleUnicode:why as soon as we became so close, we have to say goodbye?
Artist:Lolipusher
ArtistUnicode:Lolipusher
Creator:tomhet65
Version:Hard
Source:
Tags:waqs breakcore lolicore experimental air ticclick ryuu
BeatmapID:644315
BeatmapSetID:283927

[Difficulty]
HPDrainRate:5
CircleSize:4
OverallDifficulty:6
ApproachRate:8.3
SliderMultiplier:1.5
SliderTickRate:1

[Events]
//Background and Video events
0,0,"3b45d29745b22e184729394a76d53ea8.jpg",0,0
//Break Periods
2,67262,83309
//Storyboard Layer 0 (Background)
//Storyboard Layer 1 (Fail)
//Storyboard Layer 2 (Pass)
//Storyboard Layer 3 (Foreground)
//Storyboard Sound Samples

[TimingPoints]
28813,300,4,2,0,49,1,0
83938,-133.333333333333,4,1,0,49,0,0
88738,-100,4,1,0,49,0,0
92975,-133.333333333333,4,1,0,49,0,0
93575,-100,4,1,0,49,0,0

[Colours]
Combo1 : 164,164,238
Combo2 : 215,180,72

[HitObjects]
96,136,28813,6,0,L|192:128,1,75
184,220,29113,1,0,0:0:0:0:
184,220,29263,1,0,0:0:0:0:
272,208,29413,2,0,P|292:180|296:120,1,75
356,240,29713,2,0,P|336:265|328:316,1,75
240,324,30013,6,0,L|112:336,1,112.5
104,328,30313,2,0,P|84:292|84:256,1,75
124,180,30613,1,0,0:0:0:0:
192,240,30763,1,0,0:0:0:0:
268,188,30913,2,0,P|276:160|228:84,1,112.5
216,92,31213,6,0,P|152:104|64:104,1,150
184,296,31813,2,0,P|240:292|340:304,1,150
480,220,32413,6,0,P|464:156|400:84,1,150
324,112,32863,1,0,0:0:0:0:
200,167,33013,2,0,P|211:132|236:104,1,75
284,260,33313,1,0,0:0:0:0:
96,144,33613,5,0,0:0:0:0:
208,52,33838,1,0,0:0:0:0:
208,52,33913,2,0,L|224:128,1,75
312,136,34213,2,0,L|288:284,1,150
420,136,34813,6,0,P|408:96|376:64,1,75
312,136,35113,2,0,P|288:112|232:96,1,75
232,196,35413,2,0,P|200:184|152:184,1,75
188,280,35713,2,0,P|140:288|116:304,1,75
64,220,36013,6,0,L|40:144,1,75
116,100,36313,1,0,0:0:0:0:
116,100,36463,1,0,0:0:0:0:
156,224,36613,2,0,P|200:236|244:232,1,75
256,148,36913,1,0,0:0:0:0:
344,136,37063,1,0,0:0:0:0:
384,260,37213,6,0,P|392:296|412:336,1,75
488,304,37513,1,0,0:0:0:0:
488,304,37588,1,0,0:0:0:0:
488,304,37663,1,0,0:0:0:0:
324,352,37813,1,0,0:0:0:0:
240,280,37963,1,0,0:0:0:0:
160,352,38113,2,0,P|124:352|52:304,1,112.5
76,272,38413,6,0,L|104:196,1,75
60,120,38713,1,0,0:0:0:0:
172,116,38863,1,0,0:0:0:0:
172,116,38938,1,0,0:0:0:0:
172,116,39013,2,0,L|148:32,1,75
252,92,39313,2,0,L|272:164,2,75
332,48,39763,5,0,0:0:0:0:
428,120,39913,2,0,L|412:204,1,75
452,332,40213,1,0,0:0:0:0:
452,332,40363,1,0,0:0:0:0:
340,340,40513,2,0,P|332:304|352:220,1,112.5
352,208,40813,6,0,L|268:180,1,75
284,84,41113,2,0,L|196:100,1,75
152,176,41413,2,0,L|104:160,3,37.5
188,204,41713,2,0,L|236:196,3,37.5
168,232,42013,6,0,P|168:276|188:320,1,75
268,304,42313,2,0,P|312:320|344:316,2,75
232,220,42763,1,0,0:0:0:0:
208,132,42913,1,0,0:0:0:0:
112,120,43063,1,0,0:0:0:0:
92,216,43213,6,0,L|76:304,1,75
212,216,43513,2,0,B|228:140,1,75
380,120,43813,1,0,0:0:0:0:
384,140,43888,1,0,0:0:0:0:
388,160,43963,1,0,0:0:0:0:
356,244,44113,1,0,0:0:0:0:
400,324,44263,1,0,0:0:0:0:
256,344,44413,6,0,B|216:344|216:344|168:324,1,75
132,256,44713,2,0,B|107:280|107:280|70:295,1,75
8,224,45013,1,0,0:0:0:0:
56,124,45163,1,0,0:0:0:0:
144,148,45313,2,0,P|188:172|252:176,1,112.5
276,184,45613,6,0,L|288:268,1,75
372,292,45913,1,0,0:0:0:0:
452,252,46063,1,0,0:0:0:0:
440,164,46213,2,0,P|408:128|364:108,1,75
296,124,46513,2,0,P|248:104|220:72,1,75
144,64,46813,6,0,L|140:16,2,37.5
92,140,47113,1,0,0:0:0:0:
148,208,47263,1,0,0:0:0:0:
148,208,47338,1,0,0:0:0:0:
148,208,47413,2,0,L|116:296,1,75
192,336,47713,1,0,0:0:0:0:
280,312,47863,1,0,0:0:0:0:
364,344,48013,6,0,P|396:340|448:348,1,75
456,256,48313,2,0,L|468:176,1,75
376,184,48613,1,0,0:0:0:0:
376,184,48763,1,0,0:0:0:0:
288,212,48913,2,0,L|276:252,2,37.5
228,144,49213,6,0,P|176:124|144:124,1,75
157,123,49438,1,0,0:0:0:0:
157,123,49513,1,0,0:0:0:0:
76,164,49663,1,0,0:0:0:0:
20,96,49813,2,0,L|8:52,2,37.5
144,32,50113,2,0,P|196:36|256:56,1,112.5
272,96,50413,6,0,L|264:176,1,75
192,224,50713,2,0,L|156:248,2,37.5
276,256,51013,1,0,0:0:0:0:
360,228,51163,1,0,0:0:0:0:
448,244,51313,2,0,P|448:172|428:124,1,112.5
448,92,51613,6,0,P|392:72|336:32,1,112.5
316,76,51913,2,0,P|284:108|192:144,1,112.5
196,172,52213,2,0,L|224:252,1,75
152,304,52513,2,0,L|172:348,2,37.5
92,236,52813,6,0,P|48:224|20:200,1,75
40,116,53113,1,0,0:0:0:0:
40,116,53263,1,0,0:0:0:0:
128,136,53413,2,0,P|168:148|216:148,1,75
280,104,53713,2,0,L|288:56,6,37.5
352,160,54313,5,0,0:0:0:0:
440,164,54463,1,0,0:0:0:0:
444,76,54613,2,0,P|392:44|348:40,1,75
280,104,54913,2,0,P|272:140|296:244,1,112.5
268,232,55213,6,0,L|168:200,1,75
108,228,55513,1,0,0:0:0:0:
108,228,55663,1,0,0:0:0:0:
160,156,55813,2,0,P|160:100|152:68,1,75
244,60,56113,2,0,L|356:72,1,112.5
392,100,56413,5,0,0:0:0:0:
344,272,56713,1,0,0:0:0:0:
168,240,57013,2,0,B|158:277|158:277|164:324,1,75
252,336,57313,2,0,B|288:336|288:336|352:360,1,75
344,272,57613,5,0,0:0:0:0:
344,272,57763,1,0,0:0:0:0:
316,196,57913,2,0,P|280:200|228:180,1,75
148,180,58213,2,0,P|124:224|96:252,2,75
120,92,58663,1,0,0:0:0:0:
208,84,58813,6,0,L|256:76,2,37.5
300,148,59113,2,0,L|348:140,2,37.5
392,212,59413,2,0,L|440:204,2,37.5
256,264,59713,2,0,P|228:304|236:352,1,75
252,360,59938,1,0,0:0:0:0:
252,360,60013,6,0,P|336:336|424:324,1,150
404,140,60613,2,0,P|412:96|420:56,2,75
324,184,61063,1,0,0:0:0:0:
236,168,61213,6,0,P|184:156|104:164,1,112.5
96,160,61513,2,0,L|80:96,4,37.5
48,236,61963,1,0,0:0:0:0:
136,256,62113,2,0,P|188:252|236:256,1,75
300,252,62413,6,0,L|304:340,1,75
384,284,62713,2,0,L|388:372,1,75
476,260,63013,2,0,P|456:216|416:200,1,75
434,203,63238,1,0,0:0:0:0:
434,203,63313,1,0,0:0:0:0:
344,212,63463,1,0,0:0:0:0:
256,208,63613,6,0,L|276:104,2,75
184,264,64063,1,0,0:0:0:0:
104,156,64213,2,0,L|96:72,1,75
220,80,64513,2,0,P|272:100|288:184,1,112.5
316,188,64813,6,0,L|291:258,1,75
336,336,65113,2,0,L|368:360,2,37.5
248,340,65413,2,0,P|196:344|148:336,1,75
100,288,65713,2,0,L|60:304,2,37.5
168,228,66013,6,0,P|196:200|208:152,1,75
172,84,66313,2,0,L|144:56,2,37.5
260,104,66613,2,0,L|252:64,2,37.5
196,168,66913,2,0,P|136:184|96:168,1,75
200,212,84013,6,0,P|188:160|148:100,1,112.500004291535
312,172,84913,2,0,P|325:226|354:274,1,112.500004291535
204,264,86413,6,0,L|80:260|80:260,1,112.500004291535
108,128,87013,1,0,0:0:0:0:
240,156,87313,2,0,L|260:100,1,56.2500021457673
340,136,87613,2,0,L|388:80,1,56.2500021457673
448,136,87913,2,0,L|512:104,2,56.2500021457673
384,284,88513,2,0,P|390:313|392:348,1,56.2500021457673
468,280,88813,6,0,P|468:224|476:180,1,75
336,216,89113,2,0,P|296:232|252:236,1,75
212,164,89413,1,0,0:0:0:0:
212,164,89563,1,0,0:0:0:0:
132,204,89713,2,0,P|88:184|64:136,1,75
124,80,90013,5,0,0:0:0:0:
264,40,90163,2,0,P|300:124|88:240,1,375
312,340,91213,6,0,P|332:280|304:192,1,150
232,152,91663,1,0,0:0:0:0:
232,152,91813,2,0,P|168:176|132:176,1,75
144,264,92113,2,0,P|200:288|236:292,1,75
296,252,92413,6,0,P|328:224|448:212,1,150
440,344,93013,1,0,0:0:0:0:
392,116,93313,1,0,0:0:0:0:
316,280,93613,6,0,P|177:256|152:132,1,262.5
104,140,94213,2,0,P|52:180|28:264,1,150
204,292,94813,6,0,P|264:288|296:300,2,75
128,340,95263,1,0,0:0:0:0:
128,340,95413,1,0,0:0:0:0:
48,296,95563,1,0,0:0:0:0:
100,192,95713,2,0,P|108:156|104:116,1,75
232,140,96013,6,0,L|332:164,1,75
392,132,96313,2,0,L|416:100,2,37.5
288,60,96613,2,0,P|224:52|148:60,1,112.5
148,60,96913,2,0,L|116:176,1,112.5
168,244,97288,6,0,P|264:248|304:260,1,112.5
324,248,97588,2,0,L|360:152,1,75
276,124,97888,1,0,0:0:0:0:
276,124,97963,1,0,0:0:0:0:
276,124,98038,1,0,0:0:0:0:
188,132,98188,2,0,L|208:240,1,75
204,252,98413,6,0,P|144:280|104:288,1,75
48,224,98713,2,0,P|96:180|112:160,1,75
60,92,99013,2,0,P|40:56|28:16,2,75
144,120,99463,1,0,0:0:0:0:
232,120,99613,6,0,L|212:208,1,75
308,164,99913,2,0,L|288:252,1,75
384,208,100213,2,0,L|364:296,1,75
444,324,100513,1,0,0:0:0:0:
444,324,100663,1,0,0:0:0:0:
444,324,100813,6,0,L|460:250,1,75
428,168,101113,2,0,P|376:184|336:184,1,75
272,148,101413,2,0,L|264:108,2,37.5
212,216,101713,2,0,P|216:264|232:304,1,75
144,328,102013,6,0,B|84:296|84:296|80:256|40:224,1,150
256,104,102613,2,0,B|284:96|328:116|328:116|384:104,1,112.5
408,124,102913,6,0,P|404:208|420:280,1,150
328,332,103363,1,0,0:0:0:0:
328,332,103438,1,0,0:0:0:0:
328,332,103513,2,0,P|268:324|224:324,1,75
260,212,103813,2,0,L|276:136,1,75
208,76,104113,1,0,0:0:0:0:
120,96,104263,1,0,0:0:0:0:
108,184,104413,6,0,P|148:192|204:180,1,75
264,156,104713,1,0,0:0:0:0:
292,240,104863,1,0,0:0:0:0:
380,228,105013,2,0,P|408:184|412:152,1,75
480,220,105313,2,0,P|464:276|460:320,1,75
456,312,105538,1,0,0:0:0:0:
452,332,105613,6,0,P|400:348|364:340,1,75
280,304,105913,1,0,0:0:0:0:
140,356,106063,1,0,0:0:0:0:
140,356,106138,1,0,0:0:0:0:
140,356,106213,2,0,P|124:320|116:272,1,75
160,156,106513,2,0,P|176:196|180:240,1,75
272,236,106813,6,0,P|324:236|368:208,1,75
436,156,107113,2,0,L|416:112,2,37.5
440,272,107413,2,0,P|408:328|400:360,1,75
380,352,107638,1,0,0:0:0:0:
348,352,107713,6,0,B|304:324|280:288|280:288|216:304,1,150
128,328,108163,1,0,0:0:0:0:
44,300,108313,2,0,P|28:252|48:152,1,150
144,80,108763,2,0,P|160:136|132:244,1,150
212,288,109213,5,0,0:0:0:0:
296,252,109363,1,0,0:0:0:0:
304,240,109438,1,0,0:0:0:0:
312,228,109513,1,0,0:0:0:0:
400,224,109663,1,0,0:0:0:0:
460,156,109813,2,0,P|440:104|432:64,1,75
348,100,110113,2,0,B|272:104|272:104|216:80,1,112.5
196,72,110413,5,0,0:0:0:0:
120,200,110638,1,0,0:0:0:0:
120,200,110713,2,0,P|120:272|104:304,1,75
208,328,111013,2,0,P|216:288|228:256,1,75
316,232,111313,2,0,L|312:184,3,37.5
320,248,111613,6,0,P|328:284|352:324,1,75
416,228,111913,2,0,P|404:188|308:128,1,150
240,168,112363,1,0,0:0:0:0:
156,132,112513,2,0,L|180:40,1,75
174,59,112738,1,0,0:0:0:0:
174,59,112813,5,0,0:0:0:0:
264,40,112963,1,0,0:0:0:0:
324,140,113113,2,0,P|392:160|424:148,1,75
444,232,113413,2,0,L|460:332,2,75
356,228,113863,1,0,0:0:0:0:
292,288,114013,5,0,0:0:0:0:
204,308,114163,1,0,0:0:0:0:
128,356,114313,1,0,0:0:0:0:
40,348,114463,1,0,0:0:0:0:
56,260,114613,2,0,P|68:208|64:176,1,75
64,168,114838,1,0,0:0:0:0:
60,148,114913,2,0,L|132:128,1,75
228,144,115213,6,0,P|248:108|252:72,2,75
272,232,115663,1,0,0:0:0:0:
284,248,115738,1,0,0:0:0:0:
296,264,115813,2,0,L|272:348,1,75
368,316,116113,2,0,L|388:243,1,75
420,144,116413,6,0,P|376:132|316:140,1,75
244,140,116713,2,0,L|236:100,2,37.5
172,216,117013,2,0,B|160:296|160:296|188:328|192:372,1,150
72,176,117613,6,0,P|60:124|68:84,1,75
152,44,117913,1,0,0:0:0:0:
228,116,118063,1,0,0:0:0:0:
248,120,118138,1,0,0:0:0:0:
268,124,118213,2,0,L|360:96,2,75
300,232,118663,1,0,0:0:0:0:
248,304,118813,6,0,B|196:292|172:252|172:252|100:264,1,150
256,192,119263,12,0,120013,0:0:0:0:
276,160,120163,5,0,0:0:0:0:
276,160,120238,1,0,0:0:0:0:
276,160,120313,2,0,L|376:200,1,75
432,220,120613,1,0,0:0:0:0:
356,272,120763,1,0,0:0:0:0:
440,308,120913,1,0,0:0:0:0:
368,364,121063,1,0,0:0:0:0:
288,324,121213,6,0,P|248:312|216:308,1,75
128,212,121513,2,0,B|184:228|232:224,1,75
288,212,121813,1,0,0:0:0:0:
288,212,121888,1,0,0:0:0:0:
288,212,121963,1,0,0:0:0:0:
220,80,122113,2,0,P|160:84|120:136,1,112.5
100,112,122413,5,0,0:0:0:0:
224,300,122713,1,0,0:0:0:0:
336,104,123013,1,0,0:0:0:0:
160,184,123313,2,0,P|128:216|112:264,1,75
224,300,123613,6,0,P|252:264|260:220,1,75
244,148,123913,1,0,0:0:0:0:
244,148,124063,1,0,0:0:0:0:
332,156,124213,2,0,L|368:140,2,37.5
320,280,124513,2,0,P|324:316|360:360,1,75
