osu file format v14

[General]
AudioFilename: lolipusher.mp3
AudioLeadIn: 0
PreviewTime: 77164
Countdown: 0
SampleSet: Normal
StackLeniency: 0.2
Mode: 0
LetterboxInBreaks: 0
WidescreenStoryboard: 0

[Editor]
Bookmarks: 38464,76864,112864,153664
DistanceSpacing: 0.5
BeatDivisor: 8
GridSize: 4
TimelineZoom: 5.399997

[Metadata]
Title:why as soon as we became so close, we have to say goodbye?
TitleUnicode:why as soon as we became so close, we have to say goodbye?
Artist:Lolipusher
ArtistUnicode:Lolipusher
Creator:Auxent
Version:broken.
Source:
Tags:breakcore idm tears waqs i want to be dead
BeatmapID:904331
BeatmapSetID:417642

[Difficulty]
HPDrainRate:7.2
CircleSize:4.2
OverallDifficulty:7.2
ApproachRate:8.8
SliderMultiplier:1.6
SliderTickRate:1

[Events]
//Background and Video events
0,0,"bg.jpg",0,0
//Break Periods
//Storyboard Layer 0 (Background)
//Storyboard Layer 1 (Fail)
//Storyboard Layer 2 (Pass)
//Storyboard Layer 3 (Foreground)
//Storyboard Sound Samples

[TimingPoints]
38464,300,4,1,0,50,1,0
42964,-66.6666666666667,4,1,0,50,0,0
43264,-100,4,1,0,50,0,0
46864,-66.6666666666667,4,1,0,50,0,0
47614,-100,4,1,0,50,0,0
54064,-66.6666666666667,4,1,0,50,0,0
54964,-100,4,1,0,50,0,0
61114,-66.6666666666667,4,1,0,50,0,0
61864,-100,4,1,0,50,0,0
77164,-133.333333333333,4,2,0,10,0,0
115264,-133.333333333333,4,1,0,50,0,0
117664,-100,4,1,0,50,0,0
153664,-133.333333333333,4,2,0,10,0,0

[Colours]
Combo1 : 88,88,88
Combo2 : 128,128,128
Combo3 : 192,192,192

[HitObjects]
128,268,38464,6,0,B|136:224|136:224|124:180,1,80
220,144,38764,2,0,L|184:60,2,80
323,155,39214,1,0,0:0:0:0:
323,155,39289,1,0,0:0:0:0:
323,155,39364,1,0,0:0:0:0:
402,222,39514,1,0,0:0:0:0:
348,336,39664,6,0,P|296:340|264:332,1,80
240,320,39889,1,0,0:0:0:0:
208,312,39964,1,0,0:0:0:0:
176,308,40039,1,0,0:0:0:0:
144,312,40114,1,0,0:0:0:0:
56,260,40264,1,0,0:0:0:0:
92,164,40414,1,0,0:0:0:0:
44,72,40564,2,0,L|36:52,6,20
92,88,40864,6,0,P|140:100|164:140,1,80
188,165,41089,1,0,0:0:0:0:
224,202,41164,2,0,L|224:242,2,40
384,112,41464,2,0,L|420:104,6,20
312,76,41764,2,0,L|292:36,3,40
224,202,42064,2,0,L|188:210,6,20
299,218,42401,2,0,L|319:258,3,40
383,198,42701,2,0,L|451:162,1,60
312,76,42964,6,0,P|268:112|136:84,1,180.000006866455
91,152,43264,6,0,P|131:188|135:268,1,120
117,297,43564,1,0,0:0:0:0:
240,332,43714,1,0,0:0:0:0:
332,284,43864,2,0,P|340:268|340:252,4,20
364,324,44089,2,0,L|412:336,3,40
460,248,44464,6,0,P|464:200|443:115,1,120
384,208,44764,2,0,P|375:160|327:90,1,120
296,192,45064,2,0,P|275:148|209:96,1,120
200,177,45364,2,0,P|172:162|148:118,1,80
42,150,45664,6,0,P|48:186|38:239,1,80
122,294,45964,2,0,P|116:258|126:205,1,80
250,119,46264,2,0,L|235:92,4,20
347,156,46564,2,0,P|384:166|425:154,1,80
301,309,46864,6,0,L|117:293,1,180.000006866455
75,230,47164,1,0,0:0:0:0:
319,236,47314,6,0,L|186:226,1,120.000004577637
75,230,47614,1,0,0:0:0:0:
51,128,47764,1,0,0:0:0:0:
75,102,47839,1,0,0:0:0:0:
107,86,47914,1,0,0:0:0:0:
142,79,47989,1,0,0:0:0:0:
176,89,48064,6,0,L|262:99,1,80
342,157,48364,1,0,0:0:0:0:
429,100,48514,1,0,0:0:0:0:
441,133,48589,1,0,0:0:0:0:
454,166,48664,1,0,0:0:0:0:
466,199,48739,1,0,0:0:0:0:
480,231,48814,1,0,0:0:0:0:
397,294,48964,2,0,B|365:309|365:309|313:308,1,80
341,156,49264,6,0,B|297:156|297:156|265:171,1,80
239,196,49489,5,0,0:0:0:0:
206,210,49564,1,0,0:0:0:0:
170,210,49639,1,0,0:0:0:0:
134,210,49714,1,0,0:0:0:0:
45,155,49864,1,0,0:0:0:0:
32,188,49939,1,0,0:0:0:0:
18,221,50014,1,0,0:0:0:0:
30,254,50089,1,0,0:0:0:0:
47,285,50164,2,0,L|35:307,6,20
126,283,50464,6,0,L|215:290,1,80
318,202,50764,2,0,L|229:195,1,80
160,124,51064,1,0,0:0:0:0:
152,88,51139,1,0,0:0:0:0:
164,52,51214,1,0,0:0:0:0:
192,28,51289,1,0,0:0:0:0:
228,20,51364,1,0,0:0:0:0:
264,28,51439,1,0,0:0:0:0:
296,44,51514,1,0,0:0:0:0:
324,68,51589,1,0,0:0:0:0:
348,96,51664,6,0,P|388:120|432:124,1,80
484,172,51889,1,0,0:0:0:0:
484,172,51964,2,0,L|480:216,1,40
416,260,52114,1,0,0:0:0:0:
316,200,52264,2,0,P|320:168|312:144,2,40
272,232,52489,1,0,0:0:0:0:
228,256,52564,2,0,B|184:268|184:268|136:256,1,80
48,236,52864,6,0,L|64:148,1,80
123,73,53164,1,0,0:0:0:0:
216,112,53314,1,0,0:0:0:0:
252,124,53389,1,0,0:0:0:0:
288,120,53464,1,0,0:0:0:0:
320,108,53539,1,0,0:0:0:0:
352,96,53614,1,0,0:0:0:0:
444,144,53764,2,0,L|496:140,2,40
400,172,53989,1,0,0:0:0:0:
361,210,54064,1,0,0:0:0:0:
277,278,54214,6,0,L|146:270,1,120.000004577637
96,104,54514,2,0,L|227:112,2,120.000004577637
36,145,54964,6,0,L|28:176,6,20
97,104,55264,6,0,L|155:47,1,80
257,54,55564,2,0,L|199:111,1,80
156,204,55864,2,0,L|168:230,2,20
33,240,56051,1,0,0:0:0:0:
33,240,56164,2,0,L|106:256,1,60
156,297,56389,1,0,0:0:0:0:
235,307,56464,6,0,L|268:316,4,20
190,213,56764,2,0,B|197:167|197:167|183:130,2,80
153,249,57139,1,0,0:0:0:0:
116,285,57214,2,0,B|109:331|109:331|123:368,2,80
100,166,57664,6,0,L|88:81,1,80
179,35,57964,1,0,0:0:0:0:
210,51,58039,1,0,0:0:0:0:
245,55,58114,1,0,0:0:0:0:
348,41,58264,1,0,0:0:0:0:
421,114,58414,1,0,0:0:0:0:
437,145,58489,1,0,0:0:0:0:
441,180,58564,1,0,0:0:0:0:
435,215,58639,1,0,0:0:0:0:
419,247,58714,1,0,0:0:0:0:
312,188,58864,6,0,L|264:189,2,40
353,219,59089,1,0,0:0:0:0:
353,219,59164,2,0,P|350:260|371:296,1,80
308,346,59389,1,0,0:0:0:0:
274,333,59464,1,0,0:0:0:0:
238,329,59539,1,0,0:0:0:0:
202,335,59614,1,0,0:0:0:0:
102,303,59764,2,0,P|86:299|72:304,6,20
148,278,60064,5,0,0:0:0:0:
244,181,60214,1,0,0:0:0:0:
340,84,60364,1,0,0:0:0:0:
365,109,60439,1,0,0:0:0:0:
390,134,60514,1,0,0:0:0:0:
415,159,60589,1,0,0:0:0:0:
440,184,60664,2,0,L|440:277,1,80
361,332,60964,1,0,0:0:0:0:
274,277,61114,6,0,L|235:258,4,30.0000011444092
325,213,61339,2,0,L|304:175,6,30.0000011444092
440,184,61714,2,0,L|436:120,2,60.0000022888184
491,275,62014,5,0,0:0:0:0:
399,325,62164,1,0,0:0:0:0:
361,332,62239,1,0,0:0:0:0:
325,329,62314,2,0,L|303:352,2,20
355,253,62464,6,0,P|358:203|347:164,1,80
253,137,62764,2,0,P|250:187|261:226,1,80
185,292,63064,1,0,0:0:0:0:
83,268,63214,1,0,0:0:0:0:
35,175,63364,1,0,0:0:0:0:
42,139,63439,1,0,0:0:0:0:
57,107,63514,1,0,0:0:0:0:
79,78,63589,1,0,0:0:0:0:
107,56,63664,1,0,0:0:0:0:
140,40,63739,1,0,0:0:0:0:
175,32,63814,1,0,0:0:0:0:
211,31,63889,1,0,0:0:0:0:
246,40,63964,6,0,P|295:55|336:56,1,80
359,56,64189,1,0,0:0:0:0:
395,56,64264,1,0,0:0:0:0:
431,56,64339,1,0,0:0:0:0:
467,56,64414,1,0,0:0:0:0:
481,190,64564,6,0,L|506:215,6,20
404,200,64864,6,0,L|462:265,2,80
304,168,65314,1,0,0:0:0:0:
223,234,65464,1,0,0:0:0:0:
189,247,65539,1,0,0:0:0:0:
156,262,65614,1,0,0:0:0:0:
124,278,65689,1,0,0:0:0:0:
90,289,65764,2,0,L|69:259,6,20
87,324,66064,5,0,0:0:0:0:
388,268,66364,1,0,0:0:0:0:
87,179,66664,1,0,0:0:0:0:
236,123,66814,1,0,0:0:0:0:
386,70,66964,2,0,L|417:70,6,20
349,140,67264,5,0,0:0:0:0:
349,140,67414,1,0,0:0:0:0:
393,223,67564,2,0,P|394:266|414:307,1,80
480,245,67864,1,0,0:0:0:0:
480,209,67939,1,0,0:0:0:0:
473,174,68014,1,0,0:0:0:0:
457,141,68089,1,0,0:0:0:0:
426,122,68164,2,0,L|335:143,1,80
209,101,68464,6,0,L|165:77,2,40
310,202,68764,2,0,L|354:226,2,40
190,284,69064,2,0,L|146:260,2,40
277,340,69364,1,0,0:0:0:0:
379,319,69514,2,0,L|432:332,1,40
464,306,69664,6,0,L|480:281,4,20
432,206,69964,2,0,L|453:166,4,40
347,232,70414,1,0,0:0:0:0:
266,196,70564,1,0,0:0:0:0:
230,192,70639,1,0,0:0:0:0:
195,201,70714,1,0,0:0:0:0:
164,220,70789,1,0,0:0:0:0:
137,241,70864,1,0,0:0:0:0:
103,230,70939,1,0,0:0:0:0:
82,202,71014,1,0,0:0:0:0:
82,166,71089,1,0,0:0:0:0:
95,133,71164,6,0,L|87:105,6,20
170,103,71464,2,0,L|261:109,1,80
295,83,71689,1,0,0:0:0:0:
338,54,71764,2,0,L|429:60,1,80
407,162,72064,6,0,P|425:199|423:254,1,80
396,279,72289,1,0,0:0:0:0:
325,241,72364,2,0,P|322:199|292:153,1,80
257,145,72589,1,0,0:0:0:0:
221,145,72664,1,0,0:0:0:0:
185,145,72739,1,0,0:0:0:0:
149,145,72814,1,0,0:0:0:0:
113,145,72889,1,0,0:0:0:0:
77,145,72964,2,0,L|77:229,1,80
196,331,73264,6,0,P|238:343|283:330,1,80
325,241,73564,1,0,0:0:0:0:
418,195,73714,2,0,L|447:203,4,20
384,95,74014,1,0,0:0:0:0:
288,54,74164,2,0,L|280:23,6,20
250,90,74464,6,0,P|240:123|205:155,1,80
133,182,74764,2,0,L|101:176,3,20
185,242,74989,1,0,0:0:0:0:
213,263,75064,1,0,0:0:0:0:
248,270,75139,1,0,0:0:0:0:
283,265,75214,1,0,0:0:0:0:
313,245,75289,1,0,0:0:0:0:
337,218,75364,2,0,L|373:221,4,20
337,97,75664,6,0,L|353:41,2,40
241,137,75964,2,0,L|213:133,4,20
337,218,76264,2,0,L|365:222,4,20
151,256,76564,2,0,L|123:252,8,20
256,192,77164,12,0,78964,0:0:0:0:
389,299,79864,5,0,0:0:0:0:
389,298,80464,2,0,P|420:134|268:65,1,360.000013732911
230,153,81664,1,0,0:0:0:0:
230,153,82264,1,0,0:0:0:0:
230,153,82864,1,0,0:0:0:0:
154,284,83764,5,0,0:0:0:0:
154,284,84064,2,0,B|181:219|136:175|136:175|81:108|156:34|255:77|229:158,1,360.000013732911
303,216,85264,2,0,B|339:173|315:108|315:108|425:87|481:160|460:252,1,360.000013732911
384,303,86464,2,0,P|352:311|318:302,1,60.0000022888184
280,291,86764,6,0,P|233:253|391:111,2,360.000013732911
361,240,88864,2,0,B|428:230|512:237|516:308|478:356|408:356|394:303|394:303|427:231|472:113,1,480.000018310548
402,50,90364,1,0,0:0:0:0:
402,50,91264,6,0,B|333:110|296:50|262:0|173:59,2,240.000009155274
402,50,93364,1,0,0:0:0:0:
402,50,93664,6,0,B|397:107|440:144|440:144|377:152|336:258|433:322|494:278|486:226,1,360.000013732911
452,350,94864,2,0,P|405:345|312:195,1,240.000009155274
257,122,95764,1,0,0:0:0:0:
257,122,96064,6,0,B|219:151|146:161|146:161|90:161|41:115|67:33|187:32|218:76|194:138|165:198|176:248,1,480.000018310548
452,329,98164,1,0,0:0:0:0:
452,329,98464,6,0,P|407:327|363:166,1,240.000009155274
71,325,99664,2,0,P|173:278|163:166,2,240.000009155274
71,325,101464,1,0,0:0:0:0:
71,325,102064,1,0,0:0:0:0:
71,325,102964,1,0,0:0:0:0:
71,325,103264,6,0,B|124:345|168:301|168:301|212:349|298:326|319:243|273:188|220:194,1,360.000013732911
298,141,104464,2,0,P|357:240|311:356,1,240.000009155274
218,258,105364,1,0,0:0:0:0:
218,258,105664,6,0,B|220:193|157:160|157:160|74:195|21:114|55:63,1,300.000011444092
126,87,106864,2,0,B|181:56|245:86|275:143|275:143|329:70|329:70|383:104|420:72,1,360.000013732911
414,76,108664,1,0,0:0:0:0:
414,76,109564,1,0,0:0:0:0:
414,76,109864,2,0,P|428:134|410:196,2,120.000004577637
225,38,111064,5,0,0:0:0:0:
225,38,111664,2,0,P|108:71|238:171,1,360.000013732911
316,131,112864,6,0,L|415:139,1,90.0000034332277
431,167,113164,2,0,P|420:202|428:230,1,60.0000022888184
216,316,113764,6,0,L|117:308,1,90.0000034332277
101,280,114064,2,0,P|112:245|104:217,1,60.0000022888184
165,170,114664,2,0,L|149:146,14,15.0000005722046
195,194,115264,6,0,P|253:180|316:200,1,120.000004577637
435,103,115864,1,0,0:0:0:0:
465,255,116164,1,0,0:0:0:0:
465,255,116314,1,0,0:0:0:0:
465,255,116464,6,0,L|401:282,1,60.0000022888184
331,283,116764,2,0,P|314:242|315:220,2,60.0000022888184
182,332,117364,1,0,0:0:0:0:
115,291,117514,1,0,0:0:0:0:
167,156,117664,6,0,P|212:161|251:153,1,80
325,87,117964,1,0,0:0:0:0:
359,98,118039,1,0,0:0:0:0:
394,99,118114,1,0,0:0:0:0:
429,94,118189,1,0,0:0:0:0:
464,87,118264,2,0,L|484:167,1,80
461,193,118489,1,0,0:0:0:0:
445,225,118564,1,0,0:0:0:0:
441,260,118639,1,0,0:0:0:0:
459,291,118714,1,0,0:0:0:0:
298,345,118864,5,0,0:0:0:0:
220,303,119014,2,0,L|186:306,4,20
274,232,119276,1,0,0:0:0:0:
299,206,119351,1,0,0:0:0:0:
324,180,119426,1,0,0:0:0:0:
344,150,119501,1,0,0:0:0:0:
369,124,119576,1,0,0:0:0:0:
394,98,119651,1,0,0:0:0:0:
303,63,119764,2,0,L|285:42,4,20
193,112,120064,6,0,L|156:113,6,20
217,190,120364,2,0,L|200:201,6,20
283,237,120664,1,0,0:0:0:0:
226,324,120814,1,0,0:0:0:0:
192,335,120889,1,0,0:0:0:0:
156,335,120964,1,0,0:0:0:0:
122,323,121039,1,0,0:0:0:0:
88,310,121114,2,0,L|52:317,2,20
119,235,121264,5,0,0:0:0:0:
126,199,121339,1,0,0:0:0:0:
119,163,121414,1,0,0:0:0:0:
103,130,121489,1,0,0:0:0:0:
77,104,121564,2,0,L|38:98,2,40
174,45,121864,5,0,0:0:0:0:
310,349,122164,1,0,0:0:0:0:
408,244,122464,2,0,L|437:246,1,20
400,215,122539,2,0,L|426:202,1,20
380,191,122614,2,0,L|396:166,1,20
350,178,122689,2,0,L|352:149,1,20
317,180,122764,2,0,L|315:160,1,20
287,193,122839,2,0,L|275:176,1,20
267,217,122914,2,0,L|249:208,1,20
259,246,122989,2,0,L|239:247,1,20
205,269,123064,5,0,0:0:0:0:
179,294,123139,1,0,0:0:0:0:
146,308,123214,2,0,L|112:306,4,20
136,221,123514,1,0,0:0:0:0:
136,221,123589,1,0,0:0:0:0:
136,221,123664,6,0,P|139:173|126:136,1,80
211,78,123964,2,0,P|208:126|221:163,1,80
330,238,124264,2,0,P|341:277|337:316,1,80
418,252,124565,2,0,P|407:213|412:174,1,80
354,88,124864,5,0,0:0:0:0:
264,141,125014,1,0,0:0:0:0:
160,148,125164,1,0,0:0:0:0:
125,138,125239,1,0,0:0:0:0:
90,126,125314,1,0,0:0:0:0:
41,235,125464,2,0,L|32:252,2,20
197,250,125689,2,0,L|206:267,4,20
264,141,125989,1,0,0:0:0:0:
354,88,126139,6,0,L|388:86,3,20
430,107,126326,2,0,L|463:115,3,20
381,179,126589,2,0,P|371:227|390:269,1,80
400,285,126814,1,0,0:0:0:0:
424,311,126889,1,0,0:0:0:0:
292,338,127039,2,0,L|264:337,4,20
259,263,127264,6,0,P|231:225|224:193,1,80
177,305,127564,2,0,P|133:286|111:261,1,80
58,154,127864,1,0,0:0:0:0:
129,57,128014,1,0,0:0:0:0:
129,57,128089,1,0,0:0:0:0:
129,57,128164,1,0,0:0:0:0:
249,57,128314,1,0,0:0:0:0:
365,167,128464,6,0,P|355:208|361:258,1,80
449,295,128764,2,0,P|459:254|453:204,1,80
372,88,129064,2,0,P|362:129|368:179,1,80
456,216,129364,2,0,P|466:175|460:125,1,80
433,94,129589,1,0,0:0:0:0:
386,70,129664,6,0,L|301:85,1,80
261,177,129964,2,0,L|339:163,1,80
398,249,130264,1,0,0:0:0:0:
363,257,130339,1,0,0:0:0:0:
328,267,130414,1,0,0:0:0:0:
293,275,130489,1,0,0:0:0:0:
257,281,130564,2,0,L|172:277,1,80
83,147,130864,6,0,L|70:114,6,20
110,169,131164,1,0,0:0:0:0:
144,178,131239,1,0,0:0:0:0:
179,173,131314,1,0,0:0:0:0:
211,157,131389,1,0,0:0:0:0:
241,138,131464,1,0,0:0:0:0:
273,121,131539,1,0,0:0:0:0:
308,116,131614,1,0,0:0:0:0:
343,118,131689,1,0,0:0:0:0:
376,131,131764,2,0,L|410:130,1,20
395,170,131839,2,0,L|427:180,1,20
389,208,131914,2,0,L|415:229,1,20
367,236,131989,2,0,L|384:264,1,20
366,292,132064,5,0,0:0:0:0:
265,320,132214,2,0,L|264:351,2,20
194,280,132364,2,0,P|159:288|110:274,1,80
163,184,132664,2,0,P|198:176|247:190,2,80
66,146,133114,1,0,0:0:0:0:
57,180,133189,1,0,0:0:0:0:
49,215,133264,6,0,L|61:306,1,80
173,263,133564,2,0,L|161:172,1,80
272,138,133864,2,0,L|284:229,1,80
368,276,134164,1,0,0:0:0:0:
457,223,134314,2,0,L|493:228,2,20
415,154,134464,6,0,P|427:113|421:62,1,80
323,103,134764,1,0,0:0:0:0:
342,205,134914,1,0,0:0:0:0:
347,240,134989,1,0,0:0:0:0:
339,275,135064,1,0,0:0:0:0:
246,323,135214,1,0,0:0:0:0:
145,294,135364,1,0,0:0:0:0:
41,305,135514,1,0,0:0:0:0:
101,157,135664,6,0,B|112:115|112:115|97:63,1,80
184,144,135964,1,0,0:0:0:0:
174,178,136039,1,0,0:0:0:0:
182,213,136114,1,0,0:0:0:0:
199,245,136189,1,0,0:0:0:0:
217,275,136264,1,0,0:0:0:0:
305,329,136414,2,0,L|361:332,1,40
407,279,136564,2,0,L|430:278,6,20
348,223,136864,6,0,P|341:178|354:130,1,80
361,110,137089,1,0,0:0:0:0:
309,49,137164,2,0,L|320:32,2,20
230,49,137351,1,0,0:0:0:0:
157,83,137426,2,0,L|134:77,2,20
144,160,137576,1,0,0:0:0:0:
138,242,137651,2,0,L|120:251,7,20
290,298,138064,6,0,L|370:306,1,80
416,281,138289,1,0,0:0:0:0:
463,260,138364,2,0,L|471:180,1,80
400,104,138664,2,0,L|392:184,1,80
290,298,138964,2,0,L|288:335,6,20
245,271,139264,6,0,L|111:295,1,120
76,280,139564,2,0,P|55:251|49:194,1,80
74,163,139789,1,0,0:0:0:0:
94,115,139864,2,0,L|74:86,6,20
165,150,140164,1,0,0:0:0:0:
198,162,140239,1,0,0:0:0:0:
233,160,140314,1,0,0:0:0:0:
264,143,140389,1,0,0:0:0:0:
296,127,140464,1,0,0:0:0:0:
331,121,140539,1,0,0:0:0:0:
366,124,140614,1,0,0:0:0:0:
396,142,140689,1,0,0:0:0:0:
416,171,140764,1,0,0:0:0:0:
420,206,140839,1,0,0:0:0:0:
401,236,140914,1,0,0:0:0:0:
369,253,140989,1,0,0:0:0:0:
333,257,141064,6,0,P|283:253|250:262,1,80
188,307,141289,1,0,0:0:0:0:
110,327,141364,2,0,L|85:329,4,20
145,169,141664,6,0,P|146:114|128:80,1,80
253,201,141964,2,0,P|252:256|270:290,1,80
284,305,142189,1,0,0:0:0:0:
318,315,142264,1,0,0:0:0:0:
353,316,142339,1,0,0:0:0:0:
387,304,142414,1,0,0:0:0:0:
476,171,142564,2,0,L|482:82,1,80
445,53,142789,1,0,0:0:0:0:
445,53,142864,6,0,P|397:68|358:65,1,80
145,169,143164,2,0,P|193:184|232:181,1,80
317,225,143464,2,0,L|352:236,6,20
354,262,143764,2,0,L|389:273,6,20
399,301,144064,5,0,0:0:0:0:
472,206,144214,1,0,0:0:0:0:
421,97,144364,1,0,0:0:0:0:
388,112,144439,1,0,0:0:0:0:
352,118,144514,1,0,0:0:0:0:
316,115,144589,1,0,0:0:0:0:
281,105,144664,2,0,P|228:98|192:101,1,80
165,103,144889,1,0,0:0:0:0:
131,115,144964,1,0,0:0:0:0:
101,135,145039,1,0,0:0:0:0:
78,162,145114,1,0,0:0:0:0:
179,208,145264,6,0,L|247:269,1,80
340,242,145564,1,0,0:0:0:0:
374,230,145639,1,0,0:0:0:0:
408,219,145714,1,0,0:0:0:0:
455,85,145864,1,0,0:0:0:0:
421,97,145939,1,0,0:0:0:0:
387,108,146014,1,0,0:0:0:0:
352,118,146089,1,0,0:0:0:0:
318,129,146164,1,0,0:0:0:0:
283,139,146239,2,0,L|269:182,2,40
221,85,146464,6,0,L|194:162,1,80
99,288,146764,2,0,L|126:211,1,80
111,179,146989,1,0,0:0:0:0:
85,153,147064,1,0,0:0:0:0:
59,127,147139,1,0,0:0:0:0:
33,101,147214,1,0,0:0:0:0:
113,34,147364,2,0,L|175:98,1,80
263,220,147664,6,0,L|277:245,6,20
309,153,147964,2,0,L|335:156,6,20
240,91,148264,2,0,L|214:88,6,20
330,59,148601,1,0,0:0:0:0:
362,74,148676,1,0,0:0:0:0:
387,99,148751,1,0,0:0:0:0:
429,220,148864,6,0,P|389:215|349:219,1,80
311,227,149089,1,0,0:0:0:0:
275,230,149164,1,0,0:0:0:0:
240,220,149239,1,0,0:0:0:0:
205,228,149314,1,0,0:0:0:0:
92,188,149464,2,0,B|97:147|97:147|84:108,1,80
166,44,149764,2,0,B|161:85|161:85|174:124,1,80
336,156,150064,5,0,0:0:0:0:
386,240,150214,2,0,L|411:264,2,20
314,302,150364,1,0,0:0:0:0:
223,304,150514,2,0,L|189:308,2,20
205,228,150664,1,0,0:0:0:0:
217,194,150739,1,0,0:0:0:0:
222,158,150814,1,0,0:0:0:0:
208,68,150964,6,0,L|226:45,1,20
180,59,151039,2,0,L|189:31,1,20
150,58,151114,2,0,L|150:29,1,20
120,65,151189,2,0,L|110:37,1,20
91,80,151264,6,0,P|97:170|68:238,1,160
71,233,151864,1,0,0:0:0:0:
258,323,152164,2,0,P|303:317|346:325,1,80
430,276,152464,6,0,L|461:190,2,80
329,245,152914,1,0,0:0:0:0:
225,247,153064,2,0,L|199:256,4,20
267,177,153289,2,0,L|277:130,1,40
219,50,153514,1,0,0:0:0:0:
256,192,153664,12,0,155764,0:0:0:0:
256,311,156364,5,0,0:0:0:0:
256,311,156664,2,0,P|210:318|170:168,1,240.000009155274
258,115,157564,2,0,P|301:130|382:115,1,120.000004577637
445,200,158164,1,0,0:0:0:0:
387,288,158464,6,0,P|342:181|425:93,1,240.000009155274
414,95,159664,1,0,0:0:0:0:
414,95,160264,1,0,0:0:0:0:
414,95,160564,6,0,P|425:162|282:192,1,240.000009155274
212,122,161464,2,0,P|102:118|86:226,1,240.000009155274
154,310,162364,1,0,0:0:0:0:
252,266,162664,1,0,0:0:0:0:
345,319,162964,6,0,L|378:199,1,120.000004577637
343,160,163414,1,0,0:0:0:0:
299,128,163564,2,0,B|249:92|180:112,1,120.000004577637
184,110,164464,1,0,0:0:0:0:
184,110,165064,2,0,P|196:159|170:232,1,120.000004577637
176,224,165964,5,0,0:0:0:0:
176,224,166264,2,0,B|247:247|282:199|282:199|322:253|400:216,1,240.000009155274
470,145,167164,1,0,0:0:0:0:
474,134,167464,1,0,0:0:0:0:
479,123,167764,6,0,L|347:109,1,120.000004577637
309,129,168214,1,0,0:0:0:0:
261,154,168364,2,0,L|129:140,1,120.000004577637
141,141,169264,1,0,0:0:0:0:
141,141,169864,2,0,P|145:196|119:255,1,120.000004577637
318,339,170764,2,0,P|314:284|340:225,1,120.000004577637
257,25,171664,1,0,0:0:0:0:
257,37,171964,1,0,0:0:0:0:
257,48,172264,1,0,0:0:0:0:
257,60,172564,1,0,0:0:0:0:
