osu file format v14

[General]
AudioFilename: Lokoise - Je me give.mp3
AudioLeadIn: 0
PreviewTime: -1
Countdown: 0
SampleSet: None
StackLeniency: 0.7
Mode: 0
LetterboxInBreaks: 1
WidescreenStoryboard: 1

[Editor]
DistanceSpacing: 1
BeatDivisor: 3
GridSize: 4
TimelineZoom: 1

[Metadata]
Title:Je me give
TitleUnicode:Je me give
Artist:Lokoise
ArtistUnicode:Lokoise
Creator:swarm 026
Version:Normal
Source:
Tags:
BeatmapID:746174
BeatmapSetID:337225

[Difficulty]
HPDrainRate:7
CircleSize:3
OverallDifficulty:5
ApproachRate:5
SliderMultiplier:1.4
SliderTickRate:1

[Events]
//Background and Video events
0,0,"maxresdefault.jpg",0,0
//Break Periods
//Storyboard Layer 0 (Background)
//Storyboard Layer 1 (Fail)
//Storyboard Layer 2 (Pass)
//Storyboard Layer 3 (Foreground)
//Storyboard Sound Samples

[TimingPoints]
907.689655172414,476.114902396445,4,1,0,100,1,0

[Colours]
Combo1 : 0,128,255
Combo2 : 0,202,0
Combo3 : 255,255,0
Combo4 : 242,24,57

[HitObjects]
368,96,8049,5,0,0:0:0:0:
244,148,8525,1,0,0:0:0:0:
192,268,9001,1,0,0:0:0:0:
328,256,9477,1,0,0:0:0:0:
280,136,9953,1,0,0:0:0:0:
156,156,10429,1,0,0:0:0:0:
312,108,10906,6,0,L|44:264,1,280
100,180,12175,1,0,0:0:0:0:
128,136,12334,1,0,0:0:0:0:
284,132,12810,5,0,0:0:0:0:
260,220,13127,1,0,0:0:0:0:
208,232,13286,1,0,0:0:0:0:
116,224,13604,1,0,0:0:0:0:
56,208,13762,1,0,0:0:0:0:
60,124,14080,1,0,0:0:0:0:
108,100,14238,1,0,0:0:0:0:
272,144,14873,1,0,0:0:0:0:
16,120,15825,5,0,0:0:0:0:
72,116,15984,1,0,0:0:0:0:
132,112,16143,1,0,0:0:0:0:
308,124,16778,5,0,0:0:0:0:
284,80,16936,1,0,0:0:0:0:
220,72,17095,1,0,0:0:0:0:
152,92,17413,1,0,0:0:0:0:
144,120,17571,1,0,0:0:0:0:
148,168,17730,1,0,0:0:0:0:
140,248,18047,1,0,0:0:0:0:
216,132,18523,5,0,0:0:0:0:
208,196,18682,1,0,0:0:0:0:
288,252,19000,1,0,0:0:0:0:
372,228,19317,1,0,0:0:0:0:
416,180,19476,1,0,0:0:0:0:
408,100,19793,1,0,0:0:0:0:
360,92,19952,1,0,0:0:0:0:
236,168,20428,5,0,0:0:0:0:
164,112,20745,1,0,0:0:0:0:
116,124,20904,1,0,0:0:0:0:
64,180,21221,1,0,0:0:0:0:
72,216,21380,1,0,0:0:0:0:
144,248,21698,1,0,0:0:0:0:
176,256,21856,1,0,0:0:0:0:
360,212,22491,1,0,0:0:0:0:
216,48,23285,5,0,0:0:0:0:
156,120,23602,1,0,0:0:0:0:
200,148,23761,1,0,0:0:0:0:
352,84,24396,5,0,0:0:0:0:
364,104,24554,1,0,0:0:0:0:
344,144,24713,1,0,0:0:0:0:
312,192,24872,1,0,0:0:0:0:
260,252,25189,1,0,0:0:0:0:
216,280,25348,1,0,0:0:0:0:
144,300,25665,1,0,0:0:0:0:
248,180,26300,5,0,0:0:0:0:
240,228,26459,1,0,0:0:0:0:
196,252,26617,1,0,0:0:0:0:
112,256,26935,1,0,0:0:0:0:
72,216,27094,1,0,0:0:0:0:
72,148,27411,1,0,0:0:0:0:
88,124,27570,1,0,0:0:0:0:
272,84,28204,5,0,0:0:0:0:
312,132,28363,1,0,0:0:0:0:
284,192,28522,1,0,0:0:0:0:
212,244,28839,1,0,0:0:0:0:
156,240,28998,1,0,0:0:0:0:
96,192,29315,1,0,0:0:0:0:
88,156,29474,1,0,0:0:0:0:
280,76,30268,1,0,0:0:0:0:
384,244,30902,5,0,0:0:0:0:
328,260,31061,1,0,0:0:0:0:
260,264,31379,1,0,0:0:0:0:
336,132,31855,5,0,0:0:0:0:
264,92,32172,1,0,0:0:0:0:
220,88,32331,1,0,0:0:0:0:
140,132,32648,1,0,0:0:0:0:
108,160,32807,1,0,0:0:0:0:
124,236,33124,1,0,0:0:0:0:
152,248,33283,1,0,0:0:0:0:
268,152,33759,5,0,0:0:0:0:
332,84,34077,1,0,0:0:0:0:
308,48,34235,1,0,0:0:0:0:
216,40,34553,1,0,0:0:0:0:
176,40,34711,1,0,0:0:0:0:
96,84,35029,1,0,0:0:0:0:
76,116,35187,1,0,0:0:0:0:
180,188,35664,5,0,0:0:0:0:
260,204,35981,1,0,0:0:0:0:
300,204,36140,1,0,0:0:0:0:
364,164,36457,1,0,0:0:0:0:
388,136,36616,1,0,0:0:0:0:
356,64,36933,1,0,0:0:0:0:
292,76,37092,2,0,L|104:204,1,186.666666666667
388,136,38362,5,0,0:0:0:0:
376,192,38520,1,0,0:0:0:0:
348,244,38679,1,0,0:0:0:0:
192,144,39314,5,0,0:0:0:0:
148,184,39472,1,0,0:0:0:0:
120,240,39631,1,0,0:0:0:0:
224,256,39949,1,0,0:0:0:0:
376,192,40425,1,0,0:0:0:0:
316,136,40742,1,0,0:0:0:0:
244,160,41218,1,0,0:0:0:0:
244,160,41377,1,0,0:0:0:0:
244,160,41694,1,0,0:0:0:0:
244,160,41853,1,0,0:0:0:0:
244,160,42170,1,0,0:0:0:0:
244,160,42488,1,0,0:0:0:0:
400,104,43123,5,0,0:0:0:0:
384,132,43281,1,0,0:0:0:0:
292,224,43758,1,0,0:0:0:0:
208,244,44075,5,0,0:0:0:0:
184,148,44392,1,0,0:0:0:0:
352,108,45027,1,0,0:0:0:0:
308,104,45186,1,0,0:0:0:0:
256,108,45345,1,0,0:0:0:0:
184,104,45662,1,0,0:0:0:0:
96,212,45979,1,0,0:0:0:0:
192,244,46297,1,0,0:0:0:0:
324,120,46932,5,0,0:0:0:0:
288,88,47090,1,0,0:0:0:0:
216,72,47408,1,0,0:0:0:0:
168,76,47566,1,0,0:0:0:0:
84,152,47884,2,0,L|228:240,1,140
304,152,48836,5,0,0:0:0:0:
216,72,48995,1,0,0:0:0:0:
136,76,49312,1,0,0:0:0:0:
108,100,49471,1,0,0:0:0:0:
116,196,49788,1,0,0:0:0:0:
204,260,50106,1,0,0:0:0:0:
320,136,50741,5,0,0:0:0:0:
276,104,50899,1,0,0:0:0:0:
300,196,51217,1,0,0:0:0:0:
116,196,51375,1,0,0:0:0:0:
184,108,51693,1,0,0:0:0:0:
284,84,52010,1,0,0:0:0:0:
424,88,52486,5,0,0:0:0:0:
384,140,52645,1,0,0:0:0:0:
340,196,52962,1,0,0:0:0:0:
284,204,53121,1,0,0:0:0:0:
212,212,53439,1,0,0:0:0:0:
112,156,53915,1,0,0:0:0:0:
256,140,54391,5,0,0:0:0:0:
332,204,54708,1,0,0:0:0:0:
240,256,55026,1,0,0:0:0:0:
180,240,55184,1,0,0:0:0:0:
128,172,55502,1,0,0:0:0:0:
112,128,55660,1,0,0:0:0:0:
252,116,56137,1,0,0:0:0:0:
364,156,56613,1,0,0:0:0:0:
368,240,56930,1,0,0:0:0:0:
328,236,57089,1,0,0:0:0:0:
288,228,57247,1,0,0:0:0:0:
236,208,57406,1,0,0:0:0:0:
232,40,58041,1,0,0:0:0:0:
316,88,58358,1,0,0:0:0:0:
416,156,58835,5,0,0:0:0:0:
392,172,58993,1,0,0:0:0:0:
364,184,59152,1,0,0:0:0:0:
324,196,59311,1,0,0:0:0:0:
140,188,59945,5,0,0:0:0:0:
268,212,60422,1,0,0:0:0:0:
376,136,60898,1,0,0:0:0:0:
304,76,61215,1,0,0:0:0:0:
260,60,61374,1,0,0:0:0:0:
260,60,61532,1,0,0:0:0:0:
196,72,61691,1,0,0:0:0:0:
260,128,62009,5,0,0:0:0:0:
244,228,62326,1,0,0:0:0:0:
124,260,62802,1,0,0:0:0:0:
140,232,62961,1,0,0:0:0:0:
148,192,63120,1,0,0:0:0:0:
164,156,63278,1,0,0:0:0:0:
280,104,63754,5,0,0:0:0:0:
344,172,64072,1,0,0:0:0:0:
240,228,64548,1,0,0:0:0:0:
216,224,64707,1,0,0:0:0:0:
192,208,64865,1,0,0:0:0:0:
156,184,65024,1,0,0:0:0:0:
316,212,65659,1,0,0:0:0:0:
312,144,65976,1,0,0:0:0:0:
224,84,66294,1,0,0:0:0:0:
168,80,66452,1,0,0:0:0:0:
120,104,66611,1,0,0:0:0:0:
88,136,66770,1,0,0:0:0:0:
228,148,67405,5,0,0:0:0:0:
252,268,67881,1,0,0:0:0:0:
400,168,68516,1,0,0:0:0:0:
328,84,68833,1,0,0:0:0:0:
284,88,68992,1,0,0:0:0:0:
200,120,69309,1,0,0:0:0:0:
160,136,69468,1,0,0:0:0:0:
264,108,69785,5,0,0:0:0:0:
332,188,70103,1,0,0:0:0:0:
320,248,70261,1,0,0:0:0:0:
264,236,70420,1,0,0:0:0:0:
148,56,71213,5,0,0:0:0:0:
192,72,71372,1,0,0:0:0:0:
268,200,71848,1,0,0:0:0:0:
184,224,72166,1,0,0:0:0:0:
172,148,72483,1,0,0:0:0:0:
192,132,72642,1,0,0:0:0:0:
212,124,72801,1,0,0:0:0:0:
244,124,72959,1,0,0:0:0:0:
272,132,73118,1,0,0:0:0:0:
292,140,73277,1,0,0:0:0:0:
108,156,73911,1,0,0:0:0:0:
144,188,74070,1,0,0:0:0:0:
172,224,74229,1,0,0:0:0:0:
208,244,74388,1,0,0:0:0:0:
244,248,74546,1,0,0:0:0:0:
268,248,74705,1,0,0:0:0:0:
364,108,75340,5,0,0:0:0:0:
364,136,75499,1,0,0:0:0:0:
356,172,75657,1,0,0:0:0:0:
336,216,75816,1,0,0:0:0:0:
168,220,76451,1,0,0:0:0:0:
140,200,76609,1,0,0:0:0:0:
128,172,76768,1,0,0:0:0:0:
188,116,77086,5,0,0:0:0:0:
220,116,77244,1,0,0:0:0:0:
244,136,77403,1,0,0:0:0:0:
264,164,77562,1,0,0:0:0:0:
148,128,78038,1,0,0:0:0:0:
164,140,78197,1,0,0:0:0:0:
180,152,78355,1,0,0:0:0:0:
204,168,78514,1,0,0:0:0:0:
228,180,78673,1,0,0:0:0:0:
292,240,78990,1,0,0:0:0:0:
344,208,79149,1,0,0:0:0:0:
372,156,79307,1,0,0:0:0:0:
368,92,79466,1,0,0:0:0:0:
348,80,79625,1,0,0:0:0:0:
300,108,79784,1,0,0:0:0:0:
252,140,79942,1,0,0:0:0:0:
208,172,80101,1,0,0:0:0:0:
224,244,80418,1,0,0:0:0:0:
260,260,80577,1,0,0:0:0:0:
300,292,80736,1,0,0:0:0:0:
176,212,81212,5,0,0:0:0:0:
156,200,81371,1,0,0:0:0:0:
128,220,81529,1,0,0:0:0:0:
104,160,81688,1,0,0:0:0:0:
144,128,81847,1,0,0:0:0:0:
192,112,82005,1,0,0:0:0:0:
240,120,82164,1,0,0:0:0:0:
352,128,82482,5,0,0:0:0:0:
316,180,82640,1,0,0:0:0:0:
288,228,82799,1,0,0:0:0:0:
244,228,82958,1,0,0:0:0:0:
204,220,83116,1,0,0:0:0:0:
164,208,83275,1,0,0:0:0:0:
112,112,83592,5,0,0:0:0:0:
160,76,83751,1,0,0:0:0:0:
220,64,83910,1,0,0:0:0:0:
264,68,84069,1,0,0:0:0:0:
304,80,84227,1,0,0:0:0:0:
396,68,85180,5,0,0:0:0:0:
368,104,85338,1,0,0:0:0:0:
332,152,85497,1,0,0:0:0:0:
292,200,85656,1,0,0:0:0:0:
232,240,85973,1,0,0:0:0:0:
188,232,86132,1,0,0:0:0:0:
108,148,86449,1,0,0:0:0:0:
136,96,86608,1,0,0:0:0:0:
256,72,87084,5,0,0:0:0:0:
332,152,87243,1,0,0:0:0:0:
332,228,87560,1,0,0:0:0:0:
308,244,87719,1,0,0:0:0:0:
268,248,87878,1,0,0:0:0:0:
180,104,88988,5,0,0:0:0:0:
220,132,89147,1,0,0:0:0:0:
268,160,89306,1,0,0:0:0:0:
384,160,89782,1,0,0:0:0:0:
388,184,89941,1,0,0:0:0:0:
380,208,90099,1,0,0:0:0:0:
364,228,90258,1,0,0:0:0:0:
340,236,90417,1,0,0:0:0:0:
216,176,90893,5,0,0:0:0:0:
228,108,91210,1,0,0:0:0:0:
248,92,91369,1,0,0:0:0:0:
272,80,91528,1,0,0:0:0:0:
308,88,91686,1,0,0:0:0:0:
332,92,91845,1,0,0:0:0:0:
120,76,92797,5,0,0:0:0:0:
112,152,93115,1,0,0:0:0:0:
152,200,93273,1,0,0:0:0:0:
212,240,93591,1,0,0:0:0:0:
244,232,93750,1,0,0:0:0:0:
276,228,93908,1,0,0:0:0:0:
316,216,94067,1,0,0:0:0:0:
348,192,94226,1,0,0:0:0:0:
236,112,94702,5,0,0:0:0:0:
180,132,94861,1,0,0:0:0:0:
128,172,95019,1,0,0:0:0:0:
108,240,95337,1,0,0:0:0:0:
148,252,95495,1,0,0:0:0:0:
364,88,96448,5,0,0:0:0:0:
308,68,96606,1,0,0:0:0:0:
220,80,96924,1,0,0:0:0:0:
120,156,97400,1,0,0:0:0:0:
180,172,97559,1,0,0:0:0:0:
436,268,98511,5,0,0:0:0:0:
388,264,98669,1,0,0:0:0:0:
336,260,98828,1,0,0:0:0:0:
228,240,99146,1,0,0:0:0:0:
160,216,99463,1,0,0:0:0:0:
356,80,100256,1,0,0:0:0:0:
308,104,100415,1,0,0:0:0:0:
272,128,100574,1,0,0:0:0:0:
160,216,101050,1,0,0:0:0:0:
120,184,101209,1,0,0:0:0:0:
40,112,101526,1,0,0:0:0:0:
264,124,102320,5,0,0:0:0:0:
260,164,102478,1,0,0:0:0:0:
236,196,102637,1,0,0:0:0:0:
200,208,102796,1,0,0:0:0:0:
92,184,103113,1,0,0:0:0:0:
92,72,103431,1,0,0:0:0:0:
264,124,104065,1,0,0:0:0:0:
296,172,104224,1,0,0:0:0:0:
172,228,104700,1,0,0:0:0:0:
92,156,105018,1,0,0:0:0:0:
100,44,105494,1,0,0:0:0:0:
228,80,105970,5,0,0:0:0:0:
264,108,106129,1,0,0:0:0:0:
288,152,106287,1,0,0:0:0:0:
280,220,106605,1,0,0:0:0:0:
180,208,106922,1,0,0:0:0:0:
100,132,107240,1,0,0:0:0:0:
268,72,107874,5,0,0:0:0:0:
324,88,108033,1,0,0:0:0:0:
380,148,108350,1,0,0:0:0:0:
392,192,108509,1,0,0:0:0:0:
288,256,108985,1,0,0:0:0:0:
204,264,109303,1,0,0:0:0:0:
148,132,109779,5,0,0:0:0:0:
192,120,109938,1,0,0:0:0:0:
288,120,110255,1,0,0:0:0:0:
340,132,110414,1,0,0:0:0:0:
320,236,110731,1,0,0:0:0:0:
216,256,111048,1,0,0:0:0:0:
84,164,111683,5,0,0:0:0:0:
104,152,111842,1,0,0:0:0:0:
184,124,112159,1,0,0:0:0:0:
228,128,112318,1,0,0:0:0:0:
336,164,112794,1,0,0:0:0:0:
348,244,113112,1,0,0:0:0:0:
212,256,113588,1,0,0:0:0:0:
164,232,113746,1,0,0:0:0:0:
100,184,114064,1,0,0:0:0:0:
72,156,114223,1,0,0:0:0:0:
216,116,114699,1,0,0:0:0:0:
288,128,115016,1,0,0:0:0:0:
324,196,115333,1,0,0:0:0:0:
268,260,115651,1,0,0:0:0:0:
180,268,115968,1,0,0:0:0:0:
132,260,116127,1,0,0:0:0:0:
96,200,116444,1,0,0:0:0:0:
96,180,116603,1,0,0:0:0:0:
316,112,116921,5,0,0:0:0:0:
340,212,117238,1,0,0:0:0:0:
212,196,117714,1,0,0:0:0:0:
132,92,117873,1,0,0:0:0:0:
140,40,118031,1,0,0:0:0:0:
196,52,118190,1,0,0:0:0:0:
412,80,118984,5,0,0:0:0:0:
372,160,119301,1,0,0:0:0:0:
264,220,119777,1,0,0:0:0:0:
228,224,119936,1,0,0:0:0:0:
192,216,120095,1,0,0:0:0:0:
164,196,120253,1,0,0:0:0:0:
340,200,120888,5,0,0:0:0:0:
380,84,121364,1,0,0:0:0:0:
252,108,121840,1,0,0:0:0:0:
164,132,122158,1,0,0:0:0:0:
128,160,122316,1,0,0:0:0:0:
104,192,122475,1,0,0:0:0:0:
100,228,122634,1,0,0:0:0:0:
164,280,122951,5,0,0:0:0:0:
280,268,123269,1,0,0:0:0:0:
368,252,123586,1,0,0:0:0:0:
404,228,123745,1,0,0:0:0:0:
416,196,123904,1,0,0:0:0:0:
420,168,124062,1,0,0:0:0:0:
428,16,124538,5,0,0:0:0:0:
312,100,125014,1,0,0:0:0:0:
200,128,125491,1,0,0:0:0:0:
180,148,125649,1,0,0:0:0:0:
164,196,125808,1,0,0:0:0:0:
164,240,125967,1,0,0:0:0:0:
292,212,126443,5,0,0:0:0:0:
172,208,126919,1,0,0:0:0:0:
92,88,127395,1,0,0:0:0:0:
140,60,127554,1,0,0:0:0:0:
200,56,127712,1,0,0:0:0:0:
256,64,127871,1,0,0:0:0:0:
392,68,128347,5,0,0:0:0:0:
360,192,128823,1,0,0:0:0:0:
224,264,129300,1,0,0:0:0:0:
108,236,129776,5,0,0:0:0:0:
108,184,129934,1,0,0:0:0:0:
148,152,130093,1,0,0:0:0:0:
212,136,130410,1,0,0:0:0:0:
372,120,130887,5,0,0:0:0:0:
360,196,131204,1,0,0:0:0:0:
336,232,131363,1,0,0:0:0:0:
236,240,131680,1,0,0:0:0:0:
188,240,131839,1,0,0:0:0:0:
144,236,131997,1,0,0:0:0:0:
104,232,132156,1,0,0:0:0:0:
36,128,132791,5,0,0:0:0:0:
96,124,132950,1,0,0:0:0:0:
180,128,133267,1,0,0:0:0:0:
292,192,133743,1,0,0:0:0:0:
336,232,133902,1,0,0:0:0:0:
372,196,134061,1,0,0:0:0:0:
308,32,134695,5,0,0:0:0:0:
264,88,135013,1,0,0:0:0:0:
216,124,135172,1,0,0:0:0:0:
188,176,135330,1,0,0:0:0:0:
180,228,135489,1,0,0:0:0:0:
224,224,135648,1,0,0:0:0:0:
260,228,135806,1,0,0:0:0:0:
292,228,135965,1,0,0:0:0:0:
324,228,136124,1,0,0:0:0:0:
368,216,136283,1,0,0:0:0:0:
412,192,136441,1,0,0:0:0:0:
280,136,136917,1,0,0:0:0:0:
160,292,137552,5,0,0:0:0:0:
136,240,137711,1,0,0:0:0:0:
112,184,137870,1,0,0:0:0:0:
296,80,138663,5,0,0:0:0:0:
320,104,138822,1,0,0:0:0:0:
340,144,138981,1,0,0:0:0:0:
344,200,139139,1,0,0:0:0:0:
324,252,139298,1,0,0:0:0:0:
284,280,139457,1,0,0:0:0:0:
228,284,139615,1,0,0:0:0:0:
196,272,139774,1,0,0:0:0:0:
116,72,140568,5,0,0:0:0:0:
152,96,140726,1,0,0:0:0:0:
196,120,140885,1,0,0:0:0:0:
232,144,141044,1,0,0:0:0:0:
260,172,141202,1,0,0:0:0:0:
276,208,141361,1,0,0:0:0:0:
256,240,141520,1,0,0:0:0:0:
232,252,141678,1,0,0:0:0:0:
408,96,142472,5,0,0:0:0:0:
372,136,142631,1,0,0:0:0:0:
336,176,142789,1,0,0:0:0:0:
256,240,143107,1,0,0:0:0:0:
232,252,143266,1,0,0:0:0:0:
192,260,143424,1,0,0:0:0:0:
156,244,143583,1,0,0:0:0:0:
120,192,143742,1,0,0:0:0:0:
312,120,144376,1,0,0:0:0:0:
36,68,145329,5,0,0:0:0:0:
84,88,145487,1,0,0:0:0:0:
120,112,145646,1,0,0:0:0:0:
308,92,146281,5,0,0:0:0:0:
332,132,146440,1,0,0:0:0:0:
304,176,146598,1,0,0:0:0:0:
276,220,146757,1,0,0:0:0:0:
236,244,146916,1,0,0:0:0:0:
236,244,147074,1,0,0:0:0:0:
172,224,147392,1,0,0:0:0:0:
308,92,148027,5,0,0:0:0:0:
348,68,148185,1,0,0:0:0:0:
400,72,148344,1,0,0:0:0:0:
344,144,148662,1,0,0:0:0:0:
324,172,148820,1,0,0:0:0:0:
284,200,148979,1,0,0:0:0:0:
228,212,149138,1,0,0:0:0:0:
184,224,149296,1,0,0:0:0:0:
52,88,149931,5,0,0:0:0:0:
92,124,150090,1,0,0:0:0:0:
136,172,150407,1,0,0:0:0:0:
156,224,150566,1,0,0:0:0:0:
200,252,150725,1,0,0:0:0:0:
248,264,150883,1,0,0:0:0:0:
292,256,151042,1,0,0:0:0:0:
312,252,151201,1,0,0:0:0:0:
464,120,151836,5,0,0:0:0:0:
456,184,151994,1,0,0:0:0:0:
384,228,152312,1,0,0:0:0:0:
352,244,152470,1,0,0:0:0:0:
316,256,152629,1,0,0:0:0:0:
292,256,152788,1,0,0:0:0:0:
316,88,153740,5,0,0:0:0:0:
256,124,154057,1,0,0:0:0:0:
232,148,154216,1,0,0:0:0:0:
212,172,154375,1,0,0:0:0:0:
196,200,154534,1,0,0:0:0:0:
188,228,154692,1,0,0:0:0:0:
220,248,154851,1,0,0:0:0:0:
264,256,155010,1,0,0:0:0:0:
388,116,155645,1,0,0:0:0:0:
380,164,155803,1,0,0:0:0:0:
368,220,155962,1,0,0:0:0:0:
264,256,156121,1,0,0:0:0:0:
188,228,156279,1,0,0:0:0:0:
152,196,156438,1,0,0:0:0:0:
136,160,156597,1,0,0:0:0:0:
152,132,156755,1,0,0:0:0:0:
304,60,157390,5,0,0:0:0:0:
312,88,157549,1,0,0:0:0:0:
320,132,157708,1,0,0:0:0:0:
208,216,158184,1,0,0:0:0:0:
168,208,158343,1,0,0:0:0:0:
128,200,158501,1,0,0:0:0:0:
92,56,158977,1,0,0:0:0:0:
148,64,159136,1,0,0:0:0:0:
200,80,159295,1,0,0:0:0:0:
300,156,159771,1,0,0:0:0:0:
320,180,159930,1,0,0:0:0:0:
324,200,160088,1,0,0:0:0:0:
508,56,160882,5,0,0:0:0:0:
480,112,161041,1,0,0:0:0:0:
424,176,161358,1,0,0:0:0:0:
280,236,161834,1,0,0:0:0:0:
220,224,161993,1,0,0:0:0:0:
196,176,162310,1,0,0:0:0:0:
276,88,162786,5,0,0:0:0:0:
296,112,162945,1,0,0:0:0:0:
316,152,163104,1,0,0:0:0:0:
324,192,163262,1,0,0:0:0:0:
280,236,163421,1,0,0:0:0:0:
240,236,163580,1,0,0:0:0:0:
204,224,163738,1,0,0:0:0:0:
172,212,163897,1,0,0:0:0:0:
148,196,164056,1,0,0:0:0:0:
168,40,164691,5,0,0:0:0:0:
204,60,164849,1,0,0:0:0:0:
244,88,165008,1,0,0:0:0:0:
284,120,165167,1,0,0:0:0:0:
316,156,165326,1,0,0:0:0:0:
312,200,165484,1,0,0:0:0:0:
272,232,165643,1,0,0:0:0:0:
232,240,165802,1,0,0:0:0:0:
204,244,165960,1,0,0:0:0:0:
248,72,166595,5,0,0:0:0:0:
276,84,166754,1,0,0:0:0:0:
300,116,166913,1,0,0:0:0:0:
312,200,167071,1,0,0:0:0:0:
232,240,167230,1,0,0:0:0:0:
176,232,167389,1,0,0:0:0:0:
132,208,167547,1,0,0:0:0:0:
100,176,167706,1,0,0:0:0:0:
80,144,167865,1,0,0:0:0:0:
256,92,168500,5,0,0:0:0:0:
304,104,168658,1,0,0:0:0:0:
324,140,168817,1,0,0:0:0:0:
328,172,168976,1,0,0:0:0:0:
316,196,169134,1,0,0:0:0:0:
296,204,169293,1,0,0:0:0:0:
272,208,169452,1,0,0:0:0:0:
240,212,169611,1,0,0:0:0:0:
212,216,169769,1,0,0:0:0:0:
452,76,170245,5,0,0:0:0:0:
452,76,170404,1,0,0:0:0:0:
368,124,170722,1,0,0:0:0:0:
368,124,171039,1,0,0:0:0:0:
240,184,171356,1,0,0:0:0:0:
196,208,171515,1,0,0:0:0:0:
196,208,171674,1,0,0:0:0:0:
376,144,172309,5,0,0:0:0:0:
412,212,172626,1,0,0:0:0:0:
388,252,172785,1,0,0:0:0:0:
304,276,173102,1,0,0:0:0:0:
244,256,173261,1,0,0:0:0:0:
212,248,173419,1,0,0:0:0:0:
172,24,174213,5,0,0:0:0:0:
216,48,174372,1,0,0:0:0:0:
268,132,174689,1,0,0:0:0:0:
280,176,174848,1,0,0:0:0:0:
232,200,175007,1,0,0:0:0:0:
188,180,175165,1,0,0:0:0:0:
152,164,175324,1,0,0:0:0:0:
120,148,175483,1,0,0:0:0:0:
20,72,175959,1,0,0:0:0:0:
100,92,176276,5,0,0:0:0:0:
132,100,176435,1,0,0:0:0:0:
156,120,176594,1,0,0:0:0:0:
232,200,176752,1,0,0:0:0:0:
232,200,176911,1,0,0:0:0:0:
208,228,177070,1,0,0:0:0:0:
188,236,177228,1,0,0:0:0:0:
352,76,178022,5,0,0:0:0:0:
352,76,178181,1,0,0:0:0:0:
352,76,178339,1,0,0:0:0:0:
352,76,178657,1,0,0:0:0:0:
352,76,178815,1,0,0:0:0:0:
352,76,178974,1,0,0:0:0:0:
352,76,179133,1,0,0:0:0:0:
352,76,179292,1,0,0:0:0:0:
352,76,179450,1,0,0:0:0:0:
412,204,179926,5,0,0:0:0:0:
352,220,180085,1,0,0:0:0:0:
232,220,180561,1,0,0:0:0:0:
208,216,180720,1,0,0:0:0:0:
160,188,180879,1,0,0:0:0:0:
120,148,181037,1,0,0:0:0:0:
112,104,181196,1,0,0:0:0:0:
300,72,181831,5,0,0:0:0:0:
368,96,182148,1,0,0:0:0:0:
324,160,182466,1,0,0:0:0:0:
296,172,182624,1,0,0:0:0:0:
272,180,182783,1,0,0:0:0:0:
228,176,182942,1,0,0:0:0:0:
204,172,183100,1,0,0:0:0:0:
172,168,183259,1,0,0:0:0:0:
84,40,183735,5,0,0:0:0:0:
136,52,183894,1,0,0:0:0:0:
184,48,184053,1,0,0:0:0:0:
276,116,184529,1,0,0:0:0:0:
288,256,185005,1,0,0:0:0:0:
228,240,185164,1,0,0:0:0:0:
208,120,185957,1,0,0:0:0:0:
244,116,186116,1,0,0:0:0:0:
280,112,186275,1,0,0:0:0:0:
312,116,186433,1,0,0:0:0:0:
420,192,186909,1,0,0:0:0:0:
392,264,187227,1,0,0:0:0:0:
104,128,187862,5,0,0:0:0:0:
152,132,188020,1,0,0:0:0:0:
260,140,188338,1,0,0:0:0:0:
388,212,188814,1,0,0:0:0:0:
424,252,188973,1,0,0:0:0:0:
316,76,189766,5,0,0:0:0:0:
300,84,189925,1,0,0:0:0:0:
280,88,190084,1,0,0:0:0:0:
244,156,190401,1,0,0:0:0:0:
288,208,190718,1,0,0:0:0:0:
312,212,190877,1,0,0:0:0:0:
64,108,191829,5,0,0:0:0:0:
104,104,191988,1,0,0:0:0:0:
148,100,192147,1,0,0:0:0:0:
192,96,192305,1,0,0:0:0:0:
288,128,192623,1,0,0:0:0:0:
364,196,192940,1,0,0:0:0:0:
396,208,193575,5,0,0:0:0:0:
372,160,193734,1,0,0:0:0:0:
332,116,193892,1,0,0:0:0:0:
260,36,194210,1,0,0:0:0:0:
140,152,194686,1,0,0:0:0:0:
96,240,195003,1,0,0:0:0:0:
236,164,195479,5,0,0:0:0:0:
296,148,195638,1,0,0:0:0:0:
348,196,195956,1,0,0:0:0:0:
332,220,196114,1,0,0:0:0:0:
236,268,196432,1,0,0:0:0:0:
160,244,196749,1,0,0:0:0:0:
96,100,197225,5,0,0:0:0:0:
140,64,197384,1,0,0:0:0:0:
228,96,197701,5,0,0:0:0:0:
268,124,197860,1,0,0:0:0:0:
372,192,198336,1,0,0:0:0:0:
456,148,198654,1,0,0:0:0:0:
364,104,198971,5,0,0:0:0:0:
264,128,199288,1,0,0:0:0:0:
212,232,199765,1,0,0:0:0:0:
228,240,199923,1,0,0:0:0:0:
252,244,200082,1,0,0:0:0:0:
276,240,200241,1,0,0:0:0:0:
452,232,200875,1,0,0:0:0:0:
424,136,201193,1,0,0:0:0:0:
288,108,201669,1,0,0:0:0:0:
248,104,201828,1,0,0:0:0:0:
216,108,201986,1,0,0:0:0:0:
184,124,202145,1,0,0:0:0:0:
372,108,202780,5,0,0:0:0:0:
364,176,203097,1,0,0:0:0:0:
224,204,203573,1,0,0:0:0:0:
180,188,203732,1,0,0:0:0:0:
148,156,203891,1,0,0:0:0:0:
144,108,204050,1,0,0:0:0:0:
312,96,204684,5,0,0:0:0:0:
400,188,205160,1,0,0:0:0:0:
288,260,205637,1,0,0:0:0:0:
200,244,205954,1,0,0:0:0:0:
156,232,206113,1,0,0:0:0:0:
128,216,206271,1,0,0:0:0:0:
84,152,206589,1,0,0:0:0:0:
256,192,206748,12,0,208969,0:0:0:0:
