osu file format v12

[General]
AudioFilename: Ievan Polkka Miku Trance_Remix.mp3
AudioLeadIn: 0
PreviewTime: 82804
Countdown: 0
SampleSet: Normal
StackLeniency: 0.7
Mode: 3
LetterboxInBreaks: 0
SpecialStyle: 1
WidescreenStoryboard: 1

[Editor]
DistanceSpacing: 1.4
BeatDivisor: 4
GridSize: 8
TimelineZoom: 1

[Metadata]
Title:Ievan Polkka Basshunter Remix
TitleUnicode:Ievan Polkka Basshunter Remix
Artist:Loituma
ArtistUnicode:Loituma
Creator:Xcrypt
Version:[BMS Insane] LV.05 - Half Advanced
Source:
Tags:
BeatmapID:417838
BeatmapSetID:172865

[Difficulty]
HPDrainRate:9
CircleSize:8
OverallDifficulty:10
ApproachRate:5
SliderMultiplier:1.4
SliderTickRate:1

[Events]
//Background and Video events
0,0,"BG BeuchiKirby.jpg",0,0
//Break Periods
//Storyboard Layer 0 (Background)
//Storyboard Layer 1 (Fail)
//Storyboard Layer 2 (Pass)
//Storyboard Layer 3 (Foreground)
//Storyboard Sound Samples
//Background Colour Transformations
3,100,163,162,255

[TimingPoints]
125,550.45871559633,4,1,0,80,1,0
7600,428.571428571429,4,1,0,80,1,0

[HitObjects]
480,192,125,5,0,0:0:0:0:
288,192,400,1,0,0:0:0:0:
288,192,537,1,0,0:0:0:0:
96,192,675,1,0,0:0:0:0:
288,192,950,128,0,1225:0:0:0:0:
480,192,1225,1,0,0:0:0:0:
288,192,1501,1,0,0:0:0:0:
288,192,1638,1,0,0:0:0:0:
96,192,1776,1,0,0:0:0:0:
288,192,2051,128,0,2326:0:0:0:0:
480,192,2326,1,0,0:0:0:0:
288,192,2602,1,0,0:0:0:0:
288,192,2739,1,0,0:0:0:0:
96,192,2877,1,0,0:0:0:0:
288,192,3152,128,0,3427:0:0:0:0:
480,192,3427,1,0,0:0:0:0:
288,192,3702,1,0,0:0:0:0:
288,192,3840,1,0,0:0:0:0:
96,192,3978,1,0,0:0:0:0:
288,192,4253,128,0,4528:0:0:0:0:
480,192,4528,1,0,0:0:0:0:
288,192,4803,1,0,0:0:0:0:
288,192,4941,1,0,0:0:0:0:
96,192,5079,1,0,0:0:0:0:
224,192,7814,1,0,0:0:0:0:
352,192,7814,1,0,0:0:0:0:
224,192,8242,1,0,0:0:0:0:
352,192,8242,1,0,0:0:0:0:
224,192,8671,1,0,0:0:0:0:
352,192,8671,1,0,0:0:0:0:
224,192,9100,1,0,0:0:0:0:
352,192,9100,1,0,0:0:0:0:
224,192,9528,1,0,0:0:0:0:
352,192,9528,1,0,0:0:0:0:
224,192,9957,1,0,0:0:0:0:
352,192,9957,1,0,0:0:0:0:
224,192,10385,1,0,0:0:0:0:
352,192,10385,1,0,0:0:0:0:
160,192,10600,1,0,0:0:0:0:
416,192,10600,1,0,0:0:0:0:
160,192,10814,1,0,0:0:0:0:
416,192,10814,1,0,0:0:0:0:
32,192,11028,1,0,0:0:0:0:
224,192,11028,1,0,0:0:0:0:
480,192,11242,1,0,0:0:0:0:
32,192,11457,1,0,0:0:0:0:
224,192,11457,1,0,0:0:0:0:
480,192,11671,1,0,0:0:0:0:
224,192,11886,1,0,0:0:0:0:
32,192,11886,1,0,0:0:0:0:
480,192,12100,1,0,0:0:0:0:
32,192,12315,1,0,0:0:0:0:
224,192,12315,1,0,0:0:0:0:
480,192,12528,1,0,0:0:0:0:
224,192,12743,1,0,0:0:0:0:
32,192,12743,1,0,0:0:0:0:
480,192,12957,1,0,0:0:0:0:
32,192,13172,1,0,0:0:0:0:
224,192,13172,1,0,0:0:0:0:
480,192,13385,1,0,0:0:0:0:
32,192,13600,1,0,0:0:0:0:
224,192,13600,1,0,0:0:0:0:
480,192,13813,1,0,0:0:0:0:
224,192,14028,1,0,0:0:0:0:
32,192,14028,1,0,0:0:0:0:
480,192,14242,1,0,0:0:0:0:
32,192,14457,1,0,0:0:0:0:
224,192,14457,1,0,0:0:0:0:
480,192,14671,1,0,0:0:0:0:
224,192,14886,1,0,0:0:0:0:
32,192,14886,1,0,0:0:0:0:
480,192,15099,1,0,0:0:0:0:
32,192,15314,1,0,0:0:0:0:
224,192,15314,1,0,0:0:0:0:
480,192,15528,1,0,0:0:0:0:
224,192,15743,1,0,0:0:0:0:
32,192,15743,1,0,0:0:0:0:
480,192,15957,1,0,0:0:0:0:
224,192,16172,1,0,0:0:0:0:
32,192,16172,1,0,0:0:0:0:
480,192,16385,1,0,0:0:0:0:
224,192,16600,1,0,0:0:0:0:
32,192,16600,1,0,0:0:0:0:
480,192,16814,1,0,0:0:0:0:
224,192,17029,1,0,0:0:0:0:
32,192,17029,1,0,0:0:0:0:
480,192,17242,1,0,0:0:0:0:
32,192,17457,1,0,0:0:0:0:
224,192,17457,1,0,0:0:0:0:
352,192,17671,1,0,0:0:0:0:
32,192,17885,1,0,0:0:0:0:
224,192,17885,1,0,0:0:0:0:
352,192,17885,1,0,0:0:0:0:
480,192,18099,1,0,0:0:0:0:
32,192,18314,1,0,0:0:0:0:
224,192,18314,1,0,0:0:0:0:
288,192,18314,1,0,0:0:0:0:
416,192,18314,1,0,0:0:0:0:
480,192,18528,1,0,0:0:0:0:
32,192,18743,1,0,0:0:0:0:
224,192,18743,1,0,0:0:0:0:
480,192,18957,1,0,0:0:0:0:
288,192,19171,1,0,0:0:0:0:
416,192,19171,1,0,0:0:0:0:
224,192,19172,1,0,0:0:0:0:
32,192,19172,1,0,0:0:0:0:
480,192,19385,1,0,0:0:0:0:
224,192,19600,1,0,0:0:0:0:
32,192,19600,1,0,0:0:0:0:
480,192,19814,1,0,0:0:0:0:
288,192,20028,1,0,0:0:0:0:
416,192,20028,1,0,0:0:0:0:
224,192,20029,1,0,0:0:0:0:
32,192,20029,1,0,0:0:0:0:
480,192,20243,1,0,0:0:0:0:
32,192,20458,1,0,0:0:0:0:
224,192,20458,1,0,0:0:0:0:
480,192,20671,1,0,0:0:0:0:
288,192,20885,1,0,0:0:0:0:
416,192,20885,1,0,0:0:0:0:
32,192,20886,1,0,0:0:0:0:
224,192,20886,1,0,0:0:0:0:
480,192,21100,1,0,0:0:0:0:
32,192,21315,1,0,0:0:0:0:
224,192,21315,1,0,0:0:0:0:
480,192,21529,1,0,0:0:0:0:
288,192,21742,1,0,0:0:0:0:
416,192,21742,1,0,0:0:0:0:
224,192,21744,1,0,0:0:0:0:
32,192,21744,1,0,0:0:0:0:
480,192,21957,1,0,0:0:0:0:
224,192,22172,1,0,0:0:0:0:
32,192,22172,1,0,0:0:0:0:
480,192,22385,1,0,0:0:0:0:
288,192,22599,1,0,0:0:0:0:
416,192,22599,1,0,0:0:0:0:
32,192,22600,1,0,0:0:0:0:
224,192,22600,1,0,0:0:0:0:
480,192,22814,1,0,0:0:0:0:
224,192,23029,1,0,0:0:0:0:
32,192,23029,1,0,0:0:0:0:
480,192,23243,1,0,0:0:0:0:
416,192,23456,1,0,0:0:0:0:
288,192,23456,1,0,0:0:0:0:
224,192,23458,1,0,0:0:0:0:
32,192,23458,1,0,0:0:0:0:
480,192,23671,1,0,0:0:0:0:
32,192,23886,1,0,0:0:0:0:
224,192,23886,1,0,0:0:0:0:
480,192,24100,1,0,0:0:0:0:
288,192,24314,1,0,0:0:0:0:
416,192,24314,1,0,0:0:0:0:
352,192,24528,1,0,0:0:0:0:
32,192,24742,1,0,0:0:0:0:
352,192,24742,1,0,0:0:0:0:
480,192,24957,1,0,0:0:0:0:
352,192,24957,1,0,0:0:0:0:
352,192,25064,1,0,0:0:0:0:
416,192,25171,1,0,0:0:0:0:
288,192,25171,1,0,0:0:0:0:
32,192,25171,1,0,0:0:0:0:
160,192,25171,1,0,0:0:0:0:
480,192,25385,1,0,0:0:0:0:
352,192,25385,128,0,25600:0:0:0:0:
32,192,25600,1,0,0:0:0:0:
480,192,25814,1,0,0:0:0:0:
352,192,25814,1,0,0:0:0:0:
352,192,25921,1,0,0:0:0:0:
288,192,26028,1,0,0:0:0:0:
416,192,26028,1,0,0:0:0:0:
32,192,26028,1,0,0:0:0:0:
160,192,26028,1,0,0:0:0:0:
480,192,26242,1,0,0:0:0:0:
352,192,26242,128,0,26457:0:0:0:0:
32,192,26457,1,0,0:0:0:0:
480,192,26671,1,0,0:0:0:0:
352,192,26671,1,0,0:0:0:0:
352,192,26778,1,0,0:0:0:0:
416,192,26885,1,0,0:0:0:0:
288,192,26885,1,0,0:0:0:0:
32,192,26885,1,0,0:0:0:0:
160,192,26885,1,0,0:0:0:0:
352,192,27099,128,0,27314:0:0:0:0:
480,192,27099,1,0,0:0:0:0:
32,192,27314,1,0,0:0:0:0:
352,192,27528,1,0,0:0:0:0:
480,192,27528,1,0,0:0:0:0:
352,192,27635,1,0,0:0:0:0:
288,192,27742,1,0,0:0:0:0:
32,192,27742,1,0,0:0:0:0:
416,192,27742,1,0,0:0:0:0:
160,192,27742,1,0,0:0:0:0:
480,192,27956,1,0,0:0:0:0:
352,192,27956,128,0,28171:0:0:0:0:
32,192,28171,1,0,0:0:0:0:
352,192,28385,1,0,0:0:0:0:
480,192,28385,1,0,0:0:0:0:
352,192,28492,1,0,0:0:0:0:
416,192,28599,1,0,0:0:0:0:
288,192,28599,1,0,0:0:0:0:
32,192,28599,1,0,0:0:0:0:
160,192,28600,1,0,0:0:0:0:
352,192,28813,128,0,29028:0:0:0:0:
480,192,28813,1,0,0:0:0:0:
32,192,29028,1,0,0:0:0:0:
480,192,29242,1,0,0:0:0:0:
352,192,29242,1,0,0:0:0:0:
352,192,29349,1,0,0:0:0:0:
32,192,29456,1,0,0:0:0:0:
416,192,29456,1,0,0:0:0:0:
288,192,29456,1,0,0:0:0:0:
160,192,29457,1,0,0:0:0:0:
480,192,29670,1,0,0:0:0:0:
352,192,29670,128,0,29885:0:0:0:0:
32,192,29885,1,0,0:0:0:0:
352,192,30100,1,0,0:0:0:0:
480,192,30100,1,0,0:0:0:0:
352,192,30207,1,0,0:0:0:0:
416,192,30314,1,0,0:0:0:0:
288,192,30314,1,0,0:0:0:0:
32,192,30314,1,0,0:0:0:0:
160,192,30314,1,0,0:0:0:0:
352,192,30528,128,0,30743:0:0:0:0:
480,192,30528,1,0,0:0:0:0:
32,192,30743,1,0,0:0:0:0:
480,192,30957,1,0,0:0:0:0:
352,192,30957,1,0,0:0:0:0:
352,192,31064,1,0,0:0:0:0:
32,192,31171,1,0,0:0:0:0:
416,192,31171,1,0,0:0:0:0:
288,192,31171,1,0,0:0:0:0:
160,192,31171,1,0,0:0:0:0:
352,192,31385,1,0,0:0:0:0:
352,192,31600,1,0,0:0:0:0:
32,192,31600,1,0,0:0:0:0:
352,192,31814,1,0,0:0:0:0:
480,192,31814,1,0,0:0:0:0:
352,192,31921,1,0,0:0:0:0:
288,192,32028,1,0,0:0:0:0:
416,192,32028,1,0,0:0:0:0:
32,192,32028,1,0,0:0:0:0:
160,192,32028,1,0,0:0:0:0:
352,192,32242,128,0,32457:0:0:0:0:
480,192,32242,1,0,0:0:0:0:
32,192,32457,1,0,0:0:0:0:
352,192,32671,1,0,0:0:0:0:
480,192,32671,1,0,0:0:0:0:
352,192,32778,1,0,0:0:0:0:
416,192,32885,1,0,0:0:0:0:
288,192,32885,1,0,0:0:0:0:
32,192,32885,1,0,0:0:0:0:
160,192,32885,1,0,0:0:0:0:
480,192,33100,1,0,0:0:0:0:
352,192,33100,128,0,33315:0:0:0:0:
32,192,33315,1,0,0:0:0:0:
480,192,33529,1,0,0:0:0:0:
352,192,33529,1,0,0:0:0:0:
352,192,33636,1,0,0:0:0:0:
160,192,33742,1,0,0:0:0:0:
32,192,33743,1,0,0:0:0:0:
416,192,33743,1,0,0:0:0:0:
288,192,33743,1,0,0:0:0:0:
352,192,33957,128,0,34172:0:0:0:0:
480,192,33957,1,0,0:0:0:0:
32,192,34172,1,0,0:0:0:0:
352,192,34386,1,0,0:0:0:0:
480,192,34386,1,0,0:0:0:0:
352,192,34493,1,0,0:0:0:0:
416,192,34600,1,0,0:0:0:0:
288,192,34600,1,0,0:0:0:0:
32,192,34600,1,0,0:0:0:0:
160,192,34600,1,0,0:0:0:0:
480,192,34814,1,0,0:0:0:0:
352,192,34814,128,0,35029:0:0:0:0:
32,192,35029,1,0,0:0:0:0:
480,192,35243,1,0,0:0:0:0:
352,192,35243,1,0,0:0:0:0:
352,192,35350,1,0,0:0:0:0:
32,192,35457,1,0,0:0:0:0:
416,192,35457,1,0,0:0:0:0:
288,192,35457,1,0,0:0:0:0:
160,192,35457,1,0,0:0:0:0:
352,192,35671,128,0,35886:0:0:0:0:
480,192,35671,1,0,0:0:0:0:
32,192,35886,1,0,0:0:0:0:
352,192,36100,1,0,0:0:0:0:
480,192,36100,1,0,0:0:0:0:
352,192,36207,1,0,0:0:0:0:
416,192,36314,1,0,0:0:0:0:
288,192,36314,1,0,0:0:0:0:
32,192,36314,1,0,0:0:0:0:
160,192,36314,1,0,0:0:0:0:
480,192,36528,1,0,0:0:0:0:
352,192,36528,128,0,36743:0:0:0:0:
32,192,36743,1,0,0:0:0:0:
480,192,36957,1,0,0:0:0:0:
352,192,36957,1,0,0:0:0:0:
352,192,37064,1,0,0:0:0:0:
32,192,37171,1,0,0:0:0:0:
480,192,37385,1,0,0:0:0:0:
32,192,37385,1,0,0:0:0:0:
352,192,37385,128,0,37600:0:0:0:0:
480,192,37814,1,0,0:0:0:0:
32,192,37814,1,0,0:0:0:0:
352,192,38028,1,0,0:0:0:0:
32,192,38028,1,0,0:0:0:0:
352,192,38242,1,0,0:0:0:0:
32,192,38457,1,0,0:0:0:0:
288,192,38457,1,0,0:0:0:0:
160,192,38457,1,0,0:0:0:0:
416,192,38457,1,0,0:0:0:0:
480,192,38671,1,0,0:0:0:0:
416,192,38885,1,0,0:0:0:0:
288,192,38885,1,0,0:0:0:0:
480,192,39100,1,0,0:0:0:0:
416,192,39314,1,0,0:0:0:0:
288,192,39314,1,0,0:0:0:0:
480,192,39528,1,0,0:0:0:0:
416,192,39742,1,0,0:0:0:0:
288,192,39742,1,0,0:0:0:0:
480,192,39957,1,0,0:0:0:0:
288,192,40171,1,0,0:0:0:0:
416,192,40171,1,0,0:0:0:0:
480,192,40385,1,0,0:0:0:0:
288,192,40600,1,0,0:0:0:0:
416,192,40600,1,0,0:0:0:0:
480,192,40814,1,0,0:0:0:0:
352,192,40867,1,0,0:0:0:0:
224,192,40921,1,0,0:0:0:0:
96,192,40975,1,0,0:0:0:0:
32,192,41028,1,0,0:0:0:0:
416,192,41028,1,0,0:0:0:0:
32,192,41242,1,0,0:0:0:0:
480,192,41242,1,0,0:0:0:0:
224,192,41242,1,0,0:0:0:0:
96,192,41242,1,0,0:0:0:0:
32,192,41457,1,0,0:0:0:0:
224,192,41457,1,0,0:0:0:0:
416,192,41457,1,0,0:0:0:0:
96,192,41457,1,0,0:0:0:0:
32,192,41671,1,0,0:0:0:0:
480,192,41671,1,0,0:0:0:0:
32,192,41778,1,0,0:0:0:0:
416,192,41885,1,0,0:0:0:0:
32,192,41885,1,0,0:0:0:0:
96,192,41885,1,0,0:0:0:0:
224,192,41885,1,0,0:0:0:0:
32,192,42100,1,0,0:0:0:0:
480,192,42100,1,0,0:0:0:0:
96,192,42100,1,0,0:0:0:0:
224,192,42100,1,0,0:0:0:0:
32,192,42314,1,0,0:0:0:0:
96,192,42314,1,0,0:0:0:0:
224,192,42314,1,0,0:0:0:0:
416,192,42314,1,0,0:0:0:0:
480,192,42528,1,0,0:0:0:0:
96,192,42635,1,0,0:0:0:0:
32,192,42742,1,0,0:0:0:0:
416,192,42742,1,0,0:0:0:0:
224,192,42742,1,0,0:0:0:0:
96,192,42850,1,0,0:0:0:0:
480,192,42957,1,0,0:0:0:0:
224,192,42957,1,0,0:0:0:0:
96,192,43064,1,0,0:0:0:0:
32,192,43171,1,0,0:0:0:0:
416,192,43171,1,0,0:0:0:0:
224,192,43171,1,0,0:0:0:0:
480,192,43385,1,0,0:0:0:0:
224,192,43385,1,0,0:0:0:0:
96,192,43385,1,0,0:0:0:0:
96,192,43492,1,0,0:0:0:0:
224,192,43492,1,0,0:0:0:0:
32,192,43600,1,0,0:0:0:0:
416,192,43600,1,0,0:0:0:0:
224,192,43600,1,0,0:0:0:0:
96,192,43600,1,0,0:0:0:0:
96,192,43814,1,0,0:0:0:0:
352,192,43814,1,0,0:0:0:0:
32,192,44028,1,0,0:0:0:0:
416,192,44028,1,0,0:0:0:0:
96,192,44028,1,0,0:0:0:0:
96,192,44242,1,0,0:0:0:0:
352,192,44242,1,0,0:0:0:0:
32,192,44457,1,0,0:0:0:0:
416,192,44457,1,0,0:0:0:0:
224,192,44457,1,0,0:0:0:0:
480,192,44671,1,0,0:0:0:0:
96,192,44671,1,0,0:0:0:0:
32,192,44885,1,0,0:0:0:0:
416,192,44885,1,0,0:0:0:0:
224,192,44885,1,0,0:0:0:0:
480,192,45100,1,0,0:0:0:0:
96,192,45100,1,0,0:0:0:0:
224,192,45100,1,0,0:0:0:0:
96,192,45207,1,0,0:0:0:0:
224,192,45207,1,0,0:0:0:0:
32,192,45314,1,0,0:0:0:0:
416,192,45314,1,0,0:0:0:0:
96,192,45314,1,0,0:0:0:0:
224,192,45314,1,0,0:0:0:0:
480,192,45528,1,0,0:0:0:0:
96,192,45528,1,0,0:0:0:0:
416,192,45742,1,0,0:0:0:0:
32,192,45742,1,0,0:0:0:0:
224,192,45742,1,0,0:0:0:0:
480,192,45956,1,0,0:0:0:0:
96,192,46064,1,0,0:0:0:0:
224,192,46064,1,0,0:0:0:0:
32,192,46171,1,0,0:0:0:0:
416,192,46171,1,0,0:0:0:0:
96,192,46171,1,0,0:0:0:0:
224,192,46171,1,0,0:0:0:0:
480,192,46385,1,0,0:0:0:0:
96,192,46385,1,0,0:0:0:0:
224,192,46385,1,0,0:0:0:0:
96,192,46492,1,0,0:0:0:0:
224,192,46492,1,0,0:0:0:0:
416,192,46600,1,0,0:0:0:0:
32,192,46600,1,0,0:0:0:0:
96,192,46707,1,0,0:0:0:0:
480,192,46814,1,0,0:0:0:0:
224,192,46814,1,0,0:0:0:0:
96,192,46921,1,0,0:0:0:0:
32,192,47028,1,0,0:0:0:0:
416,192,47028,1,0,0:0:0:0:
224,192,47028,1,0,0:0:0:0:
96,192,47135,1,0,0:0:0:0:
224,192,47242,1,0,0:0:0:0:
352,192,47242,1,0,0:0:0:0:
96,192,47350,1,0,0:0:0:0:
416,192,47457,1,0,0:0:0:0:
32,192,47457,1,0,0:0:0:0:
224,192,47457,1,0,0:0:0:0:
352,192,47671,1,0,0:0:0:0:
96,192,47671,1,0,0:0:0:0:
32,192,47885,1,0,0:0:0:0:
416,192,47885,1,0,0:0:0:0:
224,192,47885,1,0,0:0:0:0:
480,192,48099,1,0,0:0:0:0:
224,192,48100,1,0,0:0:0:0:
416,192,48314,1,0,0:0:0:0:
32,192,48314,1,0,0:0:0:0:
96,192,48314,1,0,0:0:0:0:
480,192,48528,1,0,0:0:0:0:
96,192,48528,1,0,0:0:0:0:
224,192,48528,1,0,0:0:0:0:
96,192,48635,1,0,0:0:0:0:
224,192,48635,1,0,0:0:0:0:
32,192,48635,1,0,0:0:0:0:
32,192,48742,1,0,0:0:0:0:
416,192,48742,1,0,0:0:0:0:
96,192,48742,1,0,0:0:0:0:
224,192,48742,1,0,0:0:0:0:
480,192,48956,1,0,0:0:0:0:
96,192,48957,1,0,0:0:0:0:
416,192,49171,1,0,0:0:0:0:
32,192,49171,1,0,0:0:0:0:
224,192,49171,1,0,0:0:0:0:
480,192,49385,1,0,0:0:0:0:
96,192,49385,1,0,0:0:0:0:
224,192,49600,1,0,0:0:0:0:
32,192,49600,1,0,0:0:0:0:
416,192,49600,1,0,0:0:0:0:
96,192,49814,1,0,0:0:0:0:
224,192,49814,1,0,0:0:0:0:
480,192,49814,1,0,0:0:0:0:
96,192,49921,1,0,0:0:0:0:
224,192,49921,1,0,0:0:0:0:
32,192,50028,1,0,0:0:0:0:
416,192,50028,1,0,0:0:0:0:
224,192,50135,1,0,0:0:0:0:
96,192,50242,1,0,0:0:0:0:
480,192,50242,1,0,0:0:0:0:
224,192,50350,1,0,0:0:0:0:
96,192,50457,1,0,0:0:0:0:
32,192,50457,1,0,0:0:0:0:
416,192,50457,1,0,0:0:0:0:
224,192,50564,1,0,0:0:0:0:
96,192,50671,1,0,0:0:0:0:
480,192,50671,1,0,0:0:0:0:
224,192,50778,1,0,0:0:0:0:
96,192,50885,1,0,0:0:0:0:
32,192,50885,1,0,0:0:0:0:
416,192,50885,1,0,0:0:0:0:
224,192,50992,1,0,0:0:0:0:
96,192,51100,1,0,0:0:0:0:
480,192,51100,1,0,0:0:0:0:
224,192,51207,1,0,0:0:0:0:
96,192,51314,1,0,0:0:0:0:
32,192,51314,1,0,0:0:0:0:
416,192,51314,1,0,0:0:0:0:
96,192,51528,1,0,0:0:0:0:
224,192,51528,1,0,0:0:0:0:
480,192,51528,1,0,0:0:0:0:
96,192,51635,1,0,0:0:0:0:
224,192,51635,1,0,0:0:0:0:
32,192,51742,1,0,0:0:0:0:
416,192,51742,1,0,0:0:0:0:
480,192,51957,1,0,0:0:0:0:
96,192,52064,1,0,0:0:0:0:
224,192,52064,1,0,0:0:0:0:
32,192,52171,1,0,0:0:0:0:
416,192,52171,1,0,0:0:0:0:
96,192,52171,1,0,0:0:0:0:
224,192,52171,1,0,0:0:0:0:
480,192,52385,1,0,0:0:0:0:
224,192,52385,1,0,0:0:0:0:
416,192,52600,1,0,0:0:0:0:
32,192,52600,1,0,0:0:0:0:
96,192,52600,1,0,0:0:0:0:
480,192,52814,1,0,0:0:0:0:
224,192,52814,1,0,0:0:0:0:
416,192,53028,1,0,0:0:0:0:
32,192,53028,1,0,0:0:0:0:
96,192,53028,1,0,0:0:0:0:
480,192,53242,1,0,0:0:0:0:
32,192,53242,1,0,0:0:0:0:
224,192,53242,1,0,0:0:0:0:
32,192,53350,1,0,0:0:0:0:
32,192,53457,1,0,0:0:0:0:
416,192,53457,1,0,0:0:0:0:
96,192,53457,1,0,0:0:0:0:
224,192,53564,1,0,0:0:0:0:
480,192,53671,1,0,0:0:0:0:
32,192,53671,1,0,0:0:0:0:
96,192,53671,1,0,0:0:0:0:
32,192,53778,1,0,0:0:0:0:
224,192,53778,1,0,0:0:0:0:
352,192,53885,1,0,0:0:0:0:
32,192,53939,1,0,0:0:0:0:
352,192,53992,1,0,0:0:0:0:
32,192,54046,1,0,0:0:0:0:
352,192,54100,1,0,0:0:0:0:
32,192,54153,1,0,0:0:0:0:
352,192,54207,1,0,0:0:0:0:
32,192,54260,1,0,0:0:0:0:
352,192,54314,1,0,0:0:0:0:
32,192,54367,1,0,0:0:0:0:
352,192,54421,1,0,0:0:0:0:
32,192,54475,1,0,0:0:0:0:
352,192,54528,1,0,0:0:0:0:
32,192,54582,1,0,0:0:0:0:
352,192,54635,1,0,0:0:0:0:
32,192,54742,1,0,0:0:0:0:
288,192,54742,1,0,0:0:0:0:
32,192,54957,1,0,0:0:0:0:
96,192,54957,1,0,0:0:0:0:
224,192,54957,1,0,0:0:0:0:
352,192,54957,1,0,0:0:0:0:
480,192,54957,1,0,0:0:0:0:
288,192,55171,1,0,0:0:0:0:
32,192,55171,1,0,0:0:0:0:
160,192,55171,1,0,0:0:0:0:
416,192,55171,1,0,0:0:0:0:
480,192,55385,1,0,0:0:0:0:
224,192,55492,1,0,0:0:0:0:
32,192,55600,1,0,0:0:0:0:
224,192,55600,1,0,0:0:0:0:
480,192,55814,1,0,0:0:0:0:
224,192,55814,1,0,0:0:0:0:
288,192,56028,1,0,0:0:0:0:
352,192,56028,1,0,0:0:0:0:
160,192,56028,1,0,0:0:0:0:
32,192,56029,1,0,0:0:0:0:
480,192,56242,1,0,0:0:0:0:
224,192,56350,1,0,0:0:0:0:
352,192,56457,1,0,0:0:0:0:
32,192,56457,1,0,0:0:0:0:
224,192,56564,1,0,0:0:0:0:
352,192,56671,1,0,0:0:0:0:
480,192,56671,1,0,0:0:0:0:
224,192,56778,1,0,0:0:0:0:
352,192,56885,1,0,0:0:0:0:
288,192,56885,1,0,0:0:0:0:
160,192,56885,1,0,0:0:0:0:
32,192,56886,1,0,0:0:0:0:
480,192,57100,1,0,0:0:0:0:
224,192,57100,1,0,0:0:0:0:
224,192,57207,1,0,0:0:0:0:
224,192,57314,1,0,0:0:0:0:
32,192,57315,1,0,0:0:0:0:
224,192,57528,1,0,0:0:0:0:
352,192,57528,1,0,0:0:0:0:
224,192,57742,1,0,0:0:0:0:
160,192,57742,1,0,0:0:0:0:
288,192,57743,1,0,0:0:0:0:
32,192,57744,1,0,0:0:0:0:
352,192,57957,1,0,0:0:0:0:
224,192,57957,1,0,0:0:0:0:
224,192,58171,1,0,0:0:0:0:
32,192,58172,1,0,0:0:0:0:
224,192,58385,1,0,0:0:0:0:
480,192,58386,1,0,0:0:0:0:
288,192,58600,1,0,0:0:0:0:
224,192,58600,1,0,0:0:0:0:
160,192,58600,1,0,0:0:0:0:
32,192,58601,1,0,0:0:0:0:
480,192,58814,1,0,0:0:0:0:
352,192,58814,1,0,0:0:0:0:
224,192,58814,1,0,0:0:0:0:
352,192,58921,1,0,0:0:0:0:
224,192,58921,1,0,0:0:0:0:
224,192,59028,1,0,0:0:0:0:
352,192,59028,1,0,0:0:0:0:
32,192,59029,1,0,0:0:0:0:
224,192,59242,1,0,0:0:0:0:
480,192,59243,1,0,0:0:0:0:
288,192,59457,1,0,0:0:0:0:
352,192,59457,1,0,0:0:0:0:
160,192,59457,1,0,0:0:0:0:
32,192,59458,1,0,0:0:0:0:
480,192,59671,1,0,0:0:0:0:
224,192,59778,1,0,0:0:0:0:
32,192,59885,1,0,0:0:0:0:
352,192,59885,1,0,0:0:0:0:
480,192,60100,1,0,0:0:0:0:
224,192,60100,1,0,0:0:0:0:
352,192,60207,1,0,0:0:0:0:
32,192,60314,1,0,0:0:0:0:
288,192,60314,1,0,0:0:0:0:
160,192,60314,1,0,0:0:0:0:
352,192,60421,1,0,0:0:0:0:
480,192,60528,1,0,0:0:0:0:
352,192,60528,1,0,0:0:0:0:
352,192,60635,1,0,0:0:0:0:
32,192,60742,1,0,0:0:0:0:
224,192,60742,1,0,0:0:0:0:
224,192,60850,1,0,0:0:0:0:
352,192,60957,1,0,0:0:0:0:
224,192,60957,1,0,0:0:0:0:
224,192,61064,1,0,0:0:0:0:
32,192,61171,1,0,0:0:0:0:
288,192,61171,1,0,0:0:0:0:
224,192,61171,1,0,0:0:0:0:
160,192,61171,1,0,0:0:0:0:
352,192,61385,1,0,0:0:0:0:
224,192,61385,1,0,0:0:0:0:
32,192,61599,1,0,0:0:0:0:
224,192,61600,1,0,0:0:0:0:
480,192,61814,1,0,0:0:0:0:
352,192,61814,1,0,0:0:0:0:
288,192,62028,1,0,0:0:0:0:
32,192,62028,1,0,0:0:0:0:
224,192,62028,1,0,0:0:0:0:
160,192,62028,1,0,0:0:0:0:
480,192,62242,1,0,0:0:0:0:
224,192,62242,1,0,0:0:0:0:
352,192,62242,1,0,0:0:0:0:
224,192,62350,1,0,0:0:0:0:
352,192,62350,1,0,0:0:0:0:
32,192,62456,1,0,0:0:0:0:
224,192,62457,1,0,0:0:0:0:
352,192,62457,1,0,0:0:0:0:
480,192,62671,1,0,0:0:0:0:
352,192,62671,1,0,0:0:0:0:
32,192,62885,1,0,0:0:0:0:
288,192,62885,1,0,0:0:0:0:
224,192,62885,1,0,0:0:0:0:
160,192,62885,1,0,0:0:0:0:
480,192,63100,1,0,0:0:0:0:
352,192,63100,1,0,0:0:0:0:
32,192,63314,1,0,0:0:0:0:
224,192,63314,1,0,0:0:0:0:
352,192,63528,1,0,0:0:0:0:
224,192,63528,1,0,0:0:0:0:
224,192,63635,1,0,0:0:0:0:
160,192,63742,1,0,0:0:0:0:
32,192,63743,1,0,0:0:0:0:
288,192,63743,1,0,0:0:0:0:
224,192,63850,1,0,0:0:0:0:
352,192,63957,1,0,0:0:0:0:
224,192,63957,1,0,0:0:0:0:
224,192,64064,1,0,0:0:0:0:
32,192,64171,1,0,0:0:0:0:
224,192,64171,1,0,0:0:0:0:
224,192,64278,1,0,0:0:0:0:
224,192,64385,1,0,0:0:0:0:
480,192,64386,1,0,0:0:0:0:
224,192,64492,1,0,0:0:0:0:
32,192,64600,1,0,0:0:0:0:
288,192,64600,1,0,0:0:0:0:
352,192,64600,1,0,0:0:0:0:
160,192,64600,1,0,0:0:0:0:
224,192,64707,1,0,0:0:0:0:
480,192,64814,1,0,0:0:0:0:
352,192,64814,1,0,0:0:0:0:
224,192,64921,1,0,0:0:0:0:
32,192,65028,1,0,0:0:0:0:
352,192,65028,1,0,0:0:0:0:
352,192,65242,1,0,0:0:0:0:
224,192,65242,1,0,0:0:0:0:
224,192,65350,1,0,0:0:0:0:
352,192,65350,1,0,0:0:0:0:
288,192,65457,1,0,0:0:0:0:
32,192,65457,1,0,0:0:0:0:
160,192,65457,1,0,0:0:0:0:
352,192,65671,1,0,0:0:0:0:
224,192,65778,1,0,0:0:0:0:
32,192,65885,1,0,0:0:0:0:
224,192,65885,1,0,0:0:0:0:
480,192,66100,1,0,0:0:0:0:
352,192,66100,1,0,0:0:0:0:
32,192,66314,1,0,0:0:0:0:
288,192,66314,1,0,0:0:0:0:
224,192,66314,1,0,0:0:0:0:
160,192,66314,1,0,0:0:0:0:
480,192,66528,1,0,0:0:0:0:
352,192,66528,1,0,0:0:0:0:
32,192,66742,1,0,0:0:0:0:
224,192,66742,1,0,0:0:0:0:
352,192,66957,1,0,0:0:0:0:
224,192,66957,1,0,0:0:0:0:
288,192,67171,1,0,0:0:0:0:
32,192,67171,1,0,0:0:0:0:
224,192,67171,1,0,0:0:0:0:
160,192,67171,1,0,0:0:0:0:
224,192,67278,1,0,0:0:0:0:
352,192,67385,1,0,0:0:0:0:
224,192,67385,1,0,0:0:0:0:
224,192,67492,1,0,0:0:0:0:
32,192,67599,1,0,0:0:0:0:
352,192,67600,1,0,0:0:0:0:
352,192,67707,1,0,0:0:0:0:
480,192,67814,1,0,0:0:0:0:
352,192,67814,1,0,0:0:0:0:
352,192,67921,1,0,0:0:0:0:
288,192,68028,1,0,0:0:0:0:
32,192,68028,1,0,0:0:0:0:
224,192,68028,1,0,0:0:0:0:
160,192,68028,1,0,0:0:0:0:
224,192,68135,1,0,0:0:0:0:
480,192,68242,1,0,0:0:0:0:
224,192,68242,1,0,0:0:0:0:
224,192,68350,1,0,0:0:0:0:
32,192,68456,1,0,0:0:0:0:
224,192,68457,1,0,0:0:0:0:
352,192,68671,1,0,0:0:0:0:
224,192,68671,1,0,0:0:0:0:
224,192,68778,1,0,0:0:0:0:
352,192,68778,1,0,0:0:0:0:
32,192,68885,1,0,0:0:0:0:
288,192,68885,1,0,0:0:0:0:
160,192,68885,1,0,0:0:0:0:
352,192,69100,1,0,0:0:0:0:
224,192,69207,1,0,0:0:0:0:
32,192,69313,1,0,0:0:0:0:
224,192,69314,1,0,0:0:0:0:
480,192,69528,1,0,0:0:0:0:
224,192,69528,1,0,0:0:0:0:
288,192,69742,1,0,0:0:0:0:
32,192,69742,1,0,0:0:0:0:
224,192,69742,1,0,0:0:0:0:
160,192,69742,1,0,0:0:0:0:
480,192,69957,1,0,0:0:0:0:
224,192,69957,1,0,0:0:0:0:
352,192,70064,1,0,0:0:0:0:
32,192,70171,1,0,0:0:0:0:
224,192,70171,1,0,0:0:0:0:
352,192,70278,1,0,0:0:0:0:
224,192,70385,1,0,0:0:0:0:
480,192,70386,1,0,0:0:0:0:
352,192,70492,1,0,0:0:0:0:
32,192,70600,1,0,0:0:0:0:
288,192,70600,1,0,0:0:0:0:
224,192,70600,1,0,0:0:0:0:
160,192,70600,1,0,0:0:0:0:
480,192,70814,1,0,0:0:0:0:
224,192,70814,1,0,0:0:0:0:
352,192,70814,1,0,0:0:0:0:
224,192,70921,1,0,0:0:0:0:
352,192,70921,1,0,0:0:0:0:
32,192,71028,1,0,0:0:0:0:
224,192,71028,1,0,0:0:0:0:
352,192,71028,1,0,0:0:0:0:
352,192,71242,1,0,0:0:0:0:
224,192,71242,1,0,0:0:0:0:
32,192,71457,1,0,0:0:0:0:
288,192,71457,1,0,0:0:0:0:
224,192,71457,1,0,0:0:0:0:
160,192,71457,1,0,0:0:0:0:
352,192,71671,1,0,0:0:0:0:
224,192,71671,1,0,0:0:0:0:
32,192,71885,1,0,0:0:0:0:
224,192,71885,1,0,0:0:0:0:
480,192,72100,1,0,0:0:0:0:
224,192,72100,1,0,0:0:0:0:
288,192,72314,1,0,0:0:0:0:
32,192,72314,1,0,0:0:0:0:
224,192,72314,1,0,0:0:0:0:
160,192,72314,1,0,0:0:0:0:
480,192,72528,1,0,0:0:0:0:
224,192,72528,1,0,0:0:0:0:
352,192,72528,1,0,0:0:0:0:
224,192,72635,1,0,0:0:0:0:
352,192,72635,1,0,0:0:0:0:
32,192,72742,1,0,0:0:0:0:
224,192,72742,1,0,0:0:0:0:
352,192,72742,1,0,0:0:0:0:
480,192,72957,1,0,0:0:0:0:
224,192,72957,1,0,0:0:0:0:
32,192,73171,1,0,0:0:0:0:
288,192,73171,1,0,0:0:0:0:
352,192,73171,1,0,0:0:0:0:
160,192,73171,1,0,0:0:0:0:
480,192,73385,1,0,0:0:0:0:
224,192,73492,1,0,0:0:0:0:
32,192,73599,1,0,0:0:0:0:
352,192,73600,1,0,0:0:0:0:
480,192,73814,1,0,0:0:0:0:
224,192,73814,1,0,0:0:0:0:
352,192,73921,1,0,0:0:0:0:
288,192,74028,1,0,0:0:0:0:
32,192,74028,1,0,0:0:0:0:
160,192,74028,1,0,0:0:0:0:
224,192,74135,1,0,0:0:0:0:
480,192,74242,1,0,0:0:0:0:
352,192,74242,1,0,0:0:0:0:
224,192,74350,1,0,0:0:0:0:
32,192,74456,1,0,0:0:0:0:
352,192,74457,1,0,0:0:0:0:
224,192,74564,1,0,0:0:0:0:
352,192,74671,1,0,0:0:0:0:
224,192,74671,1,0,0:0:0:0:
224,192,74778,1,0,0:0:0:0:
288,192,74885,1,0,0:0:0:0:
32,192,74885,1,0,0:0:0:0:
224,192,74885,1,0,0:0:0:0:
160,192,74885,1,0,0:0:0:0:
352,192,75100,1,0,0:0:0:0:
224,192,75100,1,0,0:0:0:0:
32,192,75313,1,0,0:0:0:0:
224,192,75314,1,0,0:0:0:0:
480,192,75528,1,0,0:0:0:0:
224,192,75528,1,0,0:0:0:0:
32,192,75742,1,0,0:0:0:0:
288,192,75742,1,0,0:0:0:0:
224,192,75742,1,0,0:0:0:0:
160,192,75742,1,0,0:0:0:0:
480,192,75956,1,0,0:0:0:0:
224,192,75957,1,0,0:0:0:0:
352,192,75957,1,0,0:0:0:0:
224,192,76064,1,0,0:0:0:0:
352,192,76064,1,0,0:0:0:0:
32,192,76170,1,0,0:0:0:0:
224,192,76171,1,0,0:0:0:0:
352,192,76171,1,0,0:0:0:0:
480,192,76385,1,0,0:0:0:0:
352,192,76385,1,0,0:0:0:0:
288,192,76599,1,0,0:0:0:0:
32,192,76599,1,0,0:0:0:0:
224,192,76600,1,0,0:0:0:0:
160,192,76600,1,0,0:0:0:0:
480,192,76814,1,0,0:0:0:0:
352,192,76814,1,0,0:0:0:0:
32,192,77028,1,0,0:0:0:0:
224,192,77028,1,0,0:0:0:0:
352,192,77242,1,0,0:0:0:0:
224,192,77242,1,0,0:0:0:0:
224,192,77350,1,0,0:0:0:0:
32,192,77457,1,0,0:0:0:0:
288,192,77457,1,0,0:0:0:0:
160,192,77457,1,0,0:0:0:0:
224,192,77564,1,0,0:0:0:0:
352,192,77671,1,0,0:0:0:0:
224,192,77671,1,0,0:0:0:0:
224,192,77778,1,0,0:0:0:0:
32,192,77885,1,0,0:0:0:0:
224,192,77885,1,0,0:0:0:0:
224,192,77992,1,0,0:0:0:0:
480,192,78100,1,0,0:0:0:0:
224,192,78100,1,0,0:0:0:0:
224,192,78207,1,0,0:0:0:0:
32,192,78314,1,0,0:0:0:0:
288,192,78314,1,0,0:0:0:0:
352,192,78314,1,0,0:0:0:0:
160,192,78314,1,0,0:0:0:0:
224,192,78421,1,0,0:0:0:0:
480,192,78528,1,0,0:0:0:0:
352,192,78528,1,0,0:0:0:0:
224,192,78635,1,0,0:0:0:0:
32,192,78742,1,0,0:0:0:0:
352,192,78742,1,0,0:0:0:0:
352,192,78957,1,0,0:0:0:0:
224,192,78957,1,0,0:0:0:0:
224,192,79064,1,0,0:0:0:0:
288,192,79171,1,0,0:0:0:0:
32,192,79171,1,0,0:0:0:0:
160,192,79171,1,0,0:0:0:0:
352,192,79385,1,0,0:0:0:0:
224,192,79492,1,0,0:0:0:0:
32,192,79599,1,0,0:0:0:0:
224,192,79600,1,0,0:0:0:0:
480,192,79814,1,0,0:0:0:0:
352,192,79814,1,0,0:0:0:0:
32,192,80028,1,0,0:0:0:0:
288,192,80028,1,0,0:0:0:0:
224,192,80028,1,0,0:0:0:0:
160,192,80028,1,0,0:0:0:0:
480,192,80242,1,0,0:0:0:0:
352,192,80242,1,0,0:0:0:0:
32,192,80456,1,0,0:0:0:0:
224,192,80457,1,0,0:0:0:0:
352,192,80671,1,0,0:0:0:0:
288,192,80885,1,0,0:0:0:0:
32,192,80885,1,0,0:0:0:0:
224,192,80885,1,0,0:0:0:0:
160,192,80885,1,0,0:0:0:0:
224,192,81100,1,0,0:0:0:0:
352,192,81100,1,0,0:0:0:0:
224,192,81207,1,0,0:0:0:0:
32,192,81313,1,0,0:0:0:0:
224,192,81314,1,0,0:0:0:0:
352,192,81421,1,0,0:0:0:0:
480,192,81528,1,0,0:0:0:0:
224,192,81528,1,0,0:0:0:0:
352,192,81635,1,0,0:0:0:0:
288,192,81742,1,0,0:0:0:0:
32,192,81742,1,0,0:0:0:0:
224,192,81742,1,0,0:0:0:0:
160,192,81742,1,0,0:0:0:0:
352,192,81850,1,0,0:0:0:0:
480,192,81956,1,0,0:0:0:0:
224,192,81957,1,0,0:0:0:0:
352,192,82064,1,0,0:0:0:0:
32,192,82170,1,0,0:0:0:0:
224,192,82171,1,0,0:0:0:0:
352,192,82385,1,0,0:0:0:0:
224,192,82385,1,0,0:0:0:0:
224,192,82492,1,0,0:0:0:0:
32,192,82599,1,0,0:0:0:0:
288,192,82599,1,0,0:0:0:0:
160,192,82600,1,0,0:0:0:0:
352,192,82814,1,0,0:0:0:0:
32,192,83028,1,0,0:0:0:0:
288,192,83028,1,0,0:0:0:0:
224,192,83028,1,0,0:0:0:0:
352,192,83028,1,0,0:0:0:0:
160,192,83028,1,0,0:0:0:0:
32,192,83135,1,0,0:0:0:0:
32,192,83242,1,0,0:0:0:0:
352,192,83242,1,0,0:0:0:0:
32,192,83350,1,0,0:0:0:0:
96,192,83457,1,0,0:0:0:0:
160,192,83671,1,0,0:0:0:0:
352,192,83671,1,0,0:0:0:0:
96,192,83885,1,0,0:0:0:0:
160,192,84100,1,0,0:0:0:0:
352,192,84100,1,0,0:0:0:0:
224,192,84314,1,0,0:0:0:0:
288,192,84528,1,0,0:0:0:0:
480,192,84528,1,0,0:0:0:0:
96,192,84528,1,0,0:0:0:0:
224,192,84742,1,0,0:0:0:0:
352,192,84742,1,0,0:0:0:0:
480,192,84742,128,0,85600:0:0:0:0:
96,192,84742,128,0,85600:0:0:0:0:
288,192,84957,1,0,0:0:0:0:
352,192,85171,1,0,0:0:0:0:
224,192,85171,1,0,0:0:0:0:
416,192,85385,1,0,0:0:0:0:
160,192,85385,1,0,0:0:0:0:
224,192,85600,1,0,0:0:0:0:
352,192,85600,1,0,0:0:0:0:
32,192,86028,1,0,0:0:0:0:
160,192,86028,1,0,0:0:0:0:
288,192,86028,1,0,0:0:0:0:
416,192,86028,1,0,0:0:0:0:
96,192,86028,1,0,0:0:0:0:
480,192,86028,1,0,0:0:0:0:
288,192,86242,1,0,0:0:0:0:
160,192,86242,1,0,0:0:0:0:
288,192,86350,1,0,0:0:0:0:
160,192,86350,1,0,0:0:0:0:
32,192,86457,1,0,0:0:0:0:
288,192,86457,1,0,0:0:0:0:
160,192,86457,1,0,0:0:0:0:
288,192,86564,1,0,0:0:0:0:
160,192,86564,1,0,0:0:0:0:
352,192,86671,1,0,0:0:0:0:
224,192,86671,1,0,0:0:0:0:
352,192,86778,1,0,0:0:0:0:
224,192,86778,1,0,0:0:0:0:
352,192,86885,128,0,86992:0:0:0:0:
224,192,86885,128,0,86992:0:0:0:0:
32,192,86885,1,0,0:0:0:0:
96,192,86885,1,0,0:0:0:0:
352,192,87100,1,0,0:0:0:0:
224,192,87100,1,0,0:0:0:0:
288,192,87207,1,0,0:0:0:0:
416,192,87207,1,0,0:0:0:0:
352,192,87314,128,0,87421:0:0:0:0:
480,192,87314,128,0,87421:0:0:0:0:
32,192,87314,1,0,0:0:0:0:
416,192,87528,1,0,0:0:0:0:
288,192,87528,1,0,0:0:0:0:
224,192,87635,128,0,87742:0:0:0:0:
352,192,87635,128,0,87742:0:0:0:0:
96,192,87742,1,0,0:0:0:0:
32,192,87742,1,0,0:0:0:0:
224,192,87850,1,0,0:0:0:0:
352,192,87850,1,0,0:0:0:0:
352,192,87957,1,0,0:0:0:0:
480,192,87957,1,0,0:0:0:0:
352,192,88064,1,0,0:0:0:0:
480,192,88064,1,0,0:0:0:0:
416,192,88171,1,0,0:0:0:0:
288,192,88171,1,0,0:0:0:0:
32,192,88171,1,0,0:0:0:0:
288,192,88278,1,0,0:0:0:0:
416,192,88278,1,0,0:0:0:0:
224,192,88385,1,0,0:0:0:0:
352,192,88385,1,0,0:0:0:0:
224,192,88492,1,0,0:0:0:0:
352,192,88492,1,0,0:0:0:0:
32,192,88599,1,0,0:0:0:0:
96,192,88599,1,0,0:0:0:0:
224,192,88600,128,0,88707:0:0:0:0:
352,192,88600,128,0,88707:0:0:0:0:
288,192,88814,1,0,0:0:0:0:
416,192,88814,1,0,0:0:0:0:
288,192,88921,1,0,0:0:0:0:
416,192,88921,1,0,0:0:0:0:
32,192,89027,1,0,0:0:0:0:
352,192,89028,128,0,89135:0:0:0:0:
480,192,89028,128,0,89135:0:0:0:0:
224,192,89242,1,0,0:0:0:0:
352,192,89242,1,0,0:0:0:0:
224,192,89350,128,0,89457:0:0:0:0:
352,192,89350,128,0,89457:0:0:0:0:
96,192,89456,1,0,0:0:0:0:
32,192,89456,1,0,0:0:0:0:
224,192,89564,1,0,0:0:0:0:
352,192,89564,1,0,0:0:0:0:
288,192,89671,1,0,0:0:0:0:
160,192,89671,1,0,0:0:0:0:
288,192,89779,1,0,0:0:0:0:
160,192,89779,1,0,0:0:0:0:
32,192,89885,1,0,0:0:0:0:
288,192,89886,1,0,0:0:0:0:
160,192,89886,1,0,0:0:0:0:
288,192,89993,1,0,0:0:0:0:
160,192,89993,1,0,0:0:0:0:
352,192,90100,1,0,0:0:0:0:
224,192,90100,1,0,0:0:0:0:
352,192,90207,1,0,0:0:0:0:
224,192,90207,1,0,0:0:0:0:
32,192,90313,1,0,0:0:0:0:
96,192,90313,1,0,0:0:0:0:
352,192,90314,128,0,90421:0:0:0:0:
224,192,90314,128,0,90421:0:0:0:0:
352,192,90529,1,0,0:0:0:0:
224,192,90529,1,0,0:0:0:0:
288,192,90636,1,0,0:0:0:0:
416,192,90636,1,0,0:0:0:0:
32,192,90742,1,0,0:0:0:0:
352,192,90743,128,0,90850:0:0:0:0:
480,192,90743,128,0,90850:0:0:0:0:
416,192,90957,1,0,0:0:0:0:
288,192,90957,1,0,0:0:0:0:
224,192,91064,128,0,91171:0:0:0:0:
352,192,91064,128,0,91171:0:0:0:0:
32,192,91171,1,0,0:0:0:0:
96,192,91171,1,0,0:0:0:0:
224,192,91279,1,0,0:0:0:0:
352,192,91279,1,0,0:0:0:0:
288,192,91385,1,0,0:0:0:0:
416,192,91385,1,0,0:0:0:0:
352,192,91493,1,0,0:0:0:0:
480,192,91493,1,0,0:0:0:0:
32,192,91599,1,0,0:0:0:0:
352,192,91600,128,0,91707:0:0:0:0:
480,192,91600,128,0,91707:0:0:0:0:
288,192,91814,128,0,91921:0:0:0:0:
416,192,91814,128,0,91921:0:0:0:0:
352,192,92028,128,0,92135:0:0:0:0:
224,192,92028,128,0,92135:0:0:0:0:
96,192,92028,1,0,0:0:0:0:
32,192,92028,1,0,0:0:0:0:
288,192,92242,128,0,92350:0:0:0:0:
160,192,92242,128,0,92350:0:0:0:0:
32,192,92456,1,0,0:0:0:0:
288,192,92457,128,0,92564:0:0:0:0:
416,192,92457,128,0,92564:0:0:0:0:
224,192,92671,1,0,0:0:0:0:
352,192,92671,1,0,0:0:0:0:
224,192,92779,128,0,92886:0:0:0:0:
352,192,92779,128,0,92886:0:0:0:0:
32,192,92884,1,0,0:0:0:0:
96,192,92884,1,0,0:0:0:0:
224,192,92993,1,0,0:0:0:0:
224,192,93100,1,0,0:0:0:0:
224,192,93207,1,0,0:0:0:0:
32,192,93313,1,0,0:0:0:0:
352,192,93314,1,0,0:0:0:0:
224,192,93314,1,0,0:0:0:0:
480,192,93421,1,0,0:0:0:0:
224,192,93421,1,0,0:0:0:0:
352,192,93528,1,0,0:0:0:0:
224,192,93528,1,0,0:0:0:0:
480,192,93635,1,0,0:0:0:0:
224,192,93635,1,0,0:0:0:0:
224,192,93742,128,0,93850:0:0:0:0:
480,192,93742,128,0,93850:0:0:0:0:
352,192,93742,128,0,93850:0:0:0:0:
32,192,93742,1,0,0:0:0:0:
96,192,93742,1,0,0:0:0:0:
416,192,93957,128,0,94064:0:0:0:0:
224,192,93957,128,0,94064:0:0:0:0:
288,192,93957,128,0,94064:0:0:0:0:
224,192,94171,128,0,94278:0:0:0:0:
480,192,94171,128,0,94278:0:0:0:0:
352,192,94171,128,0,94278:0:0:0:0:
32,192,94171,1,0,0:0:0:0:
224,192,94385,1,0,0:0:0:0:
352,192,94385,1,0,0:0:0:0:
224,192,94492,128,0,94600:0:0:0:0:
352,192,94492,128,0,94600:0:0:0:0:
32,192,94600,1,0,0:0:0:0:
96,192,94600,1,0,0:0:0:0:
224,192,94707,1,0,0:0:0:0:
352,192,94707,1,0,0:0:0:0:
224,192,94814,1,0,0:0:0:0:
416,192,94814,1,0,0:0:0:0:
224,192,94921,1,0,0:0:0:0:
416,192,94921,1,0,0:0:0:0:
480,192,95028,1,0,0:0:0:0:
352,192,95028,1,0,0:0:0:0:
32,192,95028,1,0,0:0:0:0:
480,192,95135,1,0,0:0:0:0:
224,192,95135,1,0,0:0:0:0:
480,192,95242,1,0,0:0:0:0:
352,192,95242,1,0,0:0:0:0:
480,192,95350,1,0,0:0:0:0:
224,192,95350,1,0,0:0:0:0:
480,192,95457,128,0,95564:0:0:0:0:
352,192,95457,128,0,95564:0:0:0:0:
224,192,95457,128,0,95564:0:0:0:0:
32,192,95457,1,0,0:0:0:0:
96,192,95457,1,0,0:0:0:0:
480,192,95671,128,0,95778:0:0:0:0:
288,192,95671,128,0,95778:0:0:0:0:
416,192,95671,128,0,95778:0:0:0:0:
480,192,95885,128,0,95992:0:0:0:0:
224,192,95885,128,0,95992:0:0:0:0:
352,192,95885,128,0,95992:0:0:0:0:
32,192,95885,1,0,0:0:0:0:
480,192,96100,1,0,0:0:0:0:
224,192,96100,1,0,0:0:0:0:
480,192,96207,128,0,96314:0:0:0:0:
224,192,96207,128,0,96314:0:0:0:0:
32,192,96314,1,0,0:0:0:0:
96,192,96314,1,0,0:0:0:0:
480,192,96421,1,0,0:0:0:0:
224,192,96421,1,0,0:0:0:0:
480,192,96528,1,0,0:0:0:0:
224,192,96528,1,0,0:0:0:0:
480,192,96635,1,0,0:0:0:0:
224,192,96635,1,0,0:0:0:0:
352,192,96742,128,0,96850:0:0:0:0:
480,192,96742,128,0,96850:0:0:0:0:
288,192,96742,128,0,96850:0:0:0:0:
32,192,96742,1,0,0:0:0:0:
352,192,96957,128,0,97064:0:0:0:0:
288,192,96957,128,0,97064:0:0:0:0:
480,192,96957,128,0,97064:0:0:0:0:
352,192,97171,128,0,97278:0:0:0:0:
224,192,97171,128,0,97278:0:0:0:0:
480,192,97171,128,0,97278:0:0:0:0:
32,192,97171,1,0,0:0:0:0:
96,192,97171,1,0,0:0:0:0:
352,192,97385,128,0,97492:0:0:0:0:
416,192,97385,128,0,97492:0:0:0:0:
224,192,97385,128,0,97492:0:0:0:0:
352,192,97600,1,0,0:0:0:0:
480,192,97600,1,0,0:0:0:0:
32,192,97600,1,0,0:0:0:0:
352,192,97707,1,0,0:0:0:0:
480,192,97707,1,0,0:0:0:0:
352,192,97814,1,0,0:0:0:0:
224,192,97814,1,0,0:0:0:0:
352,192,97921,128,0,98028:0:0:0:0:
224,192,97921,128,0,98028:0:0:0:0:
32,192,98028,1,0,0:0:0:0:
96,192,98028,1,0,0:0:0:0:
352,192,98135,1,0,0:0:0:0:
224,192,98135,1,0,0:0:0:0:
352,192,98242,1,0,0:0:0:0:
416,192,98242,1,0,0:0:0:0:
352,192,98350,1,0,0:0:0:0:
416,192,98350,1,0,0:0:0:0:
480,192,98457,1,0,0:0:0:0:
224,192,98457,1,0,0:0:0:0:
32,192,98457,1,0,0:0:0:0:
352,192,98564,1,0,0:0:0:0:
480,192,98564,1,0,0:0:0:0:
480,192,98671,1,0,0:0:0:0:
224,192,98671,1,0,0:0:0:0:
480,192,98778,1,0,0:0:0:0:
352,192,98778,1,0,0:0:0:0:
480,192,98885,128,0,98992:0:0:0:0:
352,192,98885,128,0,98992:0:0:0:0:
224,192,98885,128,0,98992:0:0:0:0:
96,192,98885,1,0,0:0:0:0:
32,192,98885,1,0,0:0:0:0:
480,192,99100,128,0,99207:0:0:0:0:
288,192,99100,128,0,99207:0:0:0:0:
416,192,99100,128,0,99207:0:0:0:0:
480,192,99314,128,0,99421:0:0:0:0:
352,192,99314,128,0,99421:0:0:0:0:
224,192,99314,128,0,99421:0:0:0:0:
32,192,99314,1,0,0:0:0:0:
480,192,99528,1,0,0:0:0:0:
224,192,99528,1,0,0:0:0:0:
224,192,99635,128,0,99742:0:0:0:0:
480,192,99635,128,0,99742:0:0:0:0:
96,192,99742,1,0,0:0:0:0:
32,192,99742,1,0,0:0:0:0:
224,192,99850,1,0,0:0:0:0:
480,192,99850,1,0,0:0:0:0:
160,192,99956,1,0,0:0:0:0:
288,192,99956,1,0,0:0:0:0:
160,192,100064,1,0,0:0:0:0:
288,192,100064,1,0,0:0:0:0:
160,192,100171,1,0,0:0:0:0:
288,192,100171,1,0,0:0:0:0:
32,192,100171,1,0,0:0:0:0:
160,192,100278,1,0,0:0:0:0:
288,192,100278,1,0,0:0:0:0:
224,192,100385,1,0,0:0:0:0:
352,192,100385,1,0,0:0:0:0:
224,192,100492,1,0,0:0:0:0:
352,192,100492,1,0,0:0:0:0:
32,192,100599,1,0,0:0:0:0:
96,192,100599,1,0,0:0:0:0:
352,192,100599,128,0,100706:0:0:0:0:
224,192,100599,128,0,100706:0:0:0:0:
224,192,100814,1,0,0:0:0:0:
352,192,100814,1,0,0:0:0:0:
416,192,100921,1,0,0:0:0:0:
288,192,100921,1,0,0:0:0:0:
32,192,101028,1,0,0:0:0:0:
480,192,101028,128,0,101135:0:0:0:0:
352,192,101028,128,0,101135:0:0:0:0:
288,192,101242,1,0,0:0:0:0:
416,192,101242,1,0,0:0:0:0:
352,192,101349,128,0,101456:0:0:0:0:
224,192,101349,128,0,101456:0:0:0:0:
32,192,101456,1,0,0:0:0:0:
96,192,101456,1,0,0:0:0:0:
352,192,101564,1,0,0:0:0:0:
224,192,101564,1,0,0:0:0:0:
480,192,101671,1,0,0:0:0:0:
352,192,101671,1,0,0:0:0:0:
480,192,101778,1,0,0:0:0:0:
352,192,101778,1,0,0:0:0:0:
32,192,101885,1,0,0:0:0:0:
288,192,101885,1,0,0:0:0:0:
416,192,101885,1,0,0:0:0:0:
416,192,101992,1,0,0:0:0:0:
288,192,101992,1,0,0:0:0:0:
352,192,102099,1,0,0:0:0:0:
224,192,102099,1,0,0:0:0:0:
352,192,102206,1,0,0:0:0:0:
224,192,102206,1,0,0:0:0:0:
96,192,102313,1,0,0:0:0:0:
32,192,102313,1,0,0:0:0:0:
352,192,102314,128,0,102421:0:0:0:0:
224,192,102314,128,0,102421:0:0:0:0:
416,192,102528,1,0,0:0:0:0:
288,192,102528,1,0,0:0:0:0:
416,192,102635,1,0,0:0:0:0:
288,192,102635,1,0,0:0:0:0:
32,192,102741,1,0,0:0:0:0:
480,192,102742,128,0,102849:0:0:0:0:
352,192,102742,128,0,102849:0:0:0:0:
352,192,102956,1,0,0:0:0:0:
224,192,102956,1,0,0:0:0:0:
352,192,103064,128,0,103171:0:0:0:0:
224,192,103064,128,0,103171:0:0:0:0:
32,192,103170,1,0,0:0:0:0:
96,192,103170,1,0,0:0:0:0:
352,192,103278,1,0,0:0:0:0:
224,192,103278,1,0,0:0:0:0:
160,192,103385,1,0,0:0:0:0:
288,192,103385,1,0,0:0:0:0:
160,192,103493,1,0,0:0:0:0:
288,192,103493,1,0,0:0:0:0:
32,192,103599,1,0,0:0:0:0:
160,192,103600,1,0,0:0:0:0:
288,192,103600,1,0,0:0:0:0:
160,192,103707,1,0,0:0:0:0:
288,192,103707,1,0,0:0:0:0:
224,192,103814,1,0,0:0:0:0:
352,192,103814,1,0,0:0:0:0:
224,192,103921,1,0,0:0:0:0:
352,192,103921,1,0,0:0:0:0:
96,192,104027,1,0,0:0:0:0:
32,192,104027,1,0,0:0:0:0:
224,192,104028,128,0,104135:0:0:0:0:
352,192,104028,128,0,104135:0:0:0:0:
224,192,104243,1,0,0:0:0:0:
352,192,104243,1,0,0:0:0:0:
416,192,104350,1,0,0:0:0:0:
288,192,104350,1,0,0:0:0:0:
32,192,104456,1,0,0:0:0:0:
480,192,104457,128,0,104564:0:0:0:0:
352,192,104457,128,0,104564:0:0:0:0:
288,192,104671,1,0,0:0:0:0:
416,192,104671,1,0,0:0:0:0:
352,192,104778,128,0,104885:0:0:0:0:
224,192,104778,128,0,104885:0:0:0:0:
96,192,104885,1,0,0:0:0:0:
32,192,104885,1,0,0:0:0:0:
352,192,104993,1,0,0:0:0:0:
224,192,104993,1,0,0:0:0:0:
416,192,105099,1,0,0:0:0:0:
288,192,105099,1,0,0:0:0:0:
480,192,105207,1,0,0:0:0:0:
352,192,105207,1,0,0:0:0:0:
32,192,105313,1,0,0:0:0:0:
480,192,105314,128,0,105421:0:0:0:0:
352,192,105314,128,0,105421:0:0:0:0:
416,192,105528,128,0,105635:0:0:0:0:
288,192,105528,128,0,105635:0:0:0:0:
96,192,105742,1,0,0:0:0:0:
32,192,105742,1,0,0:0:0:0:
352,192,105742,128,0,105849:0:0:0:0:
224,192,105742,128,0,105849:0:0:0:0:
160,192,105956,128,0,106064:0:0:0:0:
288,192,105956,128,0,106064:0:0:0:0:
32,192,106170,1,0,0:0:0:0:
416,192,106171,128,0,106278:0:0:0:0:
288,192,106171,128,0,106278:0:0:0:0:
352,192,106385,1,0,0:0:0:0:
224,192,106385,1,0,0:0:0:0:
352,192,106493,128,0,106600:0:0:0:0:
224,192,106493,128,0,106600:0:0:0:0:
96,192,106598,1,0,0:0:0:0:
32,192,106598,1,0,0:0:0:0:
224,192,106707,1,0,0:0:0:0:
224,192,106814,1,0,0:0:0:0:
224,192,106921,1,0,0:0:0:0:
32,192,107027,1,0,0:0:0:0:
224,192,107028,1,0,0:0:0:0:
352,192,107028,1,0,0:0:0:0:
224,192,107135,1,0,0:0:0:0:
480,192,107135,1,0,0:0:0:0:
224,192,107242,1,0,0:0:0:0:
352,192,107242,1,0,0:0:0:0:
224,192,107349,1,0,0:0:0:0:
480,192,107349,1,0,0:0:0:0:
32,192,107456,1,0,0:0:0:0:
96,192,107456,1,0,0:0:0:0:
352,192,107456,128,0,107564:0:0:0:0:
224,192,107456,128,0,107564:0:0:0:0:
480,192,107456,128,0,107564:0:0:0:0:
288,192,107671,128,0,107778:0:0:0:0:
224,192,107671,128,0,107778:0:0:0:0:
416,192,107671,128,0,107778:0:0:0:0:
352,192,107885,128,0,107992:0:0:0:0:
32,192,107885,1,0,0:0:0:0:
224,192,107885,128,0,107992:0:0:0:0:
480,192,107885,128,0,107992:0:0:0:0:
352,192,108099,1,0,0:0:0:0:
224,192,108099,1,0,0:0:0:0:
352,192,108206,128,0,108314:0:0:0:0:
224,192,108206,128,0,108314:0:0:0:0:
96,192,108314,1,0,0:0:0:0:
32,192,108314,1,0,0:0:0:0:
352,192,108421,1,0,0:0:0:0:
224,192,108421,1,0,0:0:0:0:
416,192,108528,1,0,0:0:0:0:
224,192,108528,1,0,0:0:0:0:
416,192,108635,1,0,0:0:0:0:
224,192,108635,1,0,0:0:0:0:
32,192,108742,1,0,0:0:0:0:
352,192,108742,1,0,0:0:0:0:
480,192,108742,1,0,0:0:0:0:
224,192,108849,1,0,0:0:0:0:
480,192,108849,1,0,0:0:0:0:
352,192,108956,1,0,0:0:0:0:
480,192,108956,1,0,0:0:0:0:
224,192,109064,1,0,0:0:0:0:
480,192,109064,1,0,0:0:0:0:
32,192,109171,1,0,0:0:0:0:
96,192,109171,1,0,0:0:0:0:
224,192,109171,128,0,109278:0:0:0:0:
480,192,109171,128,0,109278:0:0:0:0:
352,192,109171,128,0,109278:0:0:0:0:
416,192,109385,128,0,109492:0:0:0:0:
288,192,109385,128,0,109492:0:0:0:0:
480,192,109385,128,0,109492:0:0:0:0:
352,192,109599,128,0,109706:0:0:0:0:
32,192,109599,1,0,0:0:0:0:
480,192,109599,128,0,109706:0:0:0:0:
224,192,109599,128,0,109706:0:0:0:0:
224,192,109814,1,0,0:0:0:0:
480,192,109814,1,0,0:0:0:0:
224,192,109921,128,0,110028:0:0:0:0:
480,192,109921,128,0,110028:0:0:0:0:
96,192,110028,1,0,0:0:0:0:
32,192,110028,1,0,0:0:0:0:
224,192,110135,1,0,0:0:0:0:
480,192,110135,1,0,0:0:0:0:
224,192,110242,1,0,0:0:0:0:
480,192,110242,1,0,0:0:0:0:
224,192,110349,1,0,0:0:0:0:
480,192,110349,1,0,0:0:0:0:
288,192,110456,128,0,110564:0:0:0:0:
32,192,110456,1,0,0:0:0:0:
352,192,110456,128,0,110564:0:0:0:0:
480,192,110456,128,0,110564:0:0:0:0:
480,192,110671,128,0,110778:0:0:0:0:
288,192,110671,128,0,110778:0:0:0:0:
352,192,110671,128,0,110778:0:0:0:0:
32,192,110885,1,0,0:0:0:0:
96,192,110885,1,0,0:0:0:0:
480,192,110885,128,0,110992:0:0:0:0:
352,192,110885,128,0,110992:0:0:0:0:
224,192,110885,128,0,110992:0:0:0:0:
224,192,111099,128,0,111206:0:0:0:0:
416,192,111099,128,0,111206:0:0:0:0:
352,192,111099,128,0,111206:0:0:0:0:
32,192,111314,1,0,0:0:0:0:
480,192,111314,1,0,0:0:0:0:
352,192,111314,1,0,0:0:0:0:
480,192,111421,1,0,0:0:0:0:
352,192,111421,1,0,0:0:0:0:
224,192,111528,1,0,0:0:0:0:
352,192,111528,1,0,0:0:0:0:
224,192,111635,128,0,111742:0:0:0:0:
352,192,111635,128,0,111742:0:0:0:0:
96,192,111742,1,0,0:0:0:0:
32,192,111742,1,0,0:0:0:0:
224,192,111849,1,0,0:0:0:0:
352,192,111849,1,0,0:0:0:0:
416,192,111956,1,0,0:0:0:0:
352,192,111956,1,0,0:0:0:0:
416,192,112064,1,0,0:0:0:0:
352,192,112064,1,0,0:0:0:0:
32,192,112171,1,0,0:0:0:0:
224,192,112171,1,0,0:0:0:0:
480,192,112171,1,0,0:0:0:0:
160,192,112171,1,0,0:0:0:0:
480,192,112278,1,0,0:0:0:0:
352,192,112278,1,0,0:0:0:0:
224,192,112385,1,0,0:0:0:0:
480,192,112385,1,0,0:0:0:0:
352,192,112492,1,0,0:0:0:0:
480,192,112492,1,0,0:0:0:0:
32,192,112599,1,0,0:0:0:0:
224,192,112599,128,0,112706:0:0:0:0:
480,192,112599,128,0,112706:0:0:0:0:
352,192,112599,128,0,112706:0:0:0:0:
96,192,112600,1,0,0:0:0:0:
160,192,112600,1,0,0:0:0:0:
416,192,112814,128,0,112921:0:0:0:0:
288,192,112814,128,0,112921:0:0:0:0:
480,192,112814,128,0,112921:0:0:0:0:
224,192,113028,128,0,113135:0:0:0:0:
32,192,113028,1,0,0:0:0:0:
480,192,113028,128,0,113135:0:0:0:0:
352,192,113028,128,0,113135:0:0:0:0:
160,192,113028,1,0,0:0:0:0:
224,192,113242,1,0,0:0:0:0:
480,192,113242,1,0,0:0:0:0:
480,192,113349,128,0,113456:0:0:0:0:
224,192,113349,128,0,113456:0:0:0:0:
96,192,113456,1,0,0:0:0:0:
32,192,113456,1,0,0:0:0:0:
160,192,113457,1,0,0:0:0:0:
480,192,113564,1,0,0:0:0:0:
224,192,113564,1,0,0:0:0:0:
160,192,113885,1,0,0:0:0:0:
288,192,114100,1,0,0:0:0:0:
32,192,114314,1,0,0:0:0:0:
160,192,114314,1,0,0:0:0:0:
288,192,114528,1,0,0:0:0:0:
160,192,114742,1,0,0:0:0:0:
288,192,114957,1,0,0:0:0:0:
32,192,115171,1,0,0:0:0:0:
160,192,115171,1,0,0:0:0:0:
288,192,115385,1,0,0:0:0:0:
288,192,115600,128,0,116457:0:0:0:0:
96,192,115600,1,0,0:0:0:0:
224,192,115814,1,0,0:0:0:0:
224,192,116028,1,0,0:0:0:0:
96,192,116242,1,0,0:0:0:0:
480,192,116457,1,0,0:0:0:0:
352,192,116671,1,0,0:0:0:0:
224,192,116885,1,0,0:0:0:0:
352,192,117100,128,0,117314:0:0:0:0:
32,192,117314,1,0,0:0:0:0:
288,192,117314,1,0,0:0:0:0:
416,192,117314,1,0,0:0:0:0:
224,192,117314,1,0,0:0:0:0:
160,192,117314,1,0,0:0:0:0:
96,192,117314,1,0,0:0:0:0:
352,192,117529,1,0,0:0:0:0:
480,192,117529,1,0,0:0:0:0:
352,192,117636,1,0,0:0:0:0:
224,192,117742,1,0,0:0:0:0:
32,192,117743,1,0,0:0:0:0:
416,192,117743,1,0,0:0:0:0:
288,192,117743,1,0,0:0:0:0:
96,192,117743,1,0,0:0:0:0:
480,192,117957,1,0,0:0:0:0:
352,192,117957,1,0,0:0:0:0:
352,192,118064,1,0,0:0:0:0:
32,192,118171,1,0,0:0:0:0:
96,192,118171,1,0,0:0:0:0:
224,192,118171,1,0,0:0:0:0:
352,192,118385,1,0,0:0:0:0:
480,192,118385,1,0,0:0:0:0:
352,192,118492,1,0,0:0:0:0:
416,192,118599,1,0,0:0:0:0:
96,192,118599,1,0,0:0:0:0:
288,192,118599,1,0,0:0:0:0:
32,192,118599,1,0,0:0:0:0:
224,192,118600,1,0,0:0:0:0:
480,192,118813,1,0,0:0:0:0:
352,192,118814,128,0,119028:0:0:0:0:
32,192,119027,1,0,0:0:0:0:
96,192,119027,1,0,0:0:0:0:
224,192,119028,1,0,0:0:0:0:
480,192,119242,1,0,0:0:0:0:
352,192,119242,1,0,0:0:0:0:
352,192,119349,1,0,0:0:0:0:
32,192,119456,1,0,0:0:0:0:
96,192,119456,1,0,0:0:0:0:
416,192,119456,1,0,0:0:0:0:
288,192,119456,1,0,0:0:0:0:
224,192,119457,1,0,0:0:0:0:
480,192,119670,1,0,0:0:0:0:
352,192,119670,1,0,0:0:0:0:
352,192,119777,1,0,0:0:0:0:
32,192,119884,1,0,0:0:0:0:
96,192,119884,1,0,0:0:0:0:
224,192,119885,1,0,0:0:0:0:
480,192,120098,1,0,0:0:0:0:
352,192,120098,1,0,0:0:0:0:
352,192,120205,1,0,0:0:0:0:
32,192,120312,1,0,0:0:0:0:
96,192,120312,1,0,0:0:0:0:
288,192,120312,1,0,0:0:0:0:
416,192,120312,1,0,0:0:0:0:
224,192,120314,1,0,0:0:0:0:
480,192,120526,1,0,0:0:0:0:
352,192,120527,128,0,120741:0:0:0:0:
32,192,120740,1,0,0:0:0:0:
96,192,120740,1,0,0:0:0:0:
224,192,120742,1,0,0:0:0:0:
352,192,120957,1,0,0:0:0:0:
480,192,120957,1,0,0:0:0:0:
352,192,121064,1,0,0:0:0:0:
288,192,121171,1,0,0:0:0:0:
416,192,121171,1,0,0:0:0:0:
32,192,121171,1,0,0:0:0:0:
96,192,121171,1,0,0:0:0:0:
224,192,121171,1,0,0:0:0:0:
352,192,121385,1,0,0:0:0:0:
480,192,121385,1,0,0:0:0:0:
352,192,121492,1,0,0:0:0:0:
96,192,121599,1,0,0:0:0:0:
32,192,121599,1,0,0:0:0:0:
224,192,121600,1,0,0:0:0:0:
352,192,121813,1,0,0:0:0:0:
480,192,121813,1,0,0:0:0:0:
352,192,121920,1,0,0:0:0:0:
288,192,122027,1,0,0:0:0:0:
416,192,122027,1,0,0:0:0:0:
96,192,122027,1,0,0:0:0:0:
32,192,122027,1,0,0:0:0:0:
224,192,122028,1,0,0:0:0:0:
480,192,122241,1,0,0:0:0:0:
352,192,122242,128,0,122456:0:0:0:0:
96,192,122455,1,0,0:0:0:0:
224,192,122455,1,0,0:0:0:0:
32,192,122455,1,0,0:0:0:0:
480,192,122671,1,0,0:0:0:0:
352,192,122671,1,0,0:0:0:0:
352,192,122778,1,0,0:0:0:0:
32,192,122885,1,0,0:0:0:0:
96,192,122885,1,0,0:0:0:0:
416,192,122885,1,0,0:0:0:0:
224,192,122885,1,0,0:0:0:0:
288,192,122885,1,0,0:0:0:0:
480,192,123099,1,0,0:0:0:0:
352,192,123099,1,0,0:0:0:0:
352,192,123206,1,0,0:0:0:0:
32,192,123313,1,0,0:0:0:0:
224,192,123313,1,0,0:0:0:0:
96,192,123313,1,0,0:0:0:0:
480,192,123527,1,0,0:0:0:0:
352,192,123527,1,0,0:0:0:0:
352,192,123634,1,0,0:0:0:0:
224,192,123741,1,0,0:0:0:0:
32,192,123741,1,0,0:0:0:0:
96,192,123741,1,0,0:0:0:0:
288,192,123741,1,0,0:0:0:0:
416,192,123741,1,0,0:0:0:0:
480,192,123955,1,0,0:0:0:0:
352,192,123956,128,0,124170:0:0:0:0:
32,192,124169,1,0,0:0:0:0:
224,192,124169,1,0,0:0:0:0:
96,192,124169,1,0,0:0:0:0:
352,192,124385,1,0,0:0:0:0:
480,192,124385,1,0,0:0:0:0:
352,192,124492,1,0,0:0:0:0:
224,192,124599,1,0,0:0:0:0:
288,192,124599,1,0,0:0:0:0:
416,192,124599,1,0,0:0:0:0:
32,192,124599,1,0,0:0:0:0:
96,192,124599,1,0,0:0:0:0:
352,192,124813,1,0,0:0:0:0:
480,192,124813,1,0,0:0:0:0:
352,192,124920,1,0,0:0:0:0:
96,192,125027,1,0,0:0:0:0:
224,192,125027,1,0,0:0:0:0:
32,192,125027,1,0,0:0:0:0:
352,192,125241,1,0,0:0:0:0:
480,192,125241,1,0,0:0:0:0:
352,192,125348,1,0,0:0:0:0:
288,192,125455,1,0,0:0:0:0:
416,192,125455,1,0,0:0:0:0:
96,192,125455,1,0,0:0:0:0:
224,192,125455,1,0,0:0:0:0:
32,192,125455,1,0,0:0:0:0:
480,192,125669,1,0,0:0:0:0:
352,192,125670,128,0,125884:0:0:0:0:
96,192,125883,1,0,0:0:0:0:
224,192,125883,1,0,0:0:0:0:
32,192,125883,1,0,0:0:0:0:
480,192,126100,1,0,0:0:0:0:
352,192,126100,1,0,0:0:0:0:
352,192,126207,1,0,0:0:0:0:
32,192,126314,1,0,0:0:0:0:
96,192,126314,1,0,0:0:0:0:
416,192,126314,1,0,0:0:0:0:
224,192,126314,1,0,0:0:0:0:
288,192,126314,1,0,0:0:0:0:
480,192,126528,1,0,0:0:0:0:
352,192,126528,1,0,0:0:0:0:
352,192,126635,1,0,0:0:0:0:
32,192,126742,1,0,0:0:0:0:
224,192,126742,1,0,0:0:0:0:
96,192,126742,1,0,0:0:0:0:
480,192,126956,1,0,0:0:0:0:
352,192,126956,1,0,0:0:0:0:
352,192,127063,1,0,0:0:0:0:
224,192,127170,1,0,0:0:0:0:
32,192,127170,1,0,0:0:0:0:
96,192,127170,1,0,0:0:0:0:
288,192,127170,1,0,0:0:0:0:
416,192,127170,1,0,0:0:0:0:
480,192,127384,1,0,0:0:0:0:
352,192,127385,128,0,127599:0:0:0:0:
32,192,127598,1,0,0:0:0:0:
224,192,127598,1,0,0:0:0:0:
96,192,127598,1,0,0:0:0:0:
352,192,127814,1,0,0:0:0:0:
480,192,127814,1,0,0:0:0:0:
352,192,127921,1,0,0:0:0:0:
224,192,128028,1,0,0:0:0:0:
288,192,128028,1,0,0:0:0:0:
416,192,128028,1,0,0:0:0:0:
32,192,128028,1,0,0:0:0:0:
96,192,128028,1,0,0:0:0:0:
352,192,128242,1,0,0:0:0:0:
480,192,128242,1,0,0:0:0:0:
352,192,128349,1,0,0:0:0:0:
96,192,128456,1,0,0:0:0:0:
224,192,128456,1,0,0:0:0:0:
32,192,128456,1,0,0:0:0:0:
352,192,128670,1,0,0:0:0:0:
480,192,128670,1,0,0:0:0:0:
352,192,128777,1,0,0:0:0:0:
288,192,128884,1,0,0:0:0:0:
416,192,128884,1,0,0:0:0:0:
96,192,128884,1,0,0:0:0:0:
224,192,128884,1,0,0:0:0:0:
32,192,128884,1,0,0:0:0:0:
480,192,129098,1,0,0:0:0:0:
352,192,129099,128,0,129313:0:0:0:0:
96,192,129312,1,0,0:0:0:0:
224,192,129312,1,0,0:0:0:0:
32,192,129312,1,0,0:0:0:0:
480,192,129528,1,0,0:0:0:0:
352,192,129528,1,0,0:0:0:0:
352,192,129635,1,0,0:0:0:0:
32,192,129742,1,0,0:0:0:0:
96,192,129742,1,0,0:0:0:0:
416,192,129742,1,0,0:0:0:0:
224,192,129742,1,0,0:0:0:0:
288,192,129742,1,0,0:0:0:0:
480,192,129956,1,0,0:0:0:0:
352,192,129956,1,0,0:0:0:0:
352,192,130063,1,0,0:0:0:0:
32,192,130170,1,0,0:0:0:0:
224,192,130170,1,0,0:0:0:0:
96,192,130170,1,0,0:0:0:0:
480,192,130384,1,0,0:0:0:0:
352,192,130384,1,0,0:0:0:0:
352,192,130491,1,0,0:0:0:0:
224,192,130598,1,0,0:0:0:0:
32,192,130598,1,0,0:0:0:0:
96,192,130598,1,0,0:0:0:0:
288,192,130598,1,0,0:0:0:0:
416,192,130598,1,0,0:0:0:0:
480,192,130812,1,0,0:0:0:0:
352,192,130813,128,0,131027:0:0:0:0:
32,192,131026,1,0,0:0:0:0:
224,192,131026,1,0,0:0:0:0:
288,192,131028,1,0,0:0:0:0:
416,192,131028,1,0,0:0:0:0:
96,192,131028,1,0,0:0:0:0:
480,192,131242,1,0,0:0:0:0:
416,192,131457,1,0,0:0:0:0:
480,192,131672,1,0,0:0:0:0:
416,192,131886,1,0,0:0:0:0:
480,192,132100,1,0,0:0:0:0:
416,192,132314,1,0,0:0:0:0:
480,192,132529,1,0,0:0:0:0:
96,192,132635,1,0,0:0:0:0:
224,192,132635,1,0,0:0:0:0:
96,192,132742,1,0,0:0:0:0:
224,192,132742,1,0,0:0:0:0:
416,192,132743,1,0,0:0:0:0:
480,192,132957,1,0,0:0:0:0:
96,192,132957,1,0,0:0:0:0:
224,192,133171,1,0,0:0:0:0:
416,192,133172,1,0,0:0:0:0:
96,192,133492,1,0,0:0:0:0:
224,192,133492,1,0,0:0:0:0:
416,192,133600,1,0,0:0:0:0:
96,192,133600,1,0,0:0:0:0:
224,192,133600,1,0,0:0:0:0:
480,192,133814,1,0,0:0:0:0:
96,192,133814,1,0,0:0:0:0:
224,192,134029,1,0,0:0:0:0:
416,192,134029,1,0,0:0:0:0:
480,192,134243,1,0,0:0:0:0:
416,192,134457,1,0,0:0:0:0:
96,192,134457,1,0,0:0:0:0:
224,192,134457,1,0,0:0:0:0:
32,192,134457,1,0,0:0:0:0:
480,192,134672,1,0,0:0:0:0:
96,192,134672,1,0,0:0:0:0:
224,192,134672,1,0,0:0:0:0:
32,192,134886,1,0,0:0:0:0:
96,192,134886,1,0,0:0:0:0:
224,192,134886,1,0,0:0:0:0:
416,192,134886,1,0,0:0:0:0:
480,192,135100,1,0,0:0:0:0:
96,192,135207,1,0,0:0:0:0:
32,192,135314,1,0,0:0:0:0:
416,192,135314,1,0,0:0:0:0:
224,192,135314,1,0,0:0:0:0:
96,192,135422,1,0,0:0:0:0:
480,192,135529,1,0,0:0:0:0:
224,192,135529,1,0,0:0:0:0:
96,192,135636,1,0,0:0:0:0:
32,192,135743,1,0,0:0:0:0:
416,192,135743,1,0,0:0:0:0:
224,192,135743,1,0,0:0:0:0:
480,192,135957,1,0,0:0:0:0:
224,192,135957,1,0,0:0:0:0:
96,192,135957,1,0,0:0:0:0:
96,192,136064,1,0,0:0:0:0:
224,192,136064,1,0,0:0:0:0:
32,192,136172,1,0,0:0:0:0:
416,192,136172,1,0,0:0:0:0:
224,192,136172,1,0,0:0:0:0:
96,192,136172,1,0,0:0:0:0:
96,192,136386,1,0,0:0:0:0:
352,192,136386,1,0,0:0:0:0:
32,192,136600,1,0,0:0:0:0:
416,192,136600,1,0,0:0:0:0:
96,192,136600,1,0,0:0:0:0:
96,192,136814,1,0,0:0:0:0:
352,192,136814,1,0,0:0:0:0:
32,192,137029,1,0,0:0:0:0:
416,192,137029,1,0,0:0:0:0:
224,192,137029,1,0,0:0:0:0:
480,192,137243,1,0,0:0:0:0:
96,192,137243,1,0,0:0:0:0:
32,192,137457,1,0,0:0:0:0:
416,192,137457,1,0,0:0:0:0:
224,192,137457,1,0,0:0:0:0:
480,192,137672,1,0,0:0:0:0:
96,192,137672,1,0,0:0:0:0:
224,192,137672,1,0,0:0:0:0:
96,192,137779,1,0,0:0:0:0:
224,192,137779,1,0,0:0:0:0:
32,192,137886,1,0,0:0:0:0:
416,192,137886,1,0,0:0:0:0:
96,192,137886,1,0,0:0:0:0:
224,192,137886,1,0,0:0:0:0:
480,192,138100,1,0,0:0:0:0:
96,192,138100,1,0,0:0:0:0:
416,192,138314,1,0,0:0:0:0:
32,192,138314,1,0,0:0:0:0:
224,192,138314,1,0,0:0:0:0:
480,192,138528,1,0,0:0:0:0:
96,192,138636,1,0,0:0:0:0:
224,192,138636,1,0,0:0:0:0:
32,192,138743,1,0,0:0:0:0:
416,192,138743,1,0,0:0:0:0:
96,192,138743,1,0,0:0:0:0:
224,192,138743,1,0,0:0:0:0:
480,192,138957,1,0,0:0:0:0:
96,192,138957,1,0,0:0:0:0:
224,192,138957,1,0,0:0:0:0:
96,192,139064,1,0,0:0:0:0:
224,192,139064,1,0,0:0:0:0:
416,192,139172,1,0,0:0:0:0:
32,192,139172,1,0,0:0:0:0:
96,192,139279,1,0,0:0:0:0:
480,192,139386,1,0,0:0:0:0:
224,192,139386,1,0,0:0:0:0:
96,192,139493,1,0,0:0:0:0:
32,192,139600,1,0,0:0:0:0:
416,192,139600,1,0,0:0:0:0:
224,192,139600,1,0,0:0:0:0:
96,192,139707,1,0,0:0:0:0:
224,192,139814,1,0,0:0:0:0:
352,192,139814,1,0,0:0:0:0:
96,192,139922,1,0,0:0:0:0:
416,192,140029,1,0,0:0:0:0:
32,192,140029,1,0,0:0:0:0:
224,192,140029,1,0,0:0:0:0:
352,192,140243,1,0,0:0:0:0:
96,192,140243,1,0,0:0:0:0:
32,192,140457,1,0,0:0:0:0:
416,192,140457,1,0,0:0:0:0:
224,192,140457,1,0,0:0:0:0:
480,192,140671,1,0,0:0:0:0:
224,192,140672,1,0,0:0:0:0:
416,192,140886,1,0,0:0:0:0:
32,192,140886,1,0,0:0:0:0:
96,192,140886,1,0,0:0:0:0:
480,192,141100,1,0,0:0:0:0:
96,192,141100,1,0,0:0:0:0:
224,192,141100,1,0,0:0:0:0:
96,192,141207,1,0,0:0:0:0:
224,192,141207,1,0,0:0:0:0:
32,192,141314,1,0,0:0:0:0:
416,192,141314,1,0,0:0:0:0:
96,192,141314,1,0,0:0:0:0:
224,192,141314,1,0,0:0:0:0:
480,192,141528,1,0,0:0:0:0:
96,192,141529,1,0,0:0:0:0:
416,192,141743,1,0,0:0:0:0:
32,192,141743,1,0,0:0:0:0:
224,192,141743,1,0,0:0:0:0:
480,192,141957,1,0,0:0:0:0:
96,192,141957,1,0,0:0:0:0:
224,192,142172,1,0,0:0:0:0:
32,192,142172,1,0,0:0:0:0:
416,192,142172,1,0,0:0:0:0:
96,192,142386,1,0,0:0:0:0:
224,192,142386,1,0,0:0:0:0:
480,192,142386,1,0,0:0:0:0:
96,192,142493,1,0,0:0:0:0:
224,192,142493,1,0,0:0:0:0:
32,192,142600,1,0,0:0:0:0:
416,192,142600,1,0,0:0:0:0:
224,192,142707,1,0,0:0:0:0:
96,192,142814,1,0,0:0:0:0:
480,192,142814,1,0,0:0:0:0:
224,192,142922,1,0,0:0:0:0:
96,192,143029,1,0,0:0:0:0:
32,192,143029,1,0,0:0:0:0:
416,192,143029,1,0,0:0:0:0:
224,192,143136,1,0,0:0:0:0:
96,192,143243,1,0,0:0:0:0:
480,192,143243,1,0,0:0:0:0:
224,192,143350,1,0,0:0:0:0:
96,192,143457,1,0,0:0:0:0:
32,192,143457,1,0,0:0:0:0:
416,192,143457,1,0,0:0:0:0:
224,192,143564,1,0,0:0:0:0:
96,192,143672,1,0,0:0:0:0:
480,192,143672,1,0,0:0:0:0:
224,192,143779,1,0,0:0:0:0:
96,192,143886,1,0,0:0:0:0:
32,192,143886,1,0,0:0:0:0:
416,192,143886,1,0,0:0:0:0:
96,192,144100,1,0,0:0:0:0:
224,192,144100,1,0,0:0:0:0:
480,192,144100,1,0,0:0:0:0:
96,192,144207,1,0,0:0:0:0:
224,192,144207,1,0,0:0:0:0:
32,192,144314,1,0,0:0:0:0:
416,192,144314,1,0,0:0:0:0:
480,192,144529,1,0,0:0:0:0:
96,192,144636,1,0,0:0:0:0:
224,192,144636,1,0,0:0:0:0:
32,192,144743,1,0,0:0:0:0:
416,192,144743,1,0,0:0:0:0:
96,192,144743,1,0,0:0:0:0:
224,192,144743,1,0,0:0:0:0:
480,192,144957,1,0,0:0:0:0:
224,192,144957,1,0,0:0:0:0:
416,192,145172,1,0,0:0:0:0:
32,192,145172,1,0,0:0:0:0:
96,192,145172,1,0,0:0:0:0:
480,192,145386,1,0,0:0:0:0:
224,192,145386,1,0,0:0:0:0:
416,192,145600,1,0,0:0:0:0:
32,192,145600,1,0,0:0:0:0:
96,192,145600,1,0,0:0:0:0:
480,192,145814,1,0,0:0:0:0:
224,192,145814,1,0,0:0:0:0:
32,192,146029,1,0,0:0:0:0:
416,192,146029,1,0,0:0:0:0:
96,192,146029,1,0,0:0:0:0:
224,192,146136,1,0,0:0:0:0:
480,192,146243,1,0,0:0:0:0:
96,192,146243,1,0,0:0:0:0:
224,192,146350,1,0,0:0:0:0:
352,192,146457,1,0,0:0:0:0:
32,192,146511,1,0,0:0:0:0:
352,192,146564,1,0,0:0:0:0:
32,192,146618,1,0,0:0:0:0:
352,192,146672,1,0,0:0:0:0:
32,192,146725,1,0,0:0:0:0:
352,192,146779,1,0,0:0:0:0:
32,192,146832,1,0,0:0:0:0:
352,192,146886,1,0,0:0:0:0:
32,192,146939,1,0,0:0:0:0:
352,192,146993,1,0,0:0:0:0:
32,192,147047,1,0,0:0:0:0:
352,192,147100,1,0,0:0:0:0:
32,192,147154,1,0,0:0:0:0:
352,192,147207,1,0,0:0:0:0:
32,192,147314,1,0,0:0:0:0:
288,192,147314,1,0,0:0:0:0:
32,192,147529,1,0,0:0:0:0:
96,192,147529,1,0,0:0:0:0:
224,192,147529,1,0,0:0:0:0:
352,192,147529,1,0,0:0:0:0:
480,192,147529,1,0,0:0:0:0:
288,192,147743,1,0,0:0:0:0:
32,192,147743,1,0,0:0:0:0:
160,192,147743,1,0,0:0:0:0:
416,192,147743,1,0,0:0:0:0:
480,192,147957,1,0,0:0:0:0:
224,192,148064,1,0,0:0:0:0:
224,192,148172,1,0,0:0:0:0:
160,192,148172,1,0,0:0:0:0:
32,192,148172,1,0,0:0:0:0:
224,192,148386,1,0,0:0:0:0:
480,192,148386,1,0,0:0:0:0:
352,192,148600,1,0,0:0:0:0:
416,192,148600,1,0,0:0:0:0:
160,192,148601,1,0,0:0:0:0:
32,192,148601,1,0,0:0:0:0:
480,192,148814,1,0,0:0:0:0:
224,192,148922,1,0,0:0:0:0:
160,192,149029,1,0,0:0:0:0:
32,192,149029,1,0,0:0:0:0:
352,192,149029,1,0,0:0:0:0:
224,192,149136,1,0,0:0:0:0:
480,192,149243,1,0,0:0:0:0:
352,192,149243,1,0,0:0:0:0:
224,192,149350,1,0,0:0:0:0:
416,192,149457,1,0,0:0:0:0:
352,192,149457,1,0,0:0:0:0:
160,192,149458,1,0,0:0:0:0:
32,192,149458,1,0,0:0:0:0:
224,192,149672,1,0,0:0:0:0:
480,192,149672,1,0,0:0:0:0:
224,192,149779,1,0,0:0:0:0:
224,192,149886,1,0,0:0:0:0:
32,192,149887,1,0,0:0:0:0:
160,192,149887,1,0,0:0:0:0:
352,192,150100,1,0,0:0:0:0:
224,192,150100,1,0,0:0:0:0:
224,192,150314,1,0,0:0:0:0:
416,192,150315,1,0,0:0:0:0:
32,192,150316,1,0,0:0:0:0:
160,192,150316,1,0,0:0:0:0:
224,192,150529,1,0,0:0:0:0:
352,192,150529,1,0,0:0:0:0:
224,192,150743,1,0,0:0:0:0:
160,192,150744,1,0,0:0:0:0:
32,192,150744,1,0,0:0:0:0:
224,192,150957,1,0,0:0:0:0:
480,192,150958,1,0,0:0:0:0:
224,192,151172,1,0,0:0:0:0:
416,192,151172,1,0,0:0:0:0:
160,192,151173,1,0,0:0:0:0:
32,192,151173,1,0,0:0:0:0:
352,192,151386,1,0,0:0:0:0:
224,192,151386,1,0,0:0:0:0:
480,192,151386,1,0,0:0:0:0:
224,192,151493,1,0,0:0:0:0:
352,192,151493,1,0,0:0:0:0:
352,192,151600,1,0,0:0:0:0:
224,192,151600,1,0,0:0:0:0:
32,192,151601,1,0,0:0:0:0:
160,192,151601,1,0,0:0:0:0:
224,192,151814,1,0,0:0:0:0:
480,192,151815,1,0,0:0:0:0:
352,192,152029,1,0,0:0:0:0:
416,192,152029,1,0,0:0:0:0:
32,192,152030,1,0,0:0:0:0:
160,192,152030,1,0,0:0:0:0:
480,192,152243,1,0,0:0:0:0:
224,192,152350,1,0,0:0:0:0:
352,192,152457,1,0,0:0:0:0:
160,192,152457,1,0,0:0:0:0:
32,192,152457,1,0,0:0:0:0:
224,192,152672,1,0,0:0:0:0:
480,192,152672,1,0,0:0:0:0:
352,192,152779,1,0,0:0:0:0:
416,192,152886,1,0,0:0:0:0:
32,192,152886,1,0,0:0:0:0:
160,192,152886,1,0,0:0:0:0:
352,192,152993,1,0,0:0:0:0:
352,192,153100,1,0,0:0:0:0:
480,192,153100,1,0,0:0:0:0:
352,192,153207,1,0,0:0:0:0:
224,192,153314,1,0,0:0:0:0:
160,192,153314,1,0,0:0:0:0:
32,192,153314,1,0,0:0:0:0:
224,192,153422,1,0,0:0:0:0:
224,192,153529,1,0,0:0:0:0:
352,192,153529,1,0,0:0:0:0:
224,192,153636,1,0,0:0:0:0:
224,192,153743,1,0,0:0:0:0:
160,192,153743,1,0,0:0:0:0:
32,192,153743,1,0,0:0:0:0:
416,192,153743,1,0,0:0:0:0:
224,192,153957,1,0,0:0:0:0:
352,192,153957,1,0,0:0:0:0:
32,192,154171,1,0,0:0:0:0:
160,192,154171,1,0,0:0:0:0:
224,192,154172,1,0,0:0:0:0:
352,192,154386,1,0,0:0:0:0:
480,192,154386,1,0,0:0:0:0:
416,192,154600,1,0,0:0:0:0:
224,192,154600,1,0,0:0:0:0:
32,192,154600,1,0,0:0:0:0:
160,192,154600,1,0,0:0:0:0:
224,192,154814,1,0,0:0:0:0:
352,192,154814,1,0,0:0:0:0:
480,192,154814,1,0,0:0:0:0:
352,192,154922,1,0,0:0:0:0:
224,192,154922,1,0,0:0:0:0:
160,192,155028,1,0,0:0:0:0:
32,192,155028,1,0,0:0:0:0:
352,192,155029,1,0,0:0:0:0:
224,192,155029,1,0,0:0:0:0:
352,192,155243,1,0,0:0:0:0:
480,192,155243,1,0,0:0:0:0:
224,192,155457,1,0,0:0:0:0:
160,192,155457,1,0,0:0:0:0:
32,192,155457,1,0,0:0:0:0:
416,192,155457,1,0,0:0:0:0:
352,192,155672,1,0,0:0:0:0:
480,192,155672,1,0,0:0:0:0:
224,192,155886,1,0,0:0:0:0:
160,192,155886,1,0,0:0:0:0:
32,192,155886,1,0,0:0:0:0:
224,192,156100,1,0,0:0:0:0:
352,192,156100,1,0,0:0:0:0:
224,192,156207,1,0,0:0:0:0:
416,192,156315,1,0,0:0:0:0:
32,192,156315,1,0,0:0:0:0:
160,192,156315,1,0,0:0:0:0:
224,192,156422,1,0,0:0:0:0:
224,192,156529,1,0,0:0:0:0:
352,192,156529,1,0,0:0:0:0:
224,192,156636,1,0,0:0:0:0:
224,192,156743,1,0,0:0:0:0:
160,192,156743,1,0,0:0:0:0:
32,192,156743,1,0,0:0:0:0:
224,192,156850,1,0,0:0:0:0:
224,192,156957,1,0,0:0:0:0:
480,192,156958,1,0,0:0:0:0:
224,192,157064,1,0,0:0:0:0:
352,192,157172,1,0,0:0:0:0:
160,192,157172,1,0,0:0:0:0:
32,192,157172,1,0,0:0:0:0:
416,192,157172,1,0,0:0:0:0:
224,192,157279,1,0,0:0:0:0:
352,192,157386,1,0,0:0:0:0:
480,192,157386,1,0,0:0:0:0:
224,192,157493,1,0,0:0:0:0:
352,192,157600,1,0,0:0:0:0:
32,192,157600,1,0,0:0:0:0:
160,192,157600,1,0,0:0:0:0:
224,192,157814,1,0,0:0:0:0:
352,192,157814,1,0,0:0:0:0:
352,192,157922,1,0,0:0:0:0:
224,192,157922,1,0,0:0:0:0:
32,192,158029,1,0,0:0:0:0:
416,192,158029,1,0,0:0:0:0:
160,192,158029,1,0,0:0:0:0:
352,192,158243,1,0,0:0:0:0:
224,192,158350,1,0,0:0:0:0:
224,192,158457,1,0,0:0:0:0:
160,192,158457,1,0,0:0:0:0:
32,192,158457,1,0,0:0:0:0:
352,192,158672,1,0,0:0:0:0:
480,192,158672,1,0,0:0:0:0:
224,192,158886,1,0,0:0:0:0:
160,192,158886,1,0,0:0:0:0:
32,192,158886,1,0,0:0:0:0:
416,192,158886,1,0,0:0:0:0:
352,192,159100,1,0,0:0:0:0:
480,192,159100,1,0,0:0:0:0:
224,192,159314,1,0,0:0:0:0:
32,192,159314,1,0,0:0:0:0:
160,192,159314,1,0,0:0:0:0:
224,192,159529,1,0,0:0:0:0:
352,192,159529,1,0,0:0:0:0:
160,192,159743,1,0,0:0:0:0:
224,192,159743,1,0,0:0:0:0:
32,192,159743,1,0,0:0:0:0:
416,192,159743,1,0,0:0:0:0:
224,192,159850,1,0,0:0:0:0:
224,192,159957,1,0,0:0:0:0:
352,192,159957,1,0,0:0:0:0:
224,192,160064,1,0,0:0:0:0:
32,192,160171,1,0,0:0:0:0:
160,192,160171,1,0,0:0:0:0:
352,192,160172,1,0,0:0:0:0:
352,192,160279,1,0,0:0:0:0:
352,192,160386,1,0,0:0:0:0:
480,192,160386,1,0,0:0:0:0:
352,192,160493,1,0,0:0:0:0:
416,192,160600,1,0,0:0:0:0:
224,192,160600,1,0,0:0:0:0:
32,192,160600,1,0,0:0:0:0:
160,192,160600,1,0,0:0:0:0:
224,192,160707,1,0,0:0:0:0:
224,192,160814,1,0,0:0:0:0:
480,192,160814,1,0,0:0:0:0:
224,192,160922,1,0,0:0:0:0:
160,192,161028,1,0,0:0:0:0:
32,192,161028,1,0,0:0:0:0:
224,192,161029,1,0,0:0:0:0:
224,192,161243,1,0,0:0:0:0:
352,192,161243,1,0,0:0:0:0:
352,192,161350,1,0,0:0:0:0:
224,192,161350,1,0,0:0:0:0:
160,192,161457,1,0,0:0:0:0:
32,192,161457,1,0,0:0:0:0:
416,192,161457,1,0,0:0:0:0:
352,192,161672,1,0,0:0:0:0:
224,192,161779,1,0,0:0:0:0:
32,192,161885,1,0,0:0:0:0:
160,192,161885,1,0,0:0:0:0:
224,192,161886,1,0,0:0:0:0:
224,192,162100,1,0,0:0:0:0:
480,192,162100,1,0,0:0:0:0:
416,192,162314,1,0,0:0:0:0:
224,192,162314,1,0,0:0:0:0:
32,192,162314,1,0,0:0:0:0:
160,192,162314,1,0,0:0:0:0:
224,192,162529,1,0,0:0:0:0:
480,192,162529,1,0,0:0:0:0:
352,192,162636,1,0,0:0:0:0:
224,192,162743,1,0,0:0:0:0:
160,192,162743,1,0,0:0:0:0:
32,192,162743,1,0,0:0:0:0:
352,192,162850,1,0,0:0:0:0:
224,192,162957,1,0,0:0:0:0:
480,192,162958,1,0,0:0:0:0:
352,192,163064,1,0,0:0:0:0:
416,192,163172,1,0,0:0:0:0:
224,192,163172,1,0,0:0:0:0:
32,192,163172,1,0,0:0:0:0:
160,192,163172,1,0,0:0:0:0:
224,192,163386,1,0,0:0:0:0:
352,192,163386,1,0,0:0:0:0:
480,192,163386,1,0,0:0:0:0:
352,192,163493,1,0,0:0:0:0:
224,192,163493,1,0,0:0:0:0:
224,192,163600,1,0,0:0:0:0:
352,192,163600,1,0,0:0:0:0:
32,192,163600,1,0,0:0:0:0:
160,192,163600,1,0,0:0:0:0:
224,192,163814,1,0,0:0:0:0:
352,192,163814,1,0,0:0:0:0:
224,192,164029,1,0,0:0:0:0:
160,192,164029,1,0,0:0:0:0:
32,192,164029,1,0,0:0:0:0:
416,192,164029,1,0,0:0:0:0:
224,192,164243,1,0,0:0:0:0:
352,192,164243,1,0,0:0:0:0:
224,192,164457,1,0,0:0:0:0:
32,192,164457,1,0,0:0:0:0:
160,192,164457,1,0,0:0:0:0:
224,192,164672,1,0,0:0:0:0:
480,192,164672,1,0,0:0:0:0:
416,192,164886,1,0,0:0:0:0:
224,192,164886,1,0,0:0:0:0:
32,192,164886,1,0,0:0:0:0:
160,192,164886,1,0,0:0:0:0:
224,192,165100,1,0,0:0:0:0:
352,192,165100,1,0,0:0:0:0:
480,192,165100,1,0,0:0:0:0:
352,192,165207,1,0,0:0:0:0:
224,192,165207,1,0,0:0:0:0:
224,192,165314,1,0,0:0:0:0:
352,192,165314,1,0,0:0:0:0:
32,192,165314,1,0,0:0:0:0:
160,192,165314,1,0,0:0:0:0:
224,192,165529,1,0,0:0:0:0:
480,192,165529,1,0,0:0:0:0:
352,192,165743,1,0,0:0:0:0:
160,192,165743,1,0,0:0:0:0:
32,192,165743,1,0,0:0:0:0:
416,192,165743,1,0,0:0:0:0:
480,192,165957,1,0,0:0:0:0:
224,192,166064,1,0,0:0:0:0:
32,192,166171,1,0,0:0:0:0:
160,192,166171,1,0,0:0:0:0:
352,192,166172,1,0,0:0:0:0:
224,192,166386,1,0,0:0:0:0:
480,192,166386,1,0,0:0:0:0:
352,192,166493,1,0,0:0:0:0:
32,192,166600,1,0,0:0:0:0:
160,192,166600,1,0,0:0:0:0:
416,192,166600,1,0,0:0:0:0:
224,192,166707,1,0,0:0:0:0:
352,192,166814,1,0,0:0:0:0:
480,192,166814,1,0,0:0:0:0:
224,192,166922,1,0,0:0:0:0:
32,192,167028,1,0,0:0:0:0:
160,192,167028,1,0,0:0:0:0:
352,192,167029,1,0,0:0:0:0:
224,192,167136,1,0,0:0:0:0:
224,192,167243,1,0,0:0:0:0:
352,192,167243,1,0,0:0:0:0:
224,192,167350,1,0,0:0:0:0:
416,192,167457,1,0,0:0:0:0:
224,192,167457,1,0,0:0:0:0:
32,192,167457,1,0,0:0:0:0:
160,192,167457,1,0,0:0:0:0:
224,192,167672,1,0,0:0:0:0:
352,192,167672,1,0,0:0:0:0:
160,192,167885,1,0,0:0:0:0:
32,192,167885,1,0,0:0:0:0:
224,192,167886,1,0,0:0:0:0:
224,192,168100,1,0,0:0:0:0:
480,192,168100,1,0,0:0:0:0:
288,192,168314,1,0,0:0:0:0:
224,192,168314,1,0,0:0:0:0:
160,192,168314,1,0,0:0:0:0:
32,192,168314,1,0,0:0:0:0:
416,192,168314,1,0,0:0:0:0:
480,192,168528,1,0,0:0:0:0:
352,192,168529,1,0,0:0:0:0:
224,192,168529,1,0,0:0:0:0:
352,192,168636,1,0,0:0:0:0:
224,192,168636,1,0,0:0:0:0:
32,192,168742,1,0,0:0:0:0:
160,192,168742,1,0,0:0:0:0:
352,192,168743,1,0,0:0:0:0:
224,192,168743,1,0,0:0:0:0:
352,192,168957,1,0,0:0:0:0:
480,192,168957,1,0,0:0:0:0:
32,192,169171,1,0,0:0:0:0:
416,192,169171,1,0,0:0:0:0:
160,192,169171,1,0,0:0:0:0:
224,192,169172,1,0,0:0:0:0:
352,192,169386,1,0,0:0:0:0:
480,192,169386,1,0,0:0:0:0:
224,192,169600,1,0,0:0:0:0:
160,192,169600,1,0,0:0:0:0:
32,192,169600,1,0,0:0:0:0:
224,192,169814,1,0,0:0:0:0:
352,192,169814,1,0,0:0:0:0:
224,192,169922,1,0,0:0:0:0:
416,192,170029,1,0,0:0:0:0:
32,192,170029,1,0,0:0:0:0:
160,192,170029,1,0,0:0:0:0:
224,192,170136,1,0,0:0:0:0:
224,192,170243,1,0,0:0:0:0:
352,192,170243,1,0,0:0:0:0:
224,192,170350,1,0,0:0:0:0:
224,192,170457,1,0,0:0:0:0:
160,192,170457,1,0,0:0:0:0:
32,192,170457,1,0,0:0:0:0:
224,192,170564,1,0,0:0:0:0:
224,192,170672,1,0,0:0:0:0:
480,192,170672,1,0,0:0:0:0:
224,192,170779,1,0,0:0:0:0:
352,192,170886,1,0,0:0:0:0:
160,192,170886,1,0,0:0:0:0:
32,192,170886,1,0,0:0:0:0:
416,192,170886,1,0,0:0:0:0:
224,192,170993,1,0,0:0:0:0:
352,192,171100,1,0,0:0:0:0:
480,192,171100,1,0,0:0:0:0:
224,192,171207,1,0,0:0:0:0:
352,192,171314,1,0,0:0:0:0:
32,192,171314,1,0,0:0:0:0:
160,192,171314,1,0,0:0:0:0:
224,192,171529,1,0,0:0:0:0:
352,192,171529,1,0,0:0:0:0:
224,192,171636,1,0,0:0:0:0:
32,192,171743,1,0,0:0:0:0:
416,192,171743,1,0,0:0:0:0:
160,192,171743,1,0,0:0:0:0:
352,192,171957,1,0,0:0:0:0:
224,192,172064,1,0,0:0:0:0:
160,192,172171,1,0,0:0:0:0:
32,192,172171,1,0,0:0:0:0:
224,192,172172,1,0,0:0:0:0:
352,192,172386,1,0,0:0:0:0:
480,192,172386,1,0,0:0:0:0:
224,192,172600,1,0,0:0:0:0:
160,192,172600,1,0,0:0:0:0:
32,192,172600,1,0,0:0:0:0:
416,192,172600,1,0,0:0:0:0:
352,192,172814,1,0,0:0:0:0:
480,192,172814,1,0,0:0:0:0:
32,192,173028,1,0,0:0:0:0:
160,192,173028,1,0,0:0:0:0:
224,192,173029,1,0,0:0:0:0:
352,192,173243,1,0,0:0:0:0:
160,192,173457,1,0,0:0:0:0:
224,192,173457,1,0,0:0:0:0:
32,192,173457,1,0,0:0:0:0:
416,192,173457,1,0,0:0:0:0:
352,192,173672,1,0,0:0:0:0:
224,192,173672,1,0,0:0:0:0:
224,192,173779,1,0,0:0:0:0:
32,192,173885,1,0,0:0:0:0:
160,192,173885,1,0,0:0:0:0:
224,192,173886,1,0,0:0:0:0:
352,192,173993,1,0,0:0:0:0:
224,192,174100,1,0,0:0:0:0:
480,192,174100,1,0,0:0:0:0:
352,192,174207,1,0,0:0:0:0:
416,192,174314,1,0,0:0:0:0:
224,192,174314,1,0,0:0:0:0:
32,192,174314,1,0,0:0:0:0:
160,192,174314,1,0,0:0:0:0:
352,192,174422,1,0,0:0:0:0:
480,192,174528,1,0,0:0:0:0:
224,192,174529,1,0,0:0:0:0:
352,192,174636,1,0,0:0:0:0:
160,192,174742,1,0,0:0:0:0:
32,192,174742,1,0,0:0:0:0:
224,192,174743,1,0,0:0:0:0:
224,192,174957,1,0,0:0:0:0:
352,192,174957,1,0,0:0:0:0:
224,192,175064,1,0,0:0:0:0:
160,192,175171,1,0,0:0:0:0:
32,192,175171,1,0,0:0:0:0:
416,192,175171,1,0,0:0:0:0:
352,192,175386,1,0,0:0:0:0:
416,192,175600,1,0,0:0:0:0:
224,192,175600,1,0,0:0:0:0:
352,192,175600,1,0,0:0:0:0:
32,192,175600,1,0,0:0:0:0:
160,192,175600,1,0,0:0:0:0:
288,192,175600,1,0,0:0:0:0:
352,192,175814,1,0,0:0:0:0:
32,192,176028,1,0,0:0:0:0:
352,192,176242,1,0,0:0:0:0:
32,192,176457,1,0,0:0:0:0:
352,192,176671,1,0,0:0:0:0:
32,192,176885,1,0,0:0:0:0:
352,192,177100,1,0,0:0:0:0:
32,192,177314,1,0,0:0:0:0:
224,192,177742,128,0,178600:0:0:0:0:
352,192,177742,128,0,178600:0:0:0:0:
288,192,178600,1,0,0:0:0:0:
416,192,178600,1,0,0:0:0:0:
32,192,178600,1,0,0:0:0:0:
160,192,178600,1,0,0:0:0:0:
32,192,179028,1,0,0:0:0:0:
288,192,179028,1,0,0:0:0:0:
160,192,179028,1,0,0:0:0:0:
288,192,179135,1,0,0:0:0:0:
160,192,179135,1,0,0:0:0:0:
352,192,179242,1,0,0:0:0:0:
224,192,179242,1,0,0:0:0:0:
352,192,179349,1,0,0:0:0:0:
224,192,179349,1,0,0:0:0:0:
352,192,179456,128,0,179563:0:0:0:0:
224,192,179456,128,0,179563:0:0:0:0:
32,192,179456,1,0,0:0:0:0:
96,192,179456,1,0,0:0:0:0:
352,192,179671,1,0,0:0:0:0:
224,192,179671,1,0,0:0:0:0:
288,192,179778,1,0,0:0:0:0:
416,192,179778,1,0,0:0:0:0:
352,192,179885,128,0,179992:0:0:0:0:
480,192,179885,128,0,179992:0:0:0:0:
32,192,179885,1,0,0:0:0:0:
416,192,180099,1,0,0:0:0:0:
288,192,180099,1,0,0:0:0:0:
224,192,180206,128,0,180313:0:0:0:0:
352,192,180206,128,0,180313:0:0:0:0:
96,192,180313,1,0,0:0:0:0:
32,192,180313,1,0,0:0:0:0:
224,192,180421,1,0,0:0:0:0:
352,192,180421,1,0,0:0:0:0:
352,192,180528,1,0,0:0:0:0:
480,192,180528,1,0,0:0:0:0:
352,192,180635,1,0,0:0:0:0:
480,192,180635,1,0,0:0:0:0:
416,192,180742,1,0,0:0:0:0:
288,192,180742,1,0,0:0:0:0:
32,192,180742,1,0,0:0:0:0:
288,192,180849,1,0,0:0:0:0:
416,192,180849,1,0,0:0:0:0:
224,192,180956,1,0,0:0:0:0:
352,192,180956,1,0,0:0:0:0:
224,192,181063,1,0,0:0:0:0:
352,192,181063,1,0,0:0:0:0:
32,192,181170,1,0,0:0:0:0:
96,192,181170,1,0,0:0:0:0:
224,192,181171,128,0,181278:0:0:0:0:
352,192,181171,128,0,181278:0:0:0:0:
288,192,181385,1,0,0:0:0:0:
416,192,181385,1,0,0:0:0:0:
288,192,181492,1,0,0:0:0:0:
416,192,181492,1,0,0:0:0:0:
32,192,181598,1,0,0:0:0:0:
352,192,181599,128,0,181706:0:0:0:0:
480,192,181599,128,0,181706:0:0:0:0:
224,192,181813,1,0,0:0:0:0:
352,192,181813,1,0,0:0:0:0:
224,192,181921,128,0,182028:0:0:0:0:
352,192,181921,128,0,182028:0:0:0:0:
96,192,182027,1,0,0:0:0:0:
32,192,182027,1,0,0:0:0:0:
224,192,182135,1,0,0:0:0:0:
352,192,182135,1,0,0:0:0:0:
288,192,182242,1,0,0:0:0:0:
160,192,182242,1,0,0:0:0:0:
288,192,182350,1,0,0:0:0:0:
160,192,182350,1,0,0:0:0:0:
32,192,182456,1,0,0:0:0:0:
288,192,182457,1,0,0:0:0:0:
160,192,182457,1,0,0:0:0:0:
288,192,182564,1,0,0:0:0:0:
160,192,182564,1,0,0:0:0:0:
352,192,182671,1,0,0:0:0:0:
224,192,182671,1,0,0:0:0:0:
352,192,182778,1,0,0:0:0:0:
224,192,182778,1,0,0:0:0:0:
32,192,182884,1,0,0:0:0:0:
96,192,182884,1,0,0:0:0:0:
352,192,182885,128,0,182992:0:0:0:0:
224,192,182885,128,0,182992:0:0:0:0:
352,192,183100,1,0,0:0:0:0:
224,192,183100,1,0,0:0:0:0:
288,192,183207,1,0,0:0:0:0:
416,192,183207,1,0,0:0:0:0:
32,192,183313,1,0,0:0:0:0:
352,192,183314,128,0,183421:0:0:0:0:
480,192,183314,128,0,183421:0:0:0:0:
416,192,183528,1,0,0:0:0:0:
288,192,183528,1,0,0:0:0:0:
224,192,183635,128,0,183742:0:0:0:0:
352,192,183635,128,0,183742:0:0:0:0:
32,192,183742,1,0,0:0:0:0:
96,192,183742,1,0,0:0:0:0:
224,192,183850,1,0,0:0:0:0:
352,192,183850,1,0,0:0:0:0:
288,192,183956,1,0,0:0:0:0:
416,192,183956,1,0,0:0:0:0:
352,192,184064,1,0,0:0:0:0:
480,192,184064,1,0,0:0:0:0:
32,192,184170,1,0,0:0:0:0:
352,192,184171,128,0,184278:0:0:0:0:
480,192,184171,128,0,184278:0:0:0:0:
288,192,184385,128,0,184492:0:0:0:0:
416,192,184385,128,0,184492:0:0:0:0:
352,192,184599,128,0,184706:0:0:0:0:
224,192,184599,128,0,184706:0:0:0:0:
96,192,184599,1,0,0:0:0:0:
32,192,184599,1,0,0:0:0:0:
288,192,184813,128,0,184921:0:0:0:0:
160,192,184813,128,0,184921:0:0:0:0:
32,192,185027,1,0,0:0:0:0:
288,192,185028,128,0,185135:0:0:0:0:
416,192,185028,128,0,185135:0:0:0:0:
224,192,185242,1,0,0:0:0:0:
352,192,185242,1,0,0:0:0:0:
224,192,185350,128,0,185457:0:0:0:0:
352,192,185350,128,0,185457:0:0:0:0:
32,192,185455,1,0,0:0:0:0:
96,192,185455,1,0,0:0:0:0:
224,192,185564,1,0,0:0:0:0:
224,192,185671,1,0,0:0:0:0:
224,192,185778,1,0,0:0:0:0:
32,192,185884,1,0,0:0:0:0:
352,192,185885,1,0,0:0:0:0:
224,192,185885,1,0,0:0:0:0:
480,192,185992,1,0,0:0:0:0:
224,192,185992,1,0,0:0:0:0:
352,192,186099,1,0,0:0:0:0:
224,192,186099,1,0,0:0:0:0:
480,192,186206,1,0,0:0:0:0:
224,192,186206,1,0,0:0:0:0:
224,192,186313,128,0,186421:0:0:0:0:
480,192,186313,128,0,186421:0:0:0:0:
352,192,186313,128,0,186421:0:0:0:0:
32,192,186313,1,0,0:0:0:0:
96,192,186313,1,0,0:0:0:0:
416,192,186528,128,0,186635:0:0:0:0:
224,192,186528,128,0,186635:0:0:0:0:
288,192,186528,128,0,186635:0:0:0:0:
224,192,186742,128,0,186849:0:0:0:0:
480,192,186742,128,0,186849:0:0:0:0:
352,192,186742,128,0,186849:0:0:0:0:
32,192,186742,1,0,0:0:0:0:
224,192,186956,1,0,0:0:0:0:
352,192,186956,1,0,0:0:0:0:
224,192,187063,128,0,187171:0:0:0:0:
352,192,187063,128,0,187171:0:0:0:0:
32,192,187171,1,0,0:0:0:0:
96,192,187171,1,0,0:0:0:0:
224,192,187278,1,0,0:0:0:0:
352,192,187278,1,0,0:0:0:0:
224,192,187385,1,0,0:0:0:0:
416,192,187385,1,0,0:0:0:0:
224,192,187492,1,0,0:0:0:0:
416,192,187492,1,0,0:0:0:0:
480,192,187599,1,0,0:0:0:0:
352,192,187599,1,0,0:0:0:0:
32,192,187599,1,0,0:0:0:0:
480,192,187706,1,0,0:0:0:0:
224,192,187706,1,0,0:0:0:0:
480,192,187813,1,0,0:0:0:0:
352,192,187813,1,0,0:0:0:0:
480,192,187921,1,0,0:0:0:0:
224,192,187921,1,0,0:0:0:0:
480,192,188028,128,0,188135:0:0:0:0:
352,192,188028,128,0,188135:0:0:0:0:
224,192,188028,128,0,188135:0:0:0:0:
32,192,188028,1,0,0:0:0:0:
96,192,188028,1,0,0:0:0:0:
480,192,188242,128,0,188349:0:0:0:0:
288,192,188242,128,0,188349:0:0:0:0:
416,192,188242,128,0,188349:0:0:0:0:
480,192,188456,128,0,188563:0:0:0:0:
224,192,188456,128,0,188563:0:0:0:0:
352,192,188456,128,0,188563:0:0:0:0:
32,192,188456,1,0,0:0:0:0:
480,192,188671,1,0,0:0:0:0:
224,192,188671,1,0,0:0:0:0:
480,192,188778,128,0,188885:0:0:0:0:
224,192,188778,128,0,188885:0:0:0:0:
32,192,188885,1,0,0:0:0:0:
96,192,188885,1,0,0:0:0:0:
480,192,188992,1,0,0:0:0:0:
224,192,188992,1,0,0:0:0:0:
480,192,189099,1,0,0:0:0:0:
224,192,189099,1,0,0:0:0:0:
480,192,189206,1,0,0:0:0:0:
224,192,189206,1,0,0:0:0:0:
352,192,189313,128,0,189421:0:0:0:0:
480,192,189313,128,0,189421:0:0:0:0:
288,192,189313,128,0,189421:0:0:0:0:
32,192,189313,1,0,0:0:0:0:
352,192,189528,128,0,189635:0:0:0:0:
288,192,189528,128,0,189635:0:0:0:0:
480,192,189528,128,0,189635:0:0:0:0:
352,192,189742,128,0,189849:0:0:0:0:
224,192,189742,128,0,189849:0:0:0:0:
480,192,189742,128,0,189849:0:0:0:0:
32,192,189742,1,0,0:0:0:0:
96,192,189742,1,0,0:0:0:0:
352,192,189956,128,0,190063:0:0:0:0:
416,192,189956,128,0,190063:0:0:0:0:
224,192,189956,128,0,190063:0:0:0:0:
352,192,190171,1,0,0:0:0:0:
480,192,190171,1,0,0:0:0:0:
32,192,190171,1,0,0:0:0:0:
352,192,190278,1,0,0:0:0:0:
480,192,190278,1,0,0:0:0:0:
352,192,190385,1,0,0:0:0:0:
224,192,190385,1,0,0:0:0:0:
352,192,190492,128,0,190599:0:0:0:0:
224,192,190492,128,0,190599:0:0:0:0:
32,192,190599,1,0,0:0:0:0:
96,192,190599,1,0,0:0:0:0:
352,192,190706,1,0,0:0:0:0:
224,192,190706,1,0,0:0:0:0:
352,192,190813,1,0,0:0:0:0:
416,192,190813,1,0,0:0:0:0:
352,192,190921,1,0,0:0:0:0:
416,192,190921,1,0,0:0:0:0:
480,192,191028,1,0,0:0:0:0:
224,192,191028,1,0,0:0:0:0:
32,192,191028,1,0,0:0:0:0:
352,192,191135,1,0,0:0:0:0:
480,192,191135,1,0,0:0:0:0:
480,192,191242,1,0,0:0:0:0:
224,192,191242,1,0,0:0:0:0:
480,192,191349,1,0,0:0:0:0:
352,192,191349,1,0,0:0:0:0:
480,192,191456,128,0,191563:0:0:0:0:
352,192,191456,128,0,191563:0:0:0:0:
224,192,191456,128,0,191563:0:0:0:0:
96,192,191456,1,0,0:0:0:0:
32,192,191456,1,0,0:0:0:0:
480,192,191671,128,0,191778:0:0:0:0:
288,192,191671,128,0,191778:0:0:0:0:
416,192,191671,128,0,191778:0:0:0:0:
480,192,191885,128,0,191992:0:0:0:0:
352,192,191885,128,0,191992:0:0:0:0:
224,192,191885,128,0,191992:0:0:0:0:
32,192,191885,1,0,0:0:0:0:
480,192,192099,1,0,0:0:0:0:
224,192,192099,1,0,0:0:0:0:
224,192,192206,128,0,192313:0:0:0:0:
480,192,192206,128,0,192313:0:0:0:0:
96,192,192313,1,0,0:0:0:0:
32,192,192313,1,0,0:0:0:0:
224,192,192421,1,0,0:0:0:0:
480,192,192421,1,0,0:0:0:0:
160,192,192527,1,0,0:0:0:0:
288,192,192527,1,0,0:0:0:0:
160,192,192635,1,0,0:0:0:0:
288,192,192635,1,0,0:0:0:0:
160,192,192742,1,0,0:0:0:0:
288,192,192742,1,0,0:0:0:0:
32,192,192742,1,0,0:0:0:0:
160,192,192849,1,0,0:0:0:0:
288,192,192849,1,0,0:0:0:0:
224,192,192956,1,0,0:0:0:0:
352,192,192956,1,0,0:0:0:0:
224,192,193063,1,0,0:0:0:0:
352,192,193063,1,0,0:0:0:0:
32,192,193170,1,0,0:0:0:0:
96,192,193170,1,0,0:0:0:0:
352,192,193170,128,0,193277:0:0:0:0:
224,192,193170,128,0,193277:0:0:0:0:
224,192,193385,1,0,0:0:0:0:
352,192,193385,1,0,0:0:0:0:
416,192,193492,1,0,0:0:0:0:
288,192,193492,1,0,0:0:0:0:
32,192,193599,1,0,0:0:0:0:
480,192,193599,128,0,193706:0:0:0:0:
352,192,193599,128,0,193706:0:0:0:0:
288,192,193813,1,0,0:0:0:0:
416,192,193813,1,0,0:0:0:0:
352,192,193920,128,0,194027:0:0:0:0:
224,192,193920,128,0,194027:0:0:0:0:
32,192,194027,1,0,0:0:0:0:
96,192,194027,1,0,0:0:0:0:
352,192,194135,1,0,0:0:0:0:
224,192,194135,1,0,0:0:0:0:
480,192,194242,1,0,0:0:0:0:
352,192,194242,1,0,0:0:0:0:
480,192,194349,1,0,0:0:0:0:
352,192,194349,1,0,0:0:0:0:
32,192,194456,1,0,0:0:0:0:
288,192,194456,1,0,0:0:0:0:
416,192,194456,1,0,0:0:0:0:
416,192,194563,1,0,0:0:0:0:
288,192,194563,1,0,0:0:0:0:
352,192,194670,1,0,0:0:0:0:
224,192,194670,1,0,0:0:0:0:
352,192,194777,1,0,0:0:0:0:
224,192,194777,1,0,0:0:0:0:
96,192,194884,1,0,0:0:0:0:
32,192,194884,1,0,0:0:0:0:
352,192,194885,128,0,194992:0:0:0:0:
224,192,194885,128,0,194992:0:0:0:0:
416,192,195099,1,0,0:0:0:0:
288,192,195099,1,0,0:0:0:0:
416,192,195206,1,0,0:0:0:0:
288,192,195206,1,0,0:0:0:0:
32,192,195312,1,0,0:0:0:0:
480,192,195313,128,0,195420:0:0:0:0:
352,192,195313,128,0,195420:0:0:0:0:
352,192,195527,1,0,0:0:0:0:
224,192,195527,1,0,0:0:0:0:
352,192,195635,128,0,195742:0:0:0:0:
224,192,195635,128,0,195742:0:0:0:0:
32,192,195741,1,0,0:0:0:0:
96,192,195741,1,0,0:0:0:0:
352,192,195849,1,0,0:0:0:0:
224,192,195849,1,0,0:0:0:0:
160,192,195956,1,0,0:0:0:0:
288,192,195956,1,0,0:0:0:0:
160,192,196064,1,0,0:0:0:0:
288,192,196064,1,0,0:0:0:0:
32,192,196170,1,0,0:0:0:0:
160,192,196171,1,0,0:0:0:0:
288,192,196171,1,0,0:0:0:0:
160,192,196278,1,0,0:0:0:0:
288,192,196278,1,0,0:0:0:0:
224,192,196385,1,0,0:0:0:0:
352,192,196385,1,0,0:0:0:0:
224,192,196492,1,0,0:0:0:0:
352,192,196492,1,0,0:0:0:0:
96,192,196598,1,0,0:0:0:0:
32,192,196598,1,0,0:0:0:0:
224,192,196599,128,0,196706:0:0:0:0:
352,192,196599,128,0,196706:0:0:0:0:
224,192,196814,1,0,0:0:0:0:
352,192,196814,1,0,0:0:0:0:
416,192,196921,1,0,0:0:0:0:
288,192,196921,1,0,0:0:0:0:
32,192,197027,1,0,0:0:0:0:
480,192,197028,128,0,197135:0:0:0:0:
352,192,197028,128,0,197135:0:0:0:0:
288,192,197242,1,0,0:0:0:0:
416,192,197242,1,0,0:0:0:0:
352,192,197349,128,0,197456:0:0:0:0:
224,192,197349,128,0,197456:0:0:0:0:
96,192,197456,1,0,0:0:0:0:
32,192,197456,1,0,0:0:0:0:
352,192,197564,1,0,0:0:0:0:
224,192,197564,1,0,0:0:0:0:
416,192,197670,1,0,0:0:0:0:
288,192,197670,1,0,0:0:0:0:
480,192,197778,1,0,0:0:0:0:
352,192,197778,1,0,0:0:0:0:
32,192,197884,1,0,0:0:0:0:
480,192,197885,128,0,197992:0:0:0:0:
352,192,197885,128,0,197992:0:0:0:0:
416,192,198099,128,0,198206:0:0:0:0:
288,192,198099,128,0,198206:0:0:0:0:
96,192,198313,1,0,0:0:0:0:
32,192,198313,1,0,0:0:0:0:
352,192,198313,128,0,198420:0:0:0:0:
224,192,198313,128,0,198420:0:0:0:0:
160,192,198527,128,0,198635:0:0:0:0:
288,192,198527,128,0,198635:0:0:0:0:
32,192,198741,1,0,0:0:0:0:
416,192,198742,128,0,198849:0:0:0:0:
288,192,198742,128,0,198849:0:0:0:0:
352,192,198956,1,0,0:0:0:0:
224,192,198956,1,0,0:0:0:0:
352,192,199064,128,0,199171:0:0:0:0:
224,192,199064,128,0,199171:0:0:0:0:
96,192,199169,1,0,0:0:0:0:
32,192,199169,1,0,0:0:0:0:
224,192,199278,1,0,0:0:0:0:
224,192,199385,1,0,0:0:0:0:
224,192,199492,1,0,0:0:0:0:
32,192,199598,1,0,0:0:0:0:
224,192,199599,1,0,0:0:0:0:
352,192,199599,1,0,0:0:0:0:
224,192,199706,1,0,0:0:0:0:
480,192,199706,1,0,0:0:0:0:
224,192,199813,1,0,0:0:0:0:
352,192,199813,1,0,0:0:0:0:
224,192,199920,1,0,0:0:0:0:
480,192,199920,1,0,0:0:0:0:
32,192,200027,1,0,0:0:0:0:
96,192,200027,1,0,0:0:0:0:
352,192,200027,128,0,200135:0:0:0:0:
224,192,200027,128,0,200135:0:0:0:0:
480,192,200027,128,0,200135:0:0:0:0:
288,192,200242,128,0,200349:0:0:0:0:
224,192,200242,128,0,200349:0:0:0:0:
416,192,200242,128,0,200349:0:0:0:0:
352,192,200456,128,0,200563:0:0:0:0:
32,192,200456,1,0,0:0:0:0:
224,192,200456,128,0,200563:0:0:0:0:
480,192,200456,128,0,200563:0:0:0:0:
352,192,200670,1,0,0:0:0:0:
224,192,200670,1,0,0:0:0:0:
352,192,200777,128,0,200885:0:0:0:0:
224,192,200777,128,0,200885:0:0:0:0:
96,192,200885,1,0,0:0:0:0:
32,192,200885,1,0,0:0:0:0:
352,192,200992,1,0,0:0:0:0:
224,192,200992,1,0,0:0:0:0:
416,192,201099,1,0,0:0:0:0:
224,192,201099,1,0,0:0:0:0:
416,192,201206,1,0,0:0:0:0:
224,192,201206,1,0,0:0:0:0:
32,192,201313,1,0,0:0:0:0:
352,192,201313,1,0,0:0:0:0:
480,192,201313,1,0,0:0:0:0:
224,192,201420,1,0,0:0:0:0:
480,192,201420,1,0,0:0:0:0:
352,192,201527,1,0,0:0:0:0:
480,192,201527,1,0,0:0:0:0:
224,192,201635,1,0,0:0:0:0:
480,192,201635,1,0,0:0:0:0:
32,192,201742,1,0,0:0:0:0:
96,192,201742,1,0,0:0:0:0:
224,192,201742,128,0,201849:0:0:0:0:
480,192,201742,128,0,201849:0:0:0:0:
352,192,201742,128,0,201849:0:0:0:0:
416,192,201956,128,0,202063:0:0:0:0:
288,192,201956,128,0,202063:0:0:0:0:
480,192,201956,128,0,202063:0:0:0:0:
352,192,202170,128,0,202277:0:0:0:0:
32,192,202170,1,0,0:0:0:0:
480,192,202170,128,0,202277:0:0:0:0:
224,192,202170,128,0,202277:0:0:0:0:
224,192,202385,1,0,0:0:0:0:
480,192,202385,1,0,0:0:0:0:
224,192,202492,128,0,202599:0:0:0:0:
480,192,202492,128,0,202599:0:0:0:0:
96,192,202599,1,0,0:0:0:0:
32,192,202599,1,0,0:0:0:0:
224,192,202706,1,0,0:0:0:0:
480,192,202706,1,0,0:0:0:0:
224,192,202813,1,0,0:0:0:0:
480,192,202813,1,0,0:0:0:0:
224,192,202920,1,0,0:0:0:0:
480,192,202920,1,0,0:0:0:0:
288,192,203027,128,0,203135:0:0:0:0:
32,192,203027,1,0,0:0:0:0:
352,192,203027,128,0,203135:0:0:0:0:
480,192,203027,128,0,203135:0:0:0:0:
480,192,203242,128,0,203349:0:0:0:0:
288,192,203242,128,0,203349:0:0:0:0:
352,192,203242,128,0,203349:0:0:0:0:
32,192,203456,1,0,0:0:0:0:
96,192,203456,1,0,0:0:0:0:
480,192,203456,128,0,203563:0:0:0:0:
352,192,203456,128,0,203563:0:0:0:0:
224,192,203456,128,0,203563:0:0:0:0:
224,192,203670,128,0,203777:0:0:0:0:
416,192,203670,128,0,203777:0:0:0:0:
352,192,203670,128,0,203777:0:0:0:0:
32,192,203885,1,0,0:0:0:0:
480,192,203885,1,0,0:0:0:0:
352,192,203885,1,0,0:0:0:0:
480,192,203992,1,0,0:0:0:0:
352,192,203992,1,0,0:0:0:0:
224,192,204099,1,0,0:0:0:0:
352,192,204099,1,0,0:0:0:0:
224,192,204206,128,0,204313:0:0:0:0:
352,192,204206,128,0,204313:0:0:0:0:
96,192,204313,1,0,0:0:0:0:
32,192,204313,1,0,0:0:0:0:
224,192,204420,1,0,0:0:0:0:
352,192,204420,1,0,0:0:0:0:
416,192,204527,1,0,0:0:0:0:
352,192,204527,1,0,0:0:0:0:
416,192,204635,1,0,0:0:0:0:
352,192,204635,1,0,0:0:0:0:
32,192,204742,1,0,0:0:0:0:
224,192,204742,1,0,0:0:0:0:
480,192,204742,1,0,0:0:0:0:
160,192,204742,1,0,0:0:0:0:
480,192,204849,1,0,0:0:0:0:
352,192,204849,1,0,0:0:0:0:
224,192,204956,1,0,0:0:0:0:
480,192,204956,1,0,0:0:0:0:
352,192,205063,1,0,0:0:0:0:
480,192,205063,1,0,0:0:0:0:
32,192,205170,1,0,0:0:0:0:
224,192,205170,128,0,205277:0:0:0:0:
480,192,205170,128,0,205277:0:0:0:0:
352,192,205170,128,0,205277:0:0:0:0:
96,192,205171,1,0,0:0:0:0:
160,192,205171,1,0,0:0:0:0:
416,192,205385,128,0,205492:0:0:0:0:
288,192,205385,128,0,205492:0:0:0:0:
480,192,205385,128,0,205492:0:0:0:0:
224,192,205599,128,0,205706:0:0:0:0:
32,192,205599,1,0,0:0:0:0:
480,192,205599,128,0,205706:0:0:0:0:
352,192,205599,128,0,205706:0:0:0:0:
160,192,205599,1,0,0:0:0:0:
224,192,205813,1,0,0:0:0:0:
480,192,205813,1,0,0:0:0:0:
480,192,205920,128,0,206027:0:0:0:0:
224,192,205920,128,0,206027:0:0:0:0:
96,192,206027,1,0,0:0:0:0:
32,192,206027,1,0,0:0:0:0:
160,192,206028,1,0,0:0:0:0:
480,192,206135,1,0,0:0:0:0:
224,192,206135,1,0,0:0:0:0:
288,192,206242,1,0,0:0:0:0:
416,192,206242,1,0,0:0:0:0:
288,192,206350,1,0,0:0:0:0:
416,192,206350,1,0,0:0:0:0:
32,192,206457,1,0,0:0:0:0:
352,192,206671,1,0,0:0:0:0:
32,192,206885,1,0,0:0:0:0:
96,192,206885,1,0,0:0:0:0:
352,192,207100,1,0,0:0:0:0:
32,192,207314,1,0,0:0:0:0:
352,192,207528,1,0,0:0:0:0:
32,192,207742,1,0,0:0:0:0:
96,192,207742,1,0,0:0:0:0:
352,192,207957,1,0,0:0:0:0:
288,192,208171,128,0,209028:0:0:0:0:
352,192,209457,1,0,0:0:0:0:
352,192,209885,1,0,0:0:0:0:
288,192,209885,1,0,0:0:0:0:
224,192,209885,1,0,0:0:0:0:
480,192,209885,1,0,0:0:0:0:
96,192,209885,1,0,0:0:0:0:
32,192,209885,1,0,0:0:0:0:
